Encode could be completed

HandBrake for Mac support
Forum rules
An Activity Log is required for support requests. Please read How-to get an activity log? for details on how and why this should be provided.
Post Reply
susan.robin
Posts: 4
Joined: Sun Sep 30, 2018 7:08 pm

Encode could be completed

Post by susan.robin » Sun Sep 30, 2018 7:15 pm

Description of problem or question:
Using the same computer, same version of Handbrake and same video recording equipment. Same setting on Handbrake for conversion. Unable to completer encoding.



Steps to reproduce the problem (If Applicable): I have tried several other videos from the same source and other sources which have converted fine in the past, including with this version of Handbrake. This time every one of the videos I have tried to convert have resulted in 'Encode Could Not Be Completed. Abrupt stop after starting but remain in cue. I have deleted them from the cue before trying again. I have tried to overwrite the one in the cue. Same results.

I am working on MacOS High Sierra, Version 10.13.6



HandBrake version (e.g., 1.0.0): 1.1.2




Operating system and version (e.g., Ubuntu 16.04 LTS, macOS 10.13 High Sierra, Windows 10 Creators Update):




HandBrake Activity Log ***required*** (see How-to get an activity log)

Code: Select all

Please replace this text with the contents of your log file between the two code tags - OR -  provide a pastebin URL in place of these 3 lines.

rollin_eng
Veteran User
Posts: 3069
Joined: Wed May 04, 2011 11:06 pm

Re: Encode could be completed

Post by rollin_eng » Sun Sep 30, 2018 7:43 pm

Could you please post your HB logs, instructions can be found here:

https://handbrake.fr/docs/en/latest/hel ... y-log.html

Woodstock
Veteran User
Posts: 3064
Joined: Tue Aug 27, 2013 6:39 am

Re: Encode could be completed

Post by Woodstock » Sun Sep 30, 2018 9:41 pm

Without logs from the failure, your question is equivalent to, "My car doesn't always start. What's wrong?"

susan.robin
Posts: 4
Joined: Sun Sep 30, 2018 7:08 pm

Re: Encode could not be completed

Post by susan.robin » Sun Sep 30, 2018 11:40 pm

Code: Select all

13:54:47] macgui: Handbrake Version: 1.1.2  (2018090500)
[13:54:47] hb_init: starting libhb thread
[13:54:47] hb_init: starting libhb thread
[13:55:09] macgui: trying to open a folder or file
[13:55:09] macgui: ScanCore scanning titles with a duration of 10 seconds or more
[13:55:09] CPU: Intel(R) Core(TM) i5-4250U CPU @ 1.30GHz
[13:55:09]  - Intel microarchitecture Haswell
[13:55:09]  - logical processor count: 4
[13:55:09] hb_scan: path=/Users/susanrobinson/Movies/9:12 lecture.MP4, title_index=0
udfread ERROR: ECMA 167 Volume Recognition failed
disc.c:323: failed opening UDF image /Users/susanrobinson/Movies/9:12 lecture.MP4
disc.c:424: error opening file BDMV/index.bdmv
disc.c:424: error opening file BDMV/BACKUP/index.bdmv
[13:55:09] bd: not a bd - trying as a stream/file instead
libdvdnav: Using dvdnav version 6.0.0
libdvdread: Encrypted DVD support unavailable.
libdvdread:DVDOpenFileUDF:UDFFindFile /VIDEO_TS/VIDEO_TS.IFO failed
libdvdread:DVDOpenFileUDF:UDFFindFile /VIDEO_TS/VIDEO_TS.BUP failed
libdvdread: Can't open file VIDEO_TS.IFO.
libdvdnav: vm: failed to read VIDEO_TS.IFO
[13:55:09] dvd: not a dvd - trying as a stream/file instead
Input #0, mov,mp4,m4a,3gp,3g2,mj2, from '/Users/susanrobinson/Movies/9:12 lecture.MP4':
  Metadata:
    major_brand     : MSNV
    minor_version   : 22675568
    compatible_brands: MSNVmp42isom
    creation_time   : 2018-09-12 15:26:13
  Duration: 00:17:20.03, start: 0.000000, bitrate: 3020 kb/s
    Stream #0:0(und): Video: h264 (Main) [avc1 / 0x31637661]
      yuv420p, tv, bt709/bt709/iec61966-2-4
      1280x720 [PAR 1:1 DAR 16:9], 2843 kb/s
      29.97 fps, 30k tbn (default)
    Metadata:
      creation_time   : 2018-09-12 15:26:13
      handler_name    : Video Media Handler
      encoder         : AVC Coding
    Stream #0:1(und): Audio: aac (LC) [mp4a / 0x6134706D]
      48000 Hz, stereo, fltp, 127 kb/s (default)
    Metadata:
      creation_time   : 2018-09-12 15:26:13
      handler_name    : Sound Media Handler
[13:55:09] scan: decoding previews for title 1
[13:55:09] scan: audio 0x1: aac, rate=48000Hz, bitrate=127970 Unknown (AAC) (2.0 ch)
[13:55:09] scan: 10 previews, 1280x720, 29.970 fps, autocrop = 0/0/0/0, aspect 16:9, PAR 1:1
[13:55:09] libhb: scan thread found 1 valid title(s)
[13:55:10] macgui: ScanCore scan done
[13:57:36] macgui: QueueCore scanning specifically for title: 1
[13:57:36] CPU: Intel(R) Core(TM) i5-4250U CPU @ 1.30GHz
[13:57:36]  - Intel microarchitecture Haswell
[13:57:36]  - logical processor count: 4
[13:57:36] hb_scan: path=/Users/susanrobinson/Movies/9:12 lecture.MP4, title_index=1
udfread ERROR: ECMA 167 Volume Recognition failed
disc.c:323: failed opening UDF image /Users/susanrobinson/Movies/9:12 lecture.MP4
disc.c:424: error opening file BDMV/index.bdmv
disc.c:424: error opening file BDMV/BACKUP/index.bdmv
[13:57:36] bd: not a bd - trying as a stream/file instead
libdvdnav: Using dvdnav version 6.0.0
libdvdread: Encrypted DVD support unavailable.
libdvdread:DVDOpenFileUDF:UDFFindFile /VIDEO_TS/VIDEO_TS.IFO failed
libdvdread:DVDOpenFileUDF:UDFFindFile /VIDEO_TS/VIDEO_TS.BUP failed
libdvdread: Can't open file VIDEO_TS.IFO.
libdvdnav: vm: failed to read VIDEO_TS.IFO
[13:57:36] dvd: not a dvd - trying as a stream/file instead
Input #0, mov,mp4,m4a,3gp,3g2,mj2, from '/Users/susanrobinson/Movies/9:12 lecture.MP4':
  Metadata:
    major_brand     : MSNV
    minor_version   : 22675568
    compatible_brands: MSNVmp42isom
    creation_time   : 2018-09-12 15:26:13
  Duration: 00:17:20.03, start: 0.000000, bitrate: 3020 kb/s
    Stream #0:0(und): Video: h264 (Main) [avc1 / 0x31637661]
      yuv420p, tv, bt709/bt709/iec61966-2-4
      1280x720 [PAR 1:1 DAR 16:9], 2843 kb/s
      29.97 fps, 30k tbn (default)
    Metadata:
      creation_time   : 2018-09-12 15:26:13
      handler_name    : Video Media Handler
      encoder         : AVC Coding
    Stream #0:1(und): Audio: aac (LC) [mp4a / 0x6134706D]
      48000 Hz, stereo, fltp, 127 kb/s (default)
    Metadata:
      creation_time   : 2018-09-12 15:26:13
      handler_name    : Sound Media Handler
[13:57:36] scan: decoding previews for title 1
[13:57:36] scan: audio 0x1: aac, rate=48000Hz, bitrate=127970 Unknown (AAC) (2.0 ch)
[13:57:36] scan: 10 previews, 1280x720, 29.970 fps, autocrop = 0/0/0/0, aspect 16:9, PAR 1:1
[13:57:36] libhb: scan thread found 1 valid title(s)
[13:57:37] macgui: QueueCore scan done
[13:57:37] macgui: QueueCore started encoding 9:12 handbrake9:30.mp4
[13:57:37] macgui: QueueCore with preset bsf video
[13:57:37] 1 job(s) to process
[13:57:37] starting job
[13:57:37] decomb filter thread started for segment 0
[13:57:37] decomb filter thread started for segment 1
[13:57:37] decomb filter thread started for segment 2
[13:57:37] decomb filter thread started for segment 3
[13:57:37] decomb check thread started for segment 0
[13:57:37] decomb check thread started for segment 1
[13:57:37] decomb check thread started for segment 2
[13:57:37] decomb check thread started for segment 3
[13:57:37] yadif thread started for segment 0
[13:57:37] yadif thread started for segment 1
[13:57:37] yadif thread started for segment 2
[13:57:37] yadif thread started for segment 3
[13:57:37] work: only 1 chapter, disabling chapter markers
[13:57:37] job configuration:
[13:57:37]  * source
[13:57:37]    + /Users/susanrobinson/Movies/9:12 lecture.MP4
[13:57:37]    + title 1, chapter(s) 1 to 1
[13:57:37]    + container: mov,mp4,m4a,3gp,3g2,mj2
[13:57:37]    + data rate: 3020 kbps
[13:57:37]  * destination
[13:57:37]    + /Users/susanrobinson/Movies/9:26video.MP4/9:12 handbrake9:30.mp4
[13:57:37]    + container: MPEG-4 (libavformat)
[13:57:37]      + optimized for HTTP streaming (fast start)
[13:57:37]  * video track
[13:57:37]    + decoder: h264
[13:57:37]      + bitrate 2843 kbps
[13:57:37]    + filters
[13:57:37]      + Comb Detect (mode=0:spatial-metric=2:motion-thresh=2:spatial-thresh=3:filter-mode=1:block-thresh=80:block-width=16:block-height=16)
[13:57:37]      + Decomb (mode=39)
[13:57:37]      + Framerate Shaper (mode=1:rate=27000000/900900)
[13:57:37]        + frame rate: 29.970 fps -> constant 29.970 fps
[13:57:37]      + Crop and Scale (width=720:height=480:crop-top=0:crop-bottom=0:crop-left=0:crop-right=0)
[13:57:37]        + source: 1280 * 720, crop (0/0/0/0): 1280 * 720, scale: 720 * 480
[13:57:37]    + Output geometry
[13:57:37]      + storage dimensions: 720 x 480
[13:57:37]      + pixel aspect ratio: 32 : 27
[13:57:37]      + display dimensions: 853 x 480
[13:57:37]    + encoder: H.264 (libx264)
[13:57:37]      + preset:  veryfast
[13:57:37]      + profile: main
[13:57:37]      + level:   3.1
[13:57:37]      + quality: 22.00 (RF)
[13:57:37]  * audio track 1
[13:57:37]    + decoder: Unknown (AAC) (2.0 ch) (track 1, id 0x1)
[13:57:37]      + bitrate: 127 kbps, samplerate: 48000 Hz
[13:57:37]    + mixdown: Stereo
[13:57:37]    + encoder: AAC (Apple AudioToolbox)
[13:57:37]      + bitrate: 96 kbps, samplerate: 48000 Hz
[13:57:37] sync: expecting 31170 video frames
[13:57:37] encx264: min-keyint: 30, keyint: 300
[13:57:37] encx264: encoding at constant RF 22.000000
[13:57:37] encx264: unparsed options: level=3.1:ref=1:8x8dct=0:weightp=1:subme=2:mixed-refs=0:trellis=0:vbv-bufsize=14000:vbv-maxrate=14000:rc-lookahead=10
x264 [info]: using SAR=32/27
x264 [info]: using cpu capabilities: MMX2 SSE2Fast SSSE3 SSE4.2 AVX FMA3 BMI2 AVX2
x264 [info]: profile Main, level 3.1
error: avio_open2 failed, errno -20
[13:57:37] work: average encoding speed for job is 0.000000 fps
[13:57:37] comb detect: heavy 0 | light 0 | uncombed 0 | total 0
[13:57:37] decomb: deinterlaced 0 | blended 0 | unfiltered 0 | total 0
[13:57:37] vfr: 0 frames output, 0 dropped and 0 duped for CFR/PFR
[13:57:37] vfr: lost time: 0 (0 frames)
[13:57:37] vfr: gained time: 0 (0 frames) (0 not accounted for)
[13:57:37] aac-decoder done: 0 frames, 0 decoder errors
[13:57:37] h264-decoder done: 0 frames, 0 decoder errors
[13:57:37] sync: got 0 frames, 31170 expected
[13:57:37] libhb: work result = 3
[13:57:38] macgui: QueueCore work failed
[13:57:38] macgui: Queue Done, there are no more pending encodes
[13:59:03] macgui: QueueCore scanning specifically for title: 1
[13:59:03] CPU: Intel(R) Core(TM) i5-4250U CPU @ 1.30GHz
[13:59:03]  - Intel microarchitecture Haswell
[13:59:03]  - logical processor count: 4
[13:59:03] hb_scan: path=/Users/susanrobinson/Movies/9:12 lecture.MP4, title_index=1
udfread ERROR: ECMA 167 Volume Recognition failed
disc.c:323: failed opening UDF image /Users/susanrobinson/Movies/9:12 lecture.MP4
disc.c:424: error opening file BDMV/index.bdmv
disc.c:424: error opening file BDMV/BACKUP/index.bdmv
[13:59:03] bd: not a bd - trying as a stream/file instead
libdvdnav: Using dvdnav version 6.0.0
libdvdread: Encrypted DVD support unavailable.
libdvdread:DVDOpenFileUDF:UDFFindFile /VIDEO_TS/VIDEO_TS.IFO failed
libdvdread:DVDOpenFileUDF:UDFFindFile /VIDEO_TS/VIDEO_TS.BUP failed
libdvdread: Can't open file VIDEO_TS.IFO.
libdvdnav: vm: failed to read VIDEO_TS.IFO
[13:59:03] dvd: not a dvd - trying as a stream/file instead
Input #0, mov,mp4,m4a,3gp,3g2,mj2, from '/Users/susanrobinson/Movies/9:12 lecture.MP4':
  Metadata:
    major_brand     : MSNV
    minor_version   : 22675568
    compatible_brands: MSNVmp42isom
    creation_time   : 2018-09-12 15:26:13
  Duration: 00:17:20.03, start: 0.000000, bitrate: 3020 kb/s
    Stream #0:0(und): Video: h264 (Main) [avc1 / 0x31637661]
      yuv420p, tv, bt709/bt709/iec61966-2-4
      1280x720 [PAR 1:1 DAR 16:9], 2843 kb/s
      29.97 fps, 30k tbn (default)
    Metadata:
      creation_time   : 2018-09-12 15:26:13
      handler_name    : Video Media Handler
      encoder         : AVC Coding
    Stream #0:1(und): Audio: aac (LC) [mp4a / 0x6134706D]
      48000 Hz, stereo, fltp, 127 kb/s (default)
    Metadata:
      creation_time   : 2018-09-12 15:26:13
      handler_name    : Sound Media Handler
[13:59:03] scan: decoding previews for title 1
[13:59:03] scan: audio 0x1: aac, rate=48000Hz, bitrate=127970 Unknown (AAC) (2.0 ch)
[13:59:03] scan: 10 previews, 1280x720, 29.970 fps, autocrop = 0/0/0/0, aspect 16:9, PAR 1:1
[13:59:03] libhb: scan thread found 1 valid title(s)
[13:59:04] macgui: QueueCore scan done
[13:59:04] macgui: QueueCore started encoding 9:12 handbrake9:30.mp4
[13:59:04] macgui: QueueCore with preset bsf video
[13:59:04] 1 job(s) to process
[13:59:04] starting job
[13:59:04] decomb filter thread started for segment 1
[13:59:04] decomb filter thread started for segment 0
[13:59:04] decomb filter thread started for segment 2
[13:59:04] decomb check thread started for segment 0
[13:59:04] decomb filter thread started for segment 3
[13:59:04] decomb check thread started for segment 1
[13:59:04] decomb check thread started for segment 2
[13:59:04] decomb check thread started for segment 3
[13:59:04] yadif thread started for segment 0
[13:59:04] yadif thread started for segment 1
[13:59:04] yadif thread started for segment 2
[13:59:04] yadif thread started for segment 3
[13:59:04] work: only 1 chapter, disabling chapter markers
[13:59:04] job configuration:
[13:59:04]  * source
[13:59:04]    + /Users/susanrobinson/Movies/9:12 lecture.MP4
[13:59:04]    + title 1, chapter(s) 1 to 1
[13:59:04]    + container: mov,mp4,m4a,3gp,3g2,mj2
[13:59:04]    + data rate: 3020 kbps
[13:59:04]  * destination
[13:59:04]    + /Users/susanrobinson/Movies/9:26video.MP4/9:12 handbrake9:30.mp4
[13:59:04]    + container: MPEG-4 (libavformat)
[13:59:04]      + optimized for HTTP streaming (fast start)
[13:59:04]  * video track
[13:59:04]    + decoder: h264
[13:59:04]      + bitrate 2843 kbps
[13:59:04]    + filters
[13:59:04]      + Comb Detect (mode=0:spatial-metric=2:motion-thresh=2:spatial-thresh=3:filter-mode=1:block-thresh=80:block-width=16:block-height=16)
[13:59:04]      + Decomb (mode=39)
[13:59:04]      + Framerate Shaper (mode=1:rate=27000000/900900)
[13:59:04]        + frame rate: 29.970 fps -> constant 29.970 fps
[13:59:04]      + Crop and Scale (width=720:height=480:crop-top=0:crop-bottom=0:crop-left=0:crop-right=0)
[13:59:04]        + source: 1280 * 720, crop (0/0/0/0): 1280 * 720, scale: 720 * 480
[13:59:04]    + Output geometry
[13:59:04]      + storage dimensions: 720 x 480
[13:59:04]      + pixel aspect ratio: 32 : 27
[13:59:04]      + display dimensions: 853 x 480
[13:59:04]    + encoder: H.264 (libx264)
[13:59:04]      + preset:  veryfast
[13:59:04]      + profile: main
[13:59:04]      + level:   3.1
[13:59:04]      + quality: 22.00 (RF)
[13:59:04]  * audio track 1
[13:59:04]    + decoder: Unknown (AAC) (2.0 ch) (track 1, id 0x1)
[13:59:04]      + bitrate: 127 kbps, samplerate: 48000 Hz
[13:59:04]    + mixdown: Stereo
[13:59:04]    + encoder: AAC (Apple AudioToolbox)
[13:59:04]      + bitrate: 96 kbps, samplerate: 48000 Hz
[13:59:04] sync: expecting 31170 video frames
[13:59:04] encx264: min-keyint: 30, keyint: 300
[13:59:04] encx264: encoding at constant RF 22.000000
[13:59:04] encx264: unparsed options: level=3.1:ref=1:8x8dct=0:weightp=1:subme=2:mixed-refs=0:trellis=0:vbv-bufsize=14000:vbv-maxrate=14000:rc-lookahead=10
x264 [info]: using SAR=32/27
x264 [info]: using cpu capabilities: MMX2 SSE2Fast SSSE3 SSE4.2 AVX FMA3 BMI2 AVX2
x264 [info]: profile Main, level 3.1
error: avio_open2 failed, errno -20
error: avio_open2 failed, errno -20
[13:59:04] work: average encoding speed for job is 0.000000 fps
[13:59:04] comb detect: heavy 0 | light 0 | uncombed 0 | total 0
[13:59:04] decomb: deinterlaced 0 | blended 0 | unfiltered 0 | total 0
[13:59:04] vfr: 0 frames output, 0 dropped and 0 duped for CFR/PFR
[13:59:04] vfr: lost time: 0 (0 frames)
[13:59:04] vfr: gained time: 0 (0 frames) (0 not accounted for)
[13:59:04] aac-decoder done: 0 frames, 0 decoder errors
[13:59:04] h264-decoder done: 0 frames, 0 decoder errors
[13:59:04] sync: got 0 frames, 31170 expected
[13:59:04] libhb: work result = 3
[13:59:05] macgui: QueueCore work failed
[13:59:05] macgui: Queue Done, there are no more pending encodes
[14:01:33] macgui: QueueCore scanning specifically for title: 1
[14:01:33] CPU: Intel(R) Core(TM) i5-4250U CPU @ 1.30GHz
[14:01:33]  - Intel microarchitecture Haswell
[14:01:33]  - logical processor count: 4
[14:01:33] hb_scan: path=/Users/susanrobinson/Movies/9:12 lecture.MP4, title_index=1
udfread ERROR: ECMA 167 Volume Recognition failed
disc.c:323: failed opening UDF image /Users/susanrobinson/Movies/9:12 lecture.MP4
disc.c:424: error opening file BDMV/index.bdmv
disc.c:424: error opening file BDMV/BACKUP/index.bdmv
[14:01:33] bd: not a bd - trying as a stream/file instead
libdvdnav: Using dvdnav version 6.0.0
libdvdread: Encrypted DVD support unavailable.
libdvdread:DVDOpenFileUDF:UDFFindFile /VIDEO_TS/VIDEO_TS.IFO failed
libdvdread:DVDOpenFileUDF:UDFFindFile /VIDEO_TS/VIDEO_TS.BUP failed
libdvdread: Can't open file VIDEO_TS.IFO.
libdvdnav: vm: failed to read VIDEO_TS.IFO
[14:01:33] dvd: not a dvd - trying as a stream/file instead
Input #0, mov,mp4,m4a,3gp,3g2,mj2, from '/Users/susanrobinson/Movies/9:12 lecture.MP4':
  Metadata:
    major_brand     : MSNV
    minor_version   : 22675568
    compatible_brands: MSNVmp42isom
    creation_time   : 2018-09-12 15:26:13
  Duration: 00:17:20.03, start: 0.000000, bitrate: 3020 kb/s
    Stream #0:0(und): Video: h264 (Main) [avc1 / 0x31637661]
      yuv420p, tv, bt709/bt709/iec61966-2-4
      1280x720 [PAR 1:1 DAR 16:9], 2843 kb/s
      29.97 fps, 30k tbn (default)
    Metadata:
      creation_time   : 2018-09-12 15:26:13
      handler_name    : Video Media Handler
      encoder         : AVC Coding
    Stream #0:1(und): Audio: aac (LC) [mp4a / 0x6134706D]
      48000 Hz, stereo, fltp, 127 kb/s (default)
    Metadata:
      creation_time   : 2018-09-12 15:26:13
      handler_name    : Sound Media Handler
[14:01:33] scan: decoding previews for title 1
[14:01:33] scan: audio 0x1: aac, rate=48000Hz, bitrate=127970 Unknown (AAC) (2.0 ch)
[14:01:33] scan: 10 previews, 1280x720, 29.970 fps, autocrop = 0/0/0/0, aspect 16:9, PAR 1:1
[14:01:33] libhb: scan thread found 1 valid title(s)
[14:01:33] macgui: QueueCore scan done
[14:01:33] macgui: QueueCore started encoding 9:12 handbrake9:30.mp4
[14:01:33] macgui: QueueCore with preset bsf video
[14:01:33] 1 job(s) to process
[14:01:33] starting job
[14:01:33] decomb filter thread started for segment 0
[14:01:33] decomb filter thread started for segment 1
[14:01:33] decomb filter thread started for segment 3
[14:01:33] decomb filter thread started for segment 2
[14:01:33] decomb check thread started for segment 1
[14:01:33] decomb check thread started for segment 0
[14:01:33] decomb check thread started for segment 2
[14:01:33] decomb check thread started for segment 3
[14:01:33] yadif thread started for segment 0
[14:01:33] yadif thread started for segment 1
[14:01:33] yadif thread started for segment 2
[14:01:33] yadif thread started for segment 3
[14:01:33] work: only 1 chapter, disabling chapter markers
[14:01:33] job configuration:
[14:01:33]  * source
[14:01:33]    + /Users/susanrobinson/Movies/9:12 lecture.MP4
[14:01:33]    + title 1, chapter(s) 1 to 1
[14:01:33]    + container: mov,mp4,m4a,3gp,3g2,mj2
[14:01:33]    + data rate: 3020 kbps
[14:01:33]  * destination
[14:01:33]    + /Users/susanrobinson/Movies/9:26video.MP4/9:12 handbrake9:30.mp4
[14:01:33]    + container: MPEG-4 (libavformat)
[14:01:33]      + optimized for HTTP streaming (fast start)
[14:01:33]  * video track
[14:01:33]    + decoder: h264
[14:01:33]      + bitrate 2843 kbps
[14:01:33]    + filters
[14:01:33]      + Comb Detect (mode=0:spatial-metric=2:motion-thresh=2:spatial-thresh=3:filter-mode=1:block-thresh=80:block-width=16:block-height=16)
[14:01:33]      + Decomb (mode=39)
[14:01:33]      + Framerate Shaper (mode=1:rate=27000000/900900)
[14:01:33]        + frame rate: 29.970 fps -> constant 29.970 fps
[14:01:33]      + Crop and Scale (width=720:height=480:crop-top=0:crop-bottom=0:crop-left=0:crop-right=0)
[14:01:33]        + source: 1280 * 720, crop (0/0/0/0): 1280 * 720, scale: 720 * 480
[14:01:33]    + Output geometry
[14:01:33]      + storage dimensions: 720 x 480
[14:01:33]      + pixel aspect ratio: 32 : 27
[14:01:33]      + display dimensions: 853 x 480
[14:01:33]    + encoder: H.264 (libx264)
[14:01:33]      + preset:  veryfast
[14:01:33]      + profile: main
[14:01:33]      + level:   3.1
[14:01:33]      + quality: 22.00 (RF)
[14:01:33]  * audio track 1
[14:01:33]    + decoder: Unknown (AAC) (2.0 ch) (track 1, id 0x1)
[14:01:33]      + bitrate: 127 kbps, samplerate: 48000 Hz
[14:01:33]    + mixdown: Stereo
[14:01:33]    + encoder: AAC (Apple AudioToolbox)
[14:01:33]      + bitrate: 96 kbps, samplerate: 48000 Hz
[14:01:33] sync: expecting 31170 video frames
[14:01:33] encx264: min-keyint: 30, keyint: 300
[14:01:33] encx264: encoding at constant RF 22.000000
[14:01:33] encx264: unparsed options: level=3.1:ref=1:8x8dct=0:weightp=1:subme=2:mixed-refs=0:trellis=0:vbv-bufsize=14000:vbv-maxrate=14000:rc-lookahead=10
x264 [info]: using SAR=32/27
x264 [info]: using cpu capabilities: MMX2 SSE2Fast SSSE3 SSE4.2 AVX FMA3 BMI2 AVX2
x264 [info]: profile Main, level 3.1
error: avio_open2 failed, errno -20
error: avio_open2 failed, errno -20
[14:01:33] work: average encoding speed for job is 0.000000 fps
[14:01:34] comb detect: heavy 0 | light 0 | uncombed 0 | total 0
[14:01:34] decomb: deinterlaced 0 | blended 0 | unfiltered 0 | total 0
[14:01:34] vfr: 0 frames output, 0 dropped and 0 duped for CFR/PFR
[14:01:34] vfr: lost time: 0 (0 frames)
[14:01:34] vfr: gained time: 0 (0 frames) (0 not accounted for)
[14:01:34] aac-decoder done: 0 frames, 0 decoder errors
[14:01:34] h264-decoder done: 0 frames, 0 decoder errors
[14:01:34] sync: got 0 frames, 31170 expected
[14:01:34] libhb: work result = 3
[14:01:34] macgui: QueueCore work failed
[14:01:34] macgui: Queue Done, there are no more pending encodes
[14:09:59] macgui: QueueCore scanning specifically for title: 1
[14:09:59] CPU: Intel(R) Core(TM) i5-4250U CPU @ 1.30GHz
[14:09:59]  - Intel microarchitecture Haswell
[14:09:59]  - logical processor count: 4
[14:09:59] hb_scan: path=/Users/susanrobinson/Movies/9:12 lecture.MP4, title_index=1
udfread ERROR: ECMA 167 Volume Recognition failed
disc.c:323: failed opening UDF image /Users/susanrobinson/Movies/9:12 lecture.MP4
disc.c:424: error opening file BDMV/index.bdmv
disc.c:424: error opening file BDMV/BACKUP/index.bdmv
[14:09:59] bd: not a bd - trying as a stream/file instead
libdvdnav: Using dvdnav version 6.0.0
libdvdread: Encrypted DVD support unavailable.
libdvdread:DVDOpenFileUDF:UDFFindFile /VIDEO_TS/VIDEO_TS.IFO failed
libdvdread:DVDOpenFileUDF:UDFFindFile /VIDEO_TS/VIDEO_TS.BUP failed
libdvdread: Can't open file VIDEO_TS.IFO.
libdvdnav: vm: failed to read VIDEO_TS.IFO
[14:09:59] dvd: not a dvd - trying as a stream/file instead
Input #0, mov,mp4,m4a,3gp,3g2,mj2, from '/Users/susanrobinson/Movies/9:12 lecture.MP4':
  Metadata:
    major_brand     : MSNV
    minor_version   : 22675568
    compatible_brands: MSNVmp42isom
    creation_time   : 2018-09-12 15:26:13
  Duration: 00:17:20.03, start: 0.000000, bitrate: 3020 kb/s
    Stream #0:0(und): Video: h264 (Main) [avc1 / 0x31637661]
      yuv420p, tv, bt709/bt709/iec61966-2-4
      1280x720 [PAR 1:1 DAR 16:9], 2843 kb/s
      29.97 fps, 30k tbn (default)
    Metadata:
      creation_time   : 2018-09-12 15:26:13
      handler_name    : Video Media Handler
      encoder         : AVC Coding
    Stream #0:1(und): Audio: aac (LC) [mp4a / 0x6134706D]
      48000 Hz, stereo, fltp, 127 kb/s (default)
    Metadata:
      creation_time   : 2018-09-12 15:26:13
      handler_name    : Sound Media Handler
[14:09:59] scan: decoding previews for title 1
[14:09:59] scan: audio 0x1: aac, rate=48000Hz, bitrate=127970 Unknown (AAC) (2.0 ch)
[14:10:00] scan: 10 previews, 1280x720, 29.970 fps, autocrop = 0/0/0/0, aspect 16:9, PAR 1:1
[14:10:00] libhb: scan thread found 1 valid title(s)
[14:10:00] macgui: QueueCore scan done
[14:10:00] macgui: QueueCore started encoding 9:12 handbrake9:30.mp4
[14:10:00] 1 job(s) to process
[14:10:00] macgui: QueueCore with preset bsf video
[14:10:00] starting job
[14:10:00] decomb filter thread started for segment 1
[14:10:00] decomb filter thread started for segment 0
[14:10:00] decomb filter thread started for segment 2
[14:10:00] decomb filter thread started for segment 3
[14:10:00] decomb check thread started for segment 0
[14:10:00] decomb check thread started for segment 1
[14:10:00] decomb check thread started for segment 2
[14:10:00] decomb check thread started for segment 3
[14:10:00] yadif thread started for segment 0
[14:10:00] yadif thread started for segment 1
[14:10:00] yadif thread started for segment 2
[14:10:00] yadif thread started for segment 3
[14:10:00] work: only 1 chapter, disabling chapter markers
[14:10:00] job configuration:
[14:10:00]  * source
[14:10:00]    + /Users/susanrobinson/Movies/9:12 lecture.MP4
[14:10:00]    + title 1, chapter(s) 1 to 1
[14:10:00]    + container: mov,mp4,m4a,3gp,3g2,mj2
[14:10:00]    + data rate: 3020 kbps
[14:10:00]  * destination
[14:10:00]    + /Users/susanrobinson/Movies/9:26video.MP4/9:12 handbrake9:30.mp4
[14:10:00]    + container: MPEG-4 (libavformat)
[14:10:00]      + optimized for HTTP streaming (fast start)
[14:10:00]  * video track
[14:10:00]    + decoder: h264
[14:10:00]      + bitrate 2843 kbps
[14:10:00]    + filters
[14:10:00]      + Comb Detect (mode=0:spatial-metric=2:motion-thresh=2:spatial-thresh=3:filter-mode=1:block-thresh=80:block-width=16:block-height=16)
[14:10:00]      + Decomb (mode=39)
[14:10:00]      + Framerate Shaper (mode=1:rate=27000000/900900)
[14:10:00]        + frame rate: 29.970 fps -> constant 29.970 fps
[14:10:00]      + Crop and Scale (width=720:height=480:crop-top=0:crop-bottom=0:crop-left=0:crop-right=0)
[14:10:00]        + source: 1280 * 720, crop (0/0/0/0): 1280 * 720, scale: 720 * 480
[14:10:00]    + Output geometry
[14:10:00]      + storage dimensions: 720 x 480
[14:10:00]      + pixel aspect ratio: 32 : 27
[14:10:00]      + display dimensions: 853 x 480
[14:10:00]    + encoder: H.264 (libx264)
[14:10:00]      + preset:  veryfast
[14:10:00]      + profile: main
[14:10:00]      + level:   3.1
[14:10:00]      + quality: 22.00 (RF)
[14:10:00]  * audio track 1
[14:10:00]    + decoder: Unknown (AAC) (2.0 ch) (track 1, id 0x1)
[14:10:00]      + bitrate: 127 kbps, samplerate: 48000 Hz
[14:10:00]    + mixdown: Stereo
[14:10:00]    + encoder: AAC (Apple AudioToolbox)
[14:10:00]      + bitrate: 96 kbps, samplerate: 48000 Hz
[14:10:00] sync: expecting 31170 video frames
[14:10:00] encx264: min-keyint: 30, keyint: 300
[14:10:00] encx264: encoding at constant RF 22.000000
[14:10:00] encx264: unparsed options: level=3.1:ref=1:8x8dct=0:weightp=1:subme=2:mixed-refs=0:trellis=0:vbv-bufsize=14000:vbv-maxrate=14000:rc-lookahead=10
x264 [info]: using SAR=32/27
x264 [info]: using cpu capabilities: MMX2 SSE2Fast SSSE3 SSE4.2 AVX FMA3 BMI2 AVX2
x264 [info]: profile Main, level 3.1
error: avio_open2 failed, errno -20
error: avio_open2 failed, errno -20
[14:10:00] work: average encoding speed for job is 0.000000 fps
[14:10:00] comb detect: heavy 0 | light 0 | uncombed 0 | total 0
[14:10:00] decomb: deinterlaced 0 | blended 0 | unfiltered 0 | total 0
[14:10:00] vfr: 0 frames output, 0 dropped and 0 duped for CFR/PFR
[14:10:00] vfr: lost time: 0 (0 frames)
[14:10:00] vfr: gained time: 0 (0 frames) (0 not accounted for)
[14:10:00] aac-decoder done: 0 frames, 0 decoder errors
[14:10:00] h264-decoder done: 0 frames, 0 decoder errors
[14:10:00] sync: got 0 frames, 31170 expected
[14:10:00] libhb: work result = 3
[14:10:00] macgui: QueueCore work failed
[14:10:00] macgui: Queue Done, there are no more pending encodes
Last edited by Rodeo on Mon Oct 01, 2018 12:52 am, edited 1 time in total.
Reason: Logs in [code][/code] blocks please

Woodstock
Veteran User
Posts: 3064
Joined: Tue Aug 27, 2013 6:39 am

Re: Encode could be completed

Post by Woodstock » Mon Oct 01, 2018 2:18 am

error: avio_open2 failed, errno -20
error: avio_open2 failed, errno -20
Do you have permission to write to the destination? The operating system says no.

One thing I noticed is your path, "/Users/susanrobinson/Movies/9:26video.MP4/9:12 handbrake9:30.mp4", uses the name of the file as a directory name. Is this intentional?

susan.robin
Posts: 4
Joined: Sun Sep 30, 2018 7:08 pm

Re: Encode could be completed

Post by susan.robin » Mon Oct 01, 2018 4:12 am

Yes I should but I’ll try it differently to see. Thank you.

Woodstock
Veteran User
Posts: 3064
Joined: Tue Aug 27, 2013 6:39 am

Re: Encode could be completed

Post by Woodstock » Mon Oct 01, 2018 6:10 pm

If the source is "/Users/susanrobinson/Movies/9:12 lecture.MP4" , "/Users/susanrobinson/Movies/9:26video.MP4/" is PROBABLY invalid, because "/Users/susanrobinson/Movies/9:26video.MP4" is likely another FILE, not a directory.

That is why you do not have permission to write to "/Users/susanrobinson/Movies/9:26video.MP4/9:12 handbrake9:30.mp4"...

susan.robin
Posts: 4
Joined: Sun Sep 30, 2018 7:08 pm

Re: Encode could be completed

Post by susan.robin » Tue Oct 02, 2018 3:53 am

Thank you!

Post Reply