Storage size changed

HandBrake for Mac support
Forum rules
An Activity Log is required for support requests. Please read How-to get an activity log? for details on how and why this should be provided.
Post Reply
Palestrina
Posts: 13
Joined: Mon Oct 23, 2017 3:15 pm

Storage size changed

Post by Palestrina » Sun Sep 02, 2018 6:33 pm

Description of problem or question: More than two years ago, I created my own preset that has more or less identical settings to the SuperHQ 1080p30 setting (which at the time didn't exist). I imported files with iFlicks2 into iTunes, and converted Blu-rays got an "HD" tag from iFlicks. A few weeks ago, I noticed that iFlicks would not assign an "HD" tag to a converted Blu-ray. Today I investigated this and found out that older files Blu-ray files had a storage size of 1920x800 while never ones (maybe starting this year) only had a storage size of 720x306. When watching the files, I did not notice any difference (I did not spend much attention to it but gets that a resolution that is more than two times less would have grabbed my attention), the file size is maybe 20 % smaller. I know that I did not change the Preset I made in any way. I wonder how this could happen and whether this means I have files that are of a lower quality than before. As a layman I would think that a smaller resolution means I will get problems when watching a movie on a bigger screen (which would defeat the purpose of my settings which emphasized good quality). I also wonder what I should do to rectify this. As I do also convert DVDs, I think I cannot set a fixed storage size of 1920x800.




Steps to reproduce the problem (If Applicable):




HandBrake version (e.g., 1.0.0): 1.1.0




Operating system and version (e.g., Ubuntu 16.04 LTS, macOS 10.13 High Sierra, Windows 10 Creators Update): MacOs 10.13.16




HandBrake Activity Log ***required*** (see How-to get an activity log)

Code: Select all

[14:19:21] work: average encoding speed for job is 4.389611 fps
[14:19:21] comb detect: heavy 2486 | light 20352 | uncombed 51346 | total 74184
[14:19:21] decomb: deinterlaced 2486 | blended 20352 | unfiltered 51346 | total 74184
[14:19:21] vfr: lost time: 10800 (0 frames)
[14:19:21] vfr: gained time: 10800 (12 frames) (0 not accounted for)
[14:19:21] ac3-decoder done: 92733 frames, 0 decoder errors
[14:19:21] ac3-decoder done: 92733 frames, 0 decoder errors
[14:19:21] mpeg2video-decoder done: 74187 frames, 0 decoder errors
[14:19:21] sync: got 74187 frames, 74187 expected
[14:19:21] sync: framerate min 12.500 fps, max 25.000 fps, avg 25.000 fps
x264 [info]: frame I:403   Avg QP:18.34  size: 88775
x264 [info]: frame P:13448 Avg QP:20.92  size: 47900
x264 [info]: frame B:60333 Avg QP:23.32  size: 28268
x264 [info]: consecutive B-frames:  0.7%  0.3%  1.2% 11.1% 14.8% 61.7%  6.7%  2.4%  0.9%
x264 [info]: mb I  I16..4:  7.4% 71.1% 21.5%
x264 [info]: mb P  I16..4:  0.4% 35.1%  5.0%  P16..4: 21.9% 22.3% 14.1%  0.9%  0.2%    skip: 0.2%
x264 [info]: mb B  I16..4:  0.1%  7.5%  0.7%  B16..8: 41.2% 17.7%  5.4%  direct:20.0%  skip: 7.5%  L0:38.7% L1:33.8% BI:27.5%
x264 [info]: 8x8 transform intra:87.9% inter:71.7%
x264 [info]: direct mvs  spatial:100.0% temporal:0.0%
x264 [info]: coded y,uvDC,uvAC intra: 98.9% 80.4% 36.1% inter: 77.4% 44.7% 3.0%
x264 [info]: i16 v,h,dc,p: 41% 12% 25% 23%
x264 [info]: i8 v,h,dc,ddl,ddr,vr,hd,vl,hu: 13%  9% 11%  8% 13% 11% 11% 11% 13%
x264 [info]: i4 v,h,dc,ddl,ddr,vr,hd,vl,hu: 16% 14%  5%  8% 12% 11% 11% 10% 13%
x264 [info]: i8c dc,h,v,p: 27% 29% 26% 18%
x264 [info]: Weighted P-Frames: Y:11.8% UV:4.2%
x264 [info]: ref P L0: 30.6% 11.2% 15.3%  7.8%  6.6%  4.7%  4.6%  2.9%  2.9%  2.3%  2.3%  1.9%  2.0%  1.7%  1.8%  1.3%
x264 [info]: ref B L0: 79.1%  8.4%  3.4%  1.8%  1.4%  1.1%  1.0%  0.7%  0.6%  0.5%  0.5%  0.5%  0.4%  0.3%  0.1%
x264 [info]: ref B L1: 96.2%  3.8%
x264 [info]: kb/s:6430.81
[14:19:21] mux: track 0, 74184 frames, 2385426994 bytes, 6430.68 kbps, fifo 1024
[14:19:21] mux: track 1, 139102 frames, 48090570 bytes, 129.64 kbps, fifo 2048
[14:19:21] mux: track 2, 92733 frames, 83088768 bytes, 223.99 kbps, fifo 1024
[14:19:21] libhb: work result = 0
[14:19:21] macgui: QueueCore work done
[14:19:22] macgui: QueueCore scanning specifically for title: 1
[14:19:22] CPU: Intel(R) Core(TM) i7-4578U CPU @ 3.00GHz
[14:19:22]  - Intel microarchitecture Haswell
[14:19:22]  - logical processor count: 4
[14:19:22] hb_scan: path=/Volumes/Filme und Serien/DS9 codiert/Monaco.Franze.S01E06.mkv, title_index=1
udfread ERROR: ECMA 167 Volume Recognition failed
disc.c:323: failed opening UDF image /Volumes/Filme und Serien/DS9 codiert/Monaco.Franze.S01E06.mkv
disc.c:424: error opening file BDMV/index.bdmv
disc.c:424: error opening file BDMV/BACKUP/index.bdmv
[14:19:22] bd: not a bd - trying as a stream/file instead
libdvdnav: Using dvdnav version 5.0.3
libdvdread: Encrypted DVD support unavailable.
libdvdread:DVDOpenFileUDF:UDFFindFile /VIDEO_TS/VIDEO_TS.IFO failed
libdvdread:DVDOpenFileUDF:UDFFindFile /VIDEO_TS/VIDEO_TS.BUP failed
libdvdread: Can't open file VIDEO_TS.IFO.
libdvdnav: vm: failed to read VIDEO_TS.IFO
[14:19:22] dvd: not a dvd - trying as a stream/file instead
Input #0, matroska,webm, from '/Volumes/Filme und Serien/DS9 codiert/Monaco.Franze.S01E06.mkv':
  Duration: 00:48:21.48, start: 0.000000, bitrate: N/A
    Chapter #0:0: start 0.000000, end 330.240000
    Metadata:
      title           : Chapter 01
    Chapter #0:1: start 330.240000, end 702.800000
    Metadata:
      title           : Chapter 02
    Chapter #0:2: start 702.800000, end 1167.440000
    Metadata:
      title           : Chapter 03
    Chapter #0:3: start 1167.440000, end 1550.920000
    Metadata:
      title           : Chapter 04
    Chapter #0:4: start 1550.920000, end 1937.680000
    Metadata:
      title           : Chapter 05
    Chapter #0:5: start 1937.680000, end 2334.720000
    Metadata:
      title           : Chapter 06
    Chapter #0:6: start 2334.720000, end 2901.480000
    Metadata:
      title           : Chapter 07
    Stream #0:0(eng): Video: mpeg2video (Main)
      yuv420p, tv, 720x576 [PAR 16:15 DAR 4:3], 9800 kb/s, PAR 16:15 DAR 4:3
      25 fps, 1k tbn
    Metadata:
      BPS-eng         : 5301533
      DURATION-eng    : 00:48:21.480000000
      NUMBER_OF_FRAMES-eng: 72537
      NUMBER_OF_BYTES-eng: 1922786744
      SOURCE_ID-eng   : 0100E0
      _STATISTICS_WRITING_APP-eng: MakeMKV v1.10.8 darwin(x64-release)
      _STATISTICS_WRITING_DATE_UTC-eng: 2018-08-19 14:45:51
      _STATISTICS_TAGS-eng: BPS DURATION NUMBER_OF_FRAMES NUMBER_OF_BYTES SOURCE_ID
    Stream #0:1(ger): Audio: ac3
      48000 Hz, stereo, fltp, 224 kb/s (default)
    Metadata:
      title           : Stereo
      BPS-eng         : 224000
      DURATION-eng    : 00:48:21.472000000
      NUMBER_OF_FRAMES-eng: 90671
      NUMBER_OF_BYTES-eng: 81241216
      SOURCE_ID-eng   : 0180BD
      _STATISTICS_WRITING_APP-eng: MakeMKV v1.10.8 darwin(x64-release)
      _STATISTICS_WRITING_DATE_UTC-eng: 2018-08-19 14:45:51
      _STATISTICS_TAGS-eng: BPS DURATION NUMBER_OF_FRAMES NUMBER_OF_BYTES SOURCE_ID
[14:19:22] scan: decoding previews for title 1
[14:19:22] scan: audio 0x1: ac3, rate=48000Hz, bitrate=224000 Deutsch (AC3) (2.0 ch)
[14:19:22] scan: 10 previews, 720x576, 25.000 fps, autocrop = 2/0/14/14, aspect 4:3, PAR 16:15
[14:19:22] libhb: scan thread found 1 valid title(s)
[14:19:22] macgui: QueueCore scan done
[14:19:22] macgui: QueueCore started encoding Monaco.Franze.S01E06.m4v
[14:19:22] 1 job(s) to process
[14:19:22] macgui: QueueCore with preset DVDs
[14:19:22] starting job
[14:19:22] decomb filter thread started for segment 0
[14:19:22] decomb filter thread started for segment 1
[14:19:22] decomb filter thread started for segment 2
[14:19:22] decomb filter thread started for segment 3
[14:19:22] decomb check thread started for segment 0
[14:19:22] decomb check thread started for segment 1
[14:19:22] decomb check thread started for segment 2
[14:19:22] decomb check thread started for segment 3
[14:19:22] mask filter thread started for segment 0
[14:19:22] mask filter thread started for segment 1
[14:19:22] mask filter thread started for segment 2
[14:19:22] mask filter thread started for segment 3
[14:19:22] mask erode thread started for segment 0
[14:19:22] mask erode thread started for segment 1
[14:19:22] mask erode thread started for segment 2
[14:19:22] mask erode thread started for segment 3
[14:19:22] mask dilate thread started for segment 0
[14:19:22] mask dilate thread started for segment 1
[14:19:22] mask dilate thread started for segment 2
[14:19:22] mask dilate thread started for segment 3
[14:19:22] yadif thread started for segment 0
[14:19:22] yadif thread started for segment 1
[14:19:22] yadif thread started for segment 2
[14:19:22] yadif thread started for segment 3
[14:19:22] job configuration:
[14:19:22]  * source
[14:19:22]    + /Volumes/Filme und Serien/DS9 codiert/Monaco.Franze.S01E06.mkv
[14:19:22]    + title 1, chapter(s) 1 to 7
[14:19:22]    + container: matroska,webm
[14:19:22]  * destination
[14:19:22]    + /Volumes/Filme und Serien/Lost codiert/Monaco.Franze.S01E06.m4v
[14:19:22]    + container: MPEG-4 (libavformat)
[14:19:22]      + chapter markers
[14:19:22]  * video track
[14:19:22]    + decoder: mpeg2video
[14:19:22]      + bitrate 9800 kbps
[14:19:22]    + filters
[14:19:22]      + Detelecine (pullup) (skip-left=1:skip-right=1:skip-top=4:skip-bottom=4:plane=0)
[14:19:22]      + Comb Detect (mode=3:spatial-metric=2:motion-thresh=1:spatial-thresh=1:filter-mode=2:block-thresh=40:block-width=16:block-height=16)
[14:19:22]      + Decomb (mode=39)
[14:19:22]      + Framerate Shaper (mode=0:rate=27000000/1080000)
[14:19:22]        + frame rate: same as source (around 25.000 fps)
[14:19:22]      + Crop and Scale (width=692:height=574:crop-top=2:crop-bottom=0:crop-left=14:crop-right=14)
[14:19:22]        + source: 720 * 576, crop (2/0/14/14): 692 * 574, scale: 692 * 574
[14:19:22]    + Output geometry
[14:19:22]      + storage dimensions: 692 x 574
[14:19:22]      + pixel aspect ratio: 16 : 15
[14:19:22]      + display dimensions: 738 x 574
[14:19:22]    + encoder: H.264 (libx264)
[14:19:22]      + preset:  veryslow
[14:19:22]      + tune:    film
[14:19:22]      + profile: high
[14:19:22]      + level:   4.1
[14:19:22]      + quality: 18.00 (RF)
[14:19:22]  * audio track 1
[14:19:22]    + decoder: Deutsch (AC3) (2.0 ch) (track 1, id 0x1)
[14:19:22]      + bitrate: 224 kbps, samplerate: 48000 Hz
[14:19:22]    + mixdown: Stereo
[14:19:22]    + encoder: AAC (Apple AudioToolbox)
[14:19:22]      + bitrate: 160 kbps, samplerate: 48000 Hz
[14:19:22]  * audio track 2
[14:19:22]    + decoder: Deutsch (AC3) (2.0 ch) (track 1, id 0x1)
[14:19:22]      + bitrate: 224 kbps, samplerate: 48000 Hz
[14:19:22]    + AC3 Passthru
[14:19:22] sync: expecting 72537 video frames
[14:19:22] encx264: encoding at constant RF 18.000000
[14:19:22] encx264: unparsed options: level=4.1:ref=16:bframes=8:b-adapt=2:direct=auto:deblock=-1,-1:analyse=all:me=umh:merange=24:subme=10:trellis=2:psy-rd=1,0.15:vbv-bufsize=78125:vbv-maxrate=62500:rc-lookahead=60
x264 [info]: using SAR=16/15
x264 [info]: using cpu capabilities: MMX2 SSE2Fast SSSE3 SSE4.2 AVX FMA3 BMI2 AVX2
x264 [info]: profile High, level 4.1
[14:19:22] sync: first pts video is 0
[14:19:22] sync: first pts audio 0x1 is 3600
[14:19:22] sync: first pts audio 0x1 is 3600
[14:19:22] sync: "Chapter 1" (1) at frame 3 time 10800
[14:51:24] sync: "Chapter 2" (2) at frame 8257 time 29725200
[15:27:22] sync: "Chapter 3" (3) at frame 17571 time 63255600
[16:08:20] sync: "Chapter 4" (4) at frame 29187 time 105073200
[16:41:54] sync: "Chapter 5" (5) at frame 38774 time 139586400
[17:18:05] sync: "Chapter 6" (6) at frame 48443 time 174394800
[17:58:22] sync: "Chapter 7" (7) at frame 58369 time 210128400
[18:49:54] reader: done. 1 scr changes

Woodstock
Veteran User
Posts: 2715
Joined: Tue Aug 27, 2013 6:39 am

Re: Storage size changed

Post by Woodstock » Sun Sep 02, 2018 6:37 pm

The snippet of the log shows nothing about the setting you are using or the video source, so your questions cannot be answered.

Other than no, the GUI will not scale a DVD up to BD resolution. That may be available in the future, but not now or in the past.

Palestrina
Posts: 13
Joined: Mon Oct 23, 2017 3:15 pm

Re: Storage size changed

Post by Palestrina » Sun Sep 02, 2018 7:52 pm

Thank you for your quick answer! I know I can't upscale a DVD to a Blu-ray. I have also realized I accidentally posted a wrong activity log (that belonged to a DVD). Sorry for that.
I just copied the file from the Blu-ray "Miss Sloane" into my queue. Please find attached the log of this action. Handbrake will convert the file overnight so that I can post the log of this tomorrow.
In the menu "Filters", the items detelecine, interlace detection, and preset are on "default". The item deinterlace is "decomp". The items deblock, denoise, and sharpen are "off". The menu "dimensions" states that cropping is "automatic", anarmorphic is "loose", and Modulus is "2". Storage size is 720x302, display size is 721x302, PAR is 604x603.
I never played with "storage size" and "display" size and assumed Handbrake would automatically detect the resolution and adjust them accordingly.

Activity log of queuing Blu-ray "Miss Sloane":

Code: Select all

[21:28:44] macgui: trying to open a folder or file
[21:28:44] macgui: ScanCore scanning titles with a duration of 10 seconds or more
[21:28:44] CPU: Intel(R) Core(TM) i7-4578U CPU @ 3.00GHz
[21:28:44]  - Intel microarchitecture Haswell
[21:28:44]  - logical processor count: 4
[21:28:44] hb_scan: path=/Volumes/Filme und Serien/Filme/Miss.Sloane.2016.mkv, title_index=0
udfread ERROR: ECMA 167 Volume Recognition failed
disc.c:323: failed opening UDF image /Volumes/Filme und Serien/Filme/Miss.Sloane.2016.mkv
disc.c:424: error opening file BDMV/index.bdmv
disc.c:424: error opening file BDMV/BACKUP/index.bdmv
[21:28:44] bd: not a bd - trying as a stream/file instead
libdvdnav: Using dvdnav version 5.0.3
libdvdread: Encrypted DVD support unavailable.
libdvdread:DVDOpenFileUDF:UDFFindFile /VIDEO_TS/VIDEO_TS.IFO failed
libdvdread:DVDOpenFileUDF:UDFFindFile /VIDEO_TS/VIDEO_TS.BUP failed
libdvdread: Can't open file VIDEO_TS.IFO.
libdvdnav: vm: failed to read VIDEO_TS.IFO
[21:28:44] dvd: not a dvd - trying as a stream/file instead
Input #0, matroska,webm, from '/Volumes/Filme und Serien/Filme/Miss.Sloane.2016.mkv':
  Metadata:
    title           : Die Erfindung der Wahrheit
  Duration: 02:12:58.66, start: 0.000000, bitrate: N/A
    Chapter #0:0: start 0.000000, end 622.666667
    Metadata:
      title           : Chapter 01
    Chapter #0:1: start 622.666667, end 1319.791667
    Metadata:
      title           : Chapter 02
    Chapter #0:2: start 1319.791667, end 1840.791667
    Metadata:
      title           : Chapter 03
    Chapter #0:3: start 1840.791667, end 2387.750000
    Metadata:
      title           : Chapter 04
    Chapter #0:4: start 2387.750000, end 2997.041667
    Metadata:
      title           : Chapter 05
    Chapter #0:5: start 2997.041667, end 3489.333333
    Metadata:
      title           : Chapter 06
    Chapter #0:6: start 3489.333333, end 4227.666667
    Metadata:
      title           : Chapter 07
    Chapter #0:7: start 4227.666667, end 4735.666667
    Metadata:
      title           : Chapter 08
    Chapter #0:8: start 4735.666667, end 5333.666667
    Metadata:
      title           : Chapter 09
    Chapter #0:9: start 5333.666667, end 6123.791667
    Metadata:
      title           : Chapter 10
    Chapter #0:10: start 6123.791667, end 6868.416667
    Metadata:
      title           : Chapter 11
    Chapter #0:11: start 6868.416667, end 7600.458333
    Metadata:
      title           : Chapter 12
    Chapter #0:12: start 7600.458333, end 7978.666667
    Metadata:
      title           : Chapter 13
    Stream #0:0(eng): Video: h264 (High)
      yuv420p, 1920x1080 [PAR 1:1 DAR 16:9], PAR 1:1 DAR 16:9
      24 fps, 1k tbn
    Metadata:
      BPS-eng         : 30874919
      DURATION-eng    : 02:12:58.666666666
      NUMBER_OF_FRAMES-eng: 191488
      NUMBER_OF_BYTES-eng: 30792583762
      SOURCE_ID-eng   : 001011
      _STATISTICS_WRITING_APP-eng: MakeMKV v1.10.8 darwin(x64-release)
      _STATISTICS_WRITING_DATE_UTC-eng: 2018-08-26 00:26:35
      _STATISTICS_TAGS-eng: BPS DURATION NUMBER_OF_FRAMES NUMBER_OF_BYTES SOURCE_ID
    Stream #0:1(deu): Audio: dts (DTS)
      48000 Hz, 5.1, fltp, 1536 kb/s (default)
    Metadata:
      title           : Surround 5.1
      BPS-eng         : 1509000
      DURATION-eng    : 02:12:58.666666666
      NUMBER_OF_FRAMES-eng: 748000
      NUMBER_OF_BYTES-eng: 1504976000
      SOURCE_ID-eng   : 001100
      _STATISTICS_WRITING_APP-eng: MakeMKV v1.10.8 darwin(x64-release)
      _STATISTICS_WRITING_DATE_UTC-eng: 2018-08-26 00:26:35
      _STATISTICS_TAGS-eng: BPS DURATION NUMBER_OF_FRAMES NUMBER_OF_BYTES SOURCE_ID
    Stream #0:2(eng): Audio: dts (DTS)
      48000 Hz, 5.1, fltp, 1536 kb/s
    Metadata:
      title           : Surround 5.1
      BPS-eng         : 1509000
      DURATION-eng    : 02:12:58.666666666
      NUMBER_OF_FRAMES-eng: 748000
      NUMBER_OF_BYTES-eng: 1504976000
      SOURCE_ID-eng   : 001101
      _STATISTICS_WRITING_APP-eng: MakeMKV v1.10.8 darwin(x64-release)
      _STATISTICS_WRITING_DATE_UTC-eng: 2018-08-26 00:26:35
      _STATISTICS_TAGS-eng: BPS DURATION NUMBER_OF_FRAMES NUMBER_OF_BYTES SOURCE_ID
    Stream #0:3(deu): Subtitle: hdmv_pgs_subtitle
    Metadata:
      BPS-eng         : 49490
      DURATION-eng    : 02:05:12.604166666
      NUMBER_OF_FRAMES-eng: 4622
      NUMBER_OF_BYTES-eng: 46475619
      SOURCE_ID-eng   : 001200
      _STATISTICS_WRITING_APP-eng: MakeMKV v1.10.8 darwin(x64-release)
      _STATISTICS_WRITING_DATE_UTC-eng: 2018-08-26 00:26:35
      _STATISTICS_TAGS-eng: BPS DURATION NUMBER_OF_FRAMES NUMBER_OF_BYTES SOURCE_ID
    Stream #0:4(deu): Subtitle: hdmv_pgs_subtitle
    Metadata:
      BPS-eng         : 255
      DURATION-eng    : 01:41:08.812500000
      NUMBER_OF_FRAMES-eng: 12
      NUMBER_OF_BYTES-eng: 193765
      SOURCE_ID-eng   : 001201
      _STATISTICS_WRITING_APP-eng: MakeMKV v1.10.8 darwin(x64-release)
      _STATISTICS_WRITING_DATE_UTC-eng: 2018-08-26 00:26:35
      _STATISTICS_TAGS-eng: BPS DURATION NUMBER_OF_FRAMES NUMBER_OF_BYTES SOURCE_ID
    Stream #0:5(deu): Subtitle: hdmv_pgs_subtitle
    Metadata:
      BPS-eng         : 255
      DURATION-eng    : 01:41:08.812500000
      NUMBER_OF_FRAMES-eng: 12
      NUMBER_OF_BYTES-eng: 193765
      SOURCE_ID-eng   : 001201
      _STATISTICS_WRITING_APP-eng: MakeMKV v1.10.8 darwin(x64-release)
      _STATISTICS_WRITING_DATE_UTC-eng: 2018-08-26 00:26:35
      _STATISTICS_TAGS-eng: BPS DURATION NUMBER_OF_FRAMES NUMBER_OF_BYTES SOURCE_ID
    Stream #0:6(eng): Subtitle: hdmv_pgs_subtitle
    Metadata:
      BPS-eng         : 162
      DURATION-eng    : 02:00:17.979166666
      NUMBER_OF_FRAMES-eng: 14
      NUMBER_OF_BYTES-eng: 146724
      SOURCE_ID-eng   : 001202
      _STATISTICS_WRITING_APP-eng: MakeMKV v1.10.8 darwin(x64-release)
      _STATISTICS_WRITING_DATE_UTC-eng: 2018-08-26 00:26:35
      _STATISTICS_TAGS-eng: BPS DURATION NUMBER_OF_FRAMES NUMBER_OF_BYTES SOURCE_ID
    Stream #0:7(eng): Subtitle: hdmv_pgs_subtitle
    Metadata:
      BPS-eng         : 162
      DURATION-eng    : 02:00:17.979166666
      NUMBER_OF_FRAMES-eng: 14
      NUMBER_OF_BYTES-eng: 146724
      SOURCE_ID-eng   : 001202
      _STATISTICS_WRITING_APP-eng: MakeMKV v1.10.8 darwin(x64-release)
      _STATISTICS_WRITING_DATE_UTC-eng: 2018-08-26 00:26:35
      _STATISTICS_TAGS-eng: BPS DURATION NUMBER_OF_FRAMES NUMBER_OF_BYTES SOURCE_ID
[21:28:45] scan: decoding previews for title 1
[21:28:45] scan: audio 0x1: dca, rate=48000Hz, bitrate=1536000 Deutsch (DTS) (5.1 ch)
[21:28:45] scan: audio 0x2: dca, rate=48000Hz, bitrate=1536000 English (DTS) (5.1 ch)
[21:28:49] scan: 10 previews, 1920x1080, 24.000 fps, autocrop = 138/138/0/0, aspect 16:9, PAR 1:1
[21:28:49] libhb: scan thread found 1 valid title(s)
[21:28:49] macgui: ScanCore scan done
Last edited by Rodeo on Mon Sep 03, 2018 12:08 am, edited 1 time in total.
Reason: Logs in [code][/code] blocks please

Palestrina
Posts: 13
Joined: Mon Oct 23, 2017 3:15 pm

Re: Storage size changed

Post by Palestrina » Mon Sep 03, 2018 4:50 am

Here is the activity log of the encoding process:

Code: Select all

[00:05:18] work: average encoding speed for job is 3.970978 fps
[00:05:18] comb detect: heavy 4814 | light 23705 | uncombed 46571 | total 75090
[00:05:18] decomb: deinterlaced 4814 | blended 23705 | unfiltered 46571 | total 75090
[00:05:18] vfr: lost time: 32400 (0 frames)
[00:05:18] vfr: gained time: 32400 (36 frames) (0 not accounted for)
[00:05:18] ac3-decoder done: 93872 frames, 0 decoder errors
[00:05:18] ac3-decoder done: 93872 frames, 0 decoder errors
[00:05:18] mpeg2video-decoder done: 75099 frames, 0 decoder errors
[00:05:18] sync: got 75099 frames, 75099 expected
[00:05:18] sync: framerate min 12.500 fps, max 25.000 fps, avg 25.000 fps
x264 [info]: frame I:481   Avg QP:18.30  size: 85915
x264 [info]: frame P:13999 Avg QP:20.97  size: 44643
x264 [info]: frame B:60610 Avg QP:23.03  size: 29075
x264 [info]: consecutive B-frames:  0.9%  0.5%  3.0% 11.8% 15.4% 58.7%  6.6%  2.2%  0.9%
x264 [info]: mb I  I16..4: 10.1% 69.4% 20.5%
x264 [info]: mb P  I16..4:  0.6% 39.9%  5.0%  P16..4: 21.1% 20.2% 11.5%  0.7%  0.1%    skip: 0.9%
x264 [info]: mb B  I16..4:  0.1% 10.4%  0.9%  B16..8: 40.0% 18.3%  5.3%  direct:18.4%  skip: 6.6%  L0:40.5% L1:35.0% BI:24.5%
x264 [info]: 8x8 transform intra:88.9% inter:73.0%
x264 [info]: direct mvs  spatial:99.9% temporal:0.1%
x264 [info]: coded y,uvDC,uvAC intra: 98.8% 81.6% 39.6% inter: 78.0% 49.7% 3.0%
x264 [info]: i16 v,h,dc,p: 36% 13% 27% 24%
x264 [info]: i8 v,h,dc,ddl,ddr,vr,hd,vl,hu: 12%  8% 11%  9% 13% 12% 11% 12% 13%
x264 [info]: i4 v,h,dc,ddl,ddr,vr,hd,vl,hu: 15% 14%  5%  8% 12% 12% 11% 11% 13%
x264 [info]: i8c dc,h,v,p: 27% 28% 25% 20%
x264 [info]: Weighted P-Frames: Y:10.8% UV:5.1%
x264 [info]: ref P L0: 31.7% 10.9% 15.4%  8.3%  6.5%  4.9%  4.5%  2.9%  2.7%  2.2%  2.1%  1.8%  1.8%  1.5%  1.6%  1.2%
x264 [info]: ref B L0: 75.2%  9.6%  4.2%  2.3%  1.7%  1.4%  1.2%  0.8%  0.7%  0.6%  0.6%  0.5%  0.5%  0.3%  0.1%
x264 [info]: ref B L1: 95.2%  4.8%
x264 [info]: kb/s:6467.46
[00:05:18] mux: track 0, 75090 frames, 2428507829 bytes, 6467.31 kbps, fifo 1024
[00:05:18] mux: track 1, 140811 frames, 48554306 bytes, 129.30 kbps, fifo 2048
[00:05:18] mux: track 2, 93872 frames, 84109312 bytes, 223.99 kbps, fifo 2048
[00:05:18] libhb: work result = 0
[00:05:19] macgui: QueueCore work done
[00:05:20] macgui: QueueCore scanning specifically for title: 1
[00:05:20] CPU: Intel(R) Core(TM) i7-4578U CPU @ 3.00GHz
[00:05:20]  - Intel microarchitecture Haswell
[00:05:20]  - logical processor count: 4
[00:05:20] hb_scan: path=/Volumes/Filme und Serien/Filme/Miss.Sloane.2016.mkv, title_index=1
udfread ERROR: ECMA 167 Volume Recognition failed
disc.c:323: failed opening UDF image /Volumes/Filme und Serien/Filme/Miss.Sloane.2016.mkv
disc.c:424: error opening file BDMV/index.bdmv
disc.c:424: error opening file BDMV/BACKUP/index.bdmv
[00:05:20] bd: not a bd - trying as a stream/file instead
libdvdnav: Using dvdnav version 5.0.3
libdvdread: Encrypted DVD support unavailable.
libdvdread:DVDOpenFileUDF:UDFFindFile /VIDEO_TS/VIDEO_TS.IFO failed
libdvdread:DVDOpenFileUDF:UDFFindFile /VIDEO_TS/VIDEO_TS.BUP failed
libdvdread: Can't open file VIDEO_TS.IFO.
libdvdnav: vm: failed to read VIDEO_TS.IFO
[00:05:20] dvd: not a dvd - trying as a stream/file instead
Input #0, matroska,webm, from '/Volumes/Filme und Serien/Filme/Miss.Sloane.2016.mkv':
  Metadata:
    title           : Die Erfindung der Wahrheit
  Duration: 02:12:58.66, start: 0.000000, bitrate: N/A
    Chapter #0:0: start 0.000000, end 622.666667
    Metadata:
      title           : Chapter 01
    Chapter #0:1: start 622.666667, end 1319.791667
    Metadata:
      title           : Chapter 02
    Chapter #0:2: start 1319.791667, end 1840.791667
    Metadata:
      title           : Chapter 03
    Chapter #0:3: start 1840.791667, end 2387.750000
    Metadata:
      title           : Chapter 04
    Chapter #0:4: start 2387.750000, end 2997.041667
    Metadata:
      title           : Chapter 05
    Chapter #0:5: start 2997.041667, end 3489.333333
    Metadata:
      title           : Chapter 06
    Chapter #0:6: start 3489.333333, end 4227.666667
    Metadata:
      title           : Chapter 07
    Chapter #0:7: start 4227.666667, end 4735.666667
    Metadata:
      title           : Chapter 08
    Chapter #0:8: start 4735.666667, end 5333.666667
    Metadata:
      title           : Chapter 09
    Chapter #0:9: start 5333.666667, end 6123.791667
    Metadata:
      title           : Chapter 10
    Chapter #0:10: start 6123.791667, end 6868.416667
    Metadata:
      title           : Chapter 11
    Chapter #0:11: start 6868.416667, end 7600.458333
    Metadata:
      title           : Chapter 12
    Chapter #0:12: start 7600.458333, end 7978.666667
    Metadata:
      title           : Chapter 13
    Stream #0:0(eng): Video: h264 (High)
      yuv420p, 1920x1080 [PAR 1:1 DAR 16:9], PAR 1:1 DAR 16:9
      24 fps, 1k tbn
    Metadata:
      BPS-eng         : 30874919
      DURATION-eng    : 02:12:58.666666666
      NUMBER_OF_FRAMES-eng: 191488
      NUMBER_OF_BYTES-eng: 30792583762
      SOURCE_ID-eng   : 001011
      _STATISTICS_WRITING_APP-eng: MakeMKV v1.10.8 darwin(x64-release)
      _STATISTICS_WRITING_DATE_UTC-eng: 2018-08-26 00:26:35
      _STATISTICS_TAGS-eng: BPS DURATION NUMBER_OF_FRAMES NUMBER_OF_BYTES SOURCE_ID
    Stream #0:1(deu): Audio: dts (DTS)
      48000 Hz, 5.1, fltp, 1536 kb/s (default)
    Metadata:
      title           : Surround 5.1
      BPS-eng         : 1509000
      DURATION-eng    : 02:12:58.666666666
      NUMBER_OF_FRAMES-eng: 748000
      NUMBER_OF_BYTES-eng: 1504976000
      SOURCE_ID-eng   : 001100
      _STATISTICS_WRITING_APP-eng: MakeMKV v1.10.8 darwin(x64-release)
      _STATISTICS_WRITING_DATE_UTC-eng: 2018-08-26 00:26:35
      _STATISTICS_TAGS-eng: BPS DURATION NUMBER_OF_FRAMES NUMBER_OF_BYTES SOURCE_ID
    Stream #0:2(eng): Audio: dts (DTS)
      48000 Hz, 5.1, fltp, 1536 kb/s
    Metadata:
      title           : Surround 5.1
      BPS-eng         : 1509000
      DURATION-eng    : 02:12:58.666666666
      NUMBER_OF_FRAMES-eng: 748000
      NUMBER_OF_BYTES-eng: 1504976000
      SOURCE_ID-eng   : 001101
      _STATISTICS_WRITING_APP-eng: MakeMKV v1.10.8 darwin(x64-release)
      _STATISTICS_WRITING_DATE_UTC-eng: 2018-08-26 00:26:35
      _STATISTICS_TAGS-eng: BPS DURATION NUMBER_OF_FRAMES NUMBER_OF_BYTES SOURCE_ID
    Stream #0:3(deu): Subtitle: hdmv_pgs_subtitle
    Metadata:
      BPS-eng         : 49490
      DURATION-eng    : 02:05:12.604166666
      NUMBER_OF_FRAMES-eng: 4622
      NUMBER_OF_BYTES-eng: 46475619
      SOURCE_ID-eng   : 001200
      _STATISTICS_WRITING_APP-eng: MakeMKV v1.10.8 darwin(x64-release)
      _STATISTICS_WRITING_DATE_UTC-eng: 2018-08-26 00:26:35
      _STATISTICS_TAGS-eng: BPS DURATION NUMBER_OF_FRAMES NUMBER_OF_BYTES SOURCE_ID
    Stream #0:4(deu): Subtitle: hdmv_pgs_subtitle
    Metadata:
      BPS-eng         : 255
      DURATION-eng    : 01:41:08.812500000
      NUMBER_OF_FRAMES-eng: 12
      NUMBER_OF_BYTES-eng: 193765
      SOURCE_ID-eng   : 001201
      _STATISTICS_WRITING_APP-eng: MakeMKV v1.10.8 darwin(x64-release)
      _STATISTICS_WRITING_DATE_UTC-eng: 2018-08-26 00:26:35
      _STATISTICS_TAGS-eng: BPS DURATION NUMBER_OF_FRAMES NUMBER_OF_BYTES SOURCE_ID
    Stream #0:5(deu): Subtitle: hdmv_pgs_subtitle
    Metadata:
      BPS-eng         : 255
      DURATION-eng    : 01:41:08.812500000
      NUMBER_OF_FRAMES-eng: 12
      NUMBER_OF_BYTES-eng: 193765
      SOURCE_ID-eng   : 001201
      _STATISTICS_WRITING_APP-eng: MakeMKV v1.10.8 darwin(x64-release)
      _STATISTICS_WRITING_DATE_UTC-eng: 2018-08-26 00:26:35
      _STATISTICS_TAGS-eng: BPS DURATION NUMBER_OF_FRAMES NUMBER_OF_BYTES SOURCE_ID
    Stream #0:6(eng): Subtitle: hdmv_pgs_subtitle
    Metadata:
      BPS-eng         : 162
      DURATION-eng    : 02:00:17.979166666
      NUMBER_OF_FRAMES-eng: 14
      NUMBER_OF_BYTES-eng: 146724
      SOURCE_ID-eng   : 001202
      _STATISTICS_WRITING_APP-eng: MakeMKV v1.10.8 darwin(x64-release)
      _STATISTICS_WRITING_DATE_UTC-eng: 2018-08-26 00:26:35
      _STATISTICS_TAGS-eng: BPS DURATION NUMBER_OF_FRAMES NUMBER_OF_BYTES SOURCE_ID
    Stream #0:7(eng): Subtitle: hdmv_pgs_subtitle
    Metadata:
      BPS-eng         : 162
      DURATION-eng    : 02:00:17.979166666
      NUMBER_OF_FRAMES-eng: 14
      NUMBER_OF_BYTES-eng: 146724
      SOURCE_ID-eng   : 001202
      _STATISTICS_WRITING_APP-eng: MakeMKV v1.10.8 darwin(x64-release)
      _STATISTICS_WRITING_DATE_UTC-eng: 2018-08-26 00:26:35
      _STATISTICS_TAGS-eng: BPS DURATION NUMBER_OF_FRAMES NUMBER_OF_BYTES SOURCE_ID
[00:05:20] scan: decoding previews for title 1
[00:05:20] scan: audio 0x1: dca, rate=48000Hz, bitrate=1536000 Deutsch (DTS) (5.1 ch)
[00:05:20] scan: audio 0x2: dca, rate=48000Hz, bitrate=1536000 English (DTS) (5.1 ch)
[00:05:22] scan: 10 previews, 1920x1080, 24.000 fps, autocrop = 138/138/0/0, aspect 16:9, PAR 1:1
[00:05:22] libhb: scan thread found 1 valid title(s)
[00:05:22] macgui: QueueCore scan done
[00:05:22] macgui: QueueCore started encoding Miss.Sloane.2016.m4v
[00:05:22] macgui: QueueCore with preset DVDs
[00:05:22] 1 job(s) to process
[00:05:22] starting job
[00:05:22] decomb filter thread started for segment 0
[00:05:22] decomb filter thread started for segment 1
[00:05:22] decomb filter thread started for segment 2
[00:05:22] decomb filter thread started for segment 3
[00:05:22] decomb check thread started for segment 0
[00:05:22] decomb check thread started for segment 1
[00:05:22] decomb check thread started for segment 2
[00:05:22] decomb check thread started for segment 3
[00:05:22] mask filter thread started for segment 0
[00:05:22] mask filter thread started for segment 1
[00:05:22] mask filter thread started for segment 2
[00:05:22] mask filter thread started for segment 3
[00:05:22] mask erode thread started for segment 0
[00:05:22] mask erode thread started for segment 1
[00:05:22] mask erode thread started for segment 2
[00:05:22] mask erode thread started for segment 3
[00:05:22] mask dilate thread started for segment 0
[00:05:22] mask dilate thread started for segment 1
[00:05:22] mask dilate thread started for segment 2
[00:05:22] mask dilate thread started for segment 3
[00:05:22] yadif thread started for segment 0
[00:05:22] yadif thread started for segment 1
[00:05:22] yadif thread started for segment 2
[00:05:22] yadif thread started for segment 3
[00:05:22] job configuration:
[00:05:22]  * source
[00:05:22]    + /Volumes/Filme und Serien/Filme/Miss.Sloane.2016.mkv
[00:05:22]    + title 1, chapter(s) 1 to 13
[00:05:22]    + container: matroska,webm
[00:05:22]  * destination
[00:05:22]    + /Volumes/Filme und Serien/Lost codiert/Miss.Sloane.2016.m4v
[00:05:22]    + container: MPEG-4 (libavformat)
[00:05:22]      + chapter markers
[00:05:22]  * video track
[00:05:22]    + decoder: h264
[00:05:22]    + filters
[00:05:22]      + Detelecine (pullup) (skip-left=1:skip-right=1:skip-top=4:skip-bottom=4:plane=0)
[00:05:22]      + Comb Detect (mode=3:spatial-metric=2:motion-thresh=1:spatial-thresh=1:filter-mode=2:block-thresh=40:block-width=16:block-height=16)
[00:05:22]      + Decomb (mode=39)
[00:05:22]      + Framerate Shaper (mode=0:rate=27000000/1125000)
[00:05:22]        + frame rate: same as source (around 24.000 fps)
[00:05:22]      + Crop and Scale (width=720:height=302:crop-top=138:crop-bottom=138:crop-left=0:crop-right=0)
[00:05:22]        + source: 1920 * 1080, crop (138/138/0/0): 1920 * 804, scale: 720 * 302
[00:05:22]    + Output geometry
[00:05:22]      + storage dimensions: 720 x 302
[00:05:22]      + pixel aspect ratio: 604 : 603
[00:05:22]      + display dimensions: 721 x 302
[00:05:22]  * Foreign Audio Search: Render/Burn-in, Forced Only
[00:05:22]    + subtitle, English [PGS] (track 3, id 0x6, Picture)
[00:05:22]    + subtitle, English [PGS] (track 4, id 0x7, Picture)
[00:05:22] sync: expecting 191487 video frames
[00:12:09] reader: done. 1 scr changes
[00:12:09] work: average encoding speed for job is 0.000000 fps
[00:12:09] comb detect: heavy 0 | light 0 | uncombed 0 | total 0
[00:12:09] decomb: deinterlaced 0 | blended 0 | unfiltered 0 | total 0
[00:12:09] vfr: lost time: 0 (0 frames)
[00:12:09] vfr: gained time: 0 (0 frames) (0 not accounted for)
[00:12:09] h264-decoder done: 0 frames, 0 decoder errors
[00:12:09] sync: got 0 frames, 191487 expected
[00:12:09] Subtitle track 3 (id 0x6) 'English [PGS]': 7 hits (7 forced)
[00:12:09] Subtitle track 4 (id 0x7) 'English [PGS]': 7 hits (7 forced)
[00:12:09] Found a subtitle candidate with id 0x6 (contains forced subs)
[00:12:09] starting job
[00:12:09] decomb filter thread started for segment 0
[00:12:09] decomb filter thread started for segment 1
[00:12:09] decomb filter thread started for segment 2
[00:12:09] decomb filter thread started for segment 3
[00:12:09] decomb check thread started for segment 0
[00:12:09] decomb check thread started for segment 1
[00:12:09] decomb check thread started for segment 2
[00:12:09] decomb check thread started for segment 3
[00:12:09] mask filter thread started for segment 0
[00:12:09] mask filter thread started for segment 1
[00:12:09] mask filter thread started for segment 2
[00:12:09] mask filter thread started for segment 3
[00:12:09] mask erode thread started for segment 0
[00:12:09] mask erode thread started for segment 1
[00:12:09] mask erode thread started for segment 2
[00:12:09] mask erode thread started for segment 3
[00:12:09] mask dilate thread started for segment 0
[00:12:09] mask dilate thread started for segment 1
[00:12:09] mask dilate thread started for segment 2
[00:12:09] mask dilate thread started for segment 3
[00:12:09] yadif thread started for segment 0
[00:12:09] yadif thread started for segment 1
[00:12:09] yadif thread started for segment 2
[00:12:09] yadif thread started for segment 3
[00:12:09] job configuration:
[00:12:09]  * source
[00:12:09]    + /Volumes/Filme und Serien/Filme/Miss.Sloane.2016.mkv
[00:12:09]    + title 1, chapter(s) 1 to 13
[00:12:09]    + container: matroska,webm
[00:12:09]  * destination
[00:12:09]    + /Volumes/Filme und Serien/Lost codiert/Miss.Sloane.2016.m4v
[00:12:09]    + container: MPEG-4 (libavformat)
[00:12:09]      + chapter markers
[00:12:09]  * video track
[00:12:09]    + decoder: h264
[00:12:09]    + filters
[00:12:09]      + Detelecine (pullup) (skip-left=1:skip-right=1:skip-top=4:skip-bottom=4:plane=0)
[00:12:09]      + Comb Detect (mode=3:spatial-metric=2:motion-thresh=1:spatial-thresh=1:filter-mode=2:block-thresh=40:block-width=16:block-height=16)
[00:12:09]      + Decomb (mode=39)
[00:12:09]      + Framerate Shaper (mode=0:rate=27000000/1125000)
[00:12:09]        + frame rate: same as source (around 24.000 fps)
[00:12:09]      + Subtitle renderer ()
[00:12:09]      + Crop and Scale (width=720:height=302:crop-top=138:crop-bottom=138:crop-left=0:crop-right=0)
[00:12:09]        + source: 1920 * 1080, crop (138/138/0/0): 1920 * 804, scale: 720 * 302
[00:12:09]    + Output geometry
[00:12:09]      + storage dimensions: 720 x 302
[00:12:09]      + pixel aspect ratio: 604 : 603
[00:12:09]      + display dimensions: 721 x 302
[00:12:09]    + encoder: H.264 (libx264)
[00:12:09]      + preset:  veryslow
[00:12:09]      + tune:    film
[00:12:09]      + profile: high
[00:12:09]      + level:   4.1
[00:12:09]      + quality: 18.00 (RF)
[00:12:09]  * subtitle track 1, English [PGS] (track 3, id 0x6, Picture) -> Render/Burn-in, Forced Only
[00:12:09]  * audio track 1
[00:12:09]    + decoder: English (DTS) (5.1 ch) (track 2, id 0x2)
[00:12:09]      + bitrate: 1536 kbps, samplerate: 48000 Hz
[00:12:09]    + mixdown: Stereo
[00:12:09]    + encoder: AAC (Apple AudioToolbox)
[00:12:09]      + bitrate: 160 kbps, samplerate: 48000 Hz
[00:12:09]  * audio track 2
[00:12:09]    + decoder: English (DTS) (5.1 ch) (track 2, id 0x2)
[00:12:09]      + bitrate: 1536 kbps, samplerate: 48000 Hz
[00:12:09]    + DTS Passthru
[00:12:09]  * audio track 3
[00:12:09]    + decoder: Deutsch (DTS) (5.1 ch) (track 1, id 0x1)
[00:12:09]      + bitrate: 1536 kbps, samplerate: 48000 Hz
[00:12:09]    + mixdown: Stereo
[00:12:09]    + encoder: AAC (Apple AudioToolbox)
[00:12:09]      + bitrate: 160 kbps, samplerate: 48000 Hz
[00:12:09]  * audio track 4
[00:12:09]    + decoder: Deutsch (DTS) (5.1 ch) (track 1, id 0x1)
[00:12:09]      + bitrate: 1536 kbps, samplerate: 48000 Hz
[00:12:09]    + DTS Passthru
[00:12:09] sync: expecting 191487 video frames
[00:12:09] encx264: min-keyint: 24, keyint: 240
[00:12:09] encx264: encoding at constant RF 18.000000
[00:12:09] encx264: unparsed options: level=4.1:ref=16:bframes=8:b-adapt=2:direct=auto:deblock=-1,-1:analyse=all:me=umh:merange=24:subme=10:trellis=2:psy-rd=1,0.15:vbv-bufsize=78125:vbv-maxrate=62500:rc-lookahead=60
x264 [info]: using SAR=604/603
x264 [info]: using cpu capabilities: MMX2 SSE2Fast SSSE3 SSE4.2 AVX FMA3 BMI2 AVX2
x264 [info]: profile High, level 4.1
[00:12:10] sync: first pts video is 0
[00:12:10] sync: "Chapter 1" (1) at frame 1 time 0
[00:12:10] sync: first pts audio 0x2 is 0
[00:12:10] sync: first pts audio 0x2 is 0
[00:12:10] sync: first pts audio 0x1 is 0
[00:12:10] sync: first pts audio 0x1 is 0
[00:18:22] sync: first pts subtitle 0x6 is 20238750
[00:32:21] sync: "Chapter 2" (2) at frame 14945 time 56040000
[00:55:09] sync: "Chapter 3" (3) at frame 31676 time 118781250
[01:11:31] sync: "Chapter 4" (4) at frame 44180 time 165671250
[01:28:20] sync: "Chapter 5" (5) at frame 57307 time 214897500
[01:47:19] sync: "Chapter 6" (6) at frame 71930 time 269733750
[02:03:46] sync: "Chapter 7" (7) at frame 83746 time 314043750
[02:27:05] sync: "Chapter 8" (8) at frame 101465 time 380490000
[02:41:27] sync: "Chapter 9" (9) at frame 113657 time 426210000
[02:59:44] sync: "Chapter 10" (10) at frame 128009 time 480030000
[03:23:00] sync: "Chapter 11" (11) at frame 146972 time 551141250
[03:43:06] sync: "Chapter 12" (12) at frame 164843 time 618157500
[04:04:26] sync: "Chapter 13" (13) at frame 182415 time 684052500
[04:10:17] reader: done. 1 scr changes

Woodstock
Veteran User
Posts: 2715
Joined: Tue Aug 27, 2013 6:39 am

Re: Storage size changed

Post by Woodstock » Mon Sep 03, 2018 12:27 pm

It looks like your preset was saved with a smaller maximum output geometry, i.e., it's not a "1080p" resolution. Storing the output size is a separate step in creating a preset from scratch. I suspect that, when you were tweaking your preset, you may have accidentally said "yes" when asked about saving the resolution.

If your preset is "almost the same" as the "SuperHQ 1080p30" preset, load that preset and make your tweaks to it, and save it as a new 1080 preset, and do the same with the 480p version. As mentioned elsewhere, there are differences in some settings between the 480p and 1080p presets that make sense for the different sources.

Palestrina
Posts: 13
Joined: Mon Oct 23, 2017 3:15 pm

Re: Storage size changed

Post by Palestrina » Mon Sep 03, 2018 2:43 pm

O, thanks. I am certain that for some time, Handbrake did automatically adjust the resolution based on the file. If I loaded a DVD file, it automatically chose another resolution than when I loaded a Blu-ray file. I wonder if this will still be the case after i "hard code" the resolution of 1920x800 into my preset. Will I need two presets, one for Blu-rays and one for DVDs? Or is there a possibility to say something like "take the resolution that the original file has"?

Palestrina
Posts: 13
Joined: Mon Oct 23, 2017 3:15 pm

Re: Storage size changed

Post by Palestrina » Mon Sep 03, 2018 3:32 pm

Sorry, one additional question: does this mean that all my videos encoded under the wrong storage size are distorted because I forced a specific size on them that may not fit all (e.g. some movies are 1,77:1, others 2,35:1)? Or does this only mean they are of lower quality which will become apparent once I watch them on a big screen?

Woodstock
Veteran User
Posts: 2715
Joined: Tue Aug 27, 2013 6:39 am

Re: Storage size changed

Post by Woodstock » Mon Sep 03, 2018 4:51 pm

The sizes in the built-in presets are maximums - Example, "SuperHQ 1080p30" will allow UP TO 1920x1080, but will maintain the aspect ratio of the original if possible. If your source is a Bluray, it will be 1920x1080 stored on disk, but it will be cropped to 1920x800 or whatever the non-letterbox size is.

If you processed a 1920x1080 source that had a 1920x800 actual picture size, using a DVD-level limit of 480p, you get results like:

Code: Select all

[00:05:22]      + Crop and Scale (width=720:height=302:crop-top=138:crop-bottom=138:crop-left=0:crop-right=0)
[00:05:22]        + source: 1920 * 1080, crop (138/138/0/0): 1920 * 804, scale: 720 * 302
[00:05:22]    + Output geometry
[00:05:22]      + storage dimensions: 720 x 302
[00:05:22]      + pixel aspect ratio: 604 : 603
[00:05:22]      + display dimensions: 721 x 302
As for when you watch them on the big screen, Miss Sloane will look like a slightly-better-than-DVD source.

As for the two profiles - you can make do with just one, but, as I said, there are some tweaks to the 480p profiles that clean up DVD sources slightly better. Personally, I only the 1080p version.

Palestrina
Posts: 13
Joined: Mon Oct 23, 2017 3:15 pm

Re: Storage size changed

Post by Palestrina » Tue Sep 04, 2018 6:37 pm

Thank you! Ok, that means I will have to encode my Blu-rays again. I looked through my collection to see when things went wrong. When I did this, I noticed that all Blu-rays in fact have a resolution of 720x306 (with slight changes) while my DVDs have all varieties of resolutions from 622x480 to 768x574 up to 1024x434 (to be honest, I don't understand why that is). I therefore suspect I do not have to encode them again which would be a relieve. Do you agree that my DVDs have kept the original resolution and are therefore fine?

And to double-check: if I set the resolution to 1920x1080 and load a DVD file, that file will after encoding have the resolution it originally had, correct? I am asking to make sure I don't have to do different things depending on whether the original file is a Blu-ray or a DVD.

Again, thank you for your help!

Woodstock
Veteran User
Posts: 2715
Joined: Tue Aug 27, 2013 6:39 am

Re: Storage size changed

Post by Woodstock » Tue Sep 04, 2018 7:55 pm

Correct that the resolution will remain the same as the source, as long as that's less than 1920x1080.

1024x434... that was probably an anamophic title with really wide pixels (pixel aspect ratio much wider than high).

Palestrina
Posts: 13
Joined: Mon Oct 23, 2017 3:15 pm

Re: Storage size changed

Post by Palestrina » Wed Sep 05, 2018 7:49 am

Thank you again. Out of curiosity: why did the storage size of 720x306 affect all my Blu-rays but none of my DVDs? I would have guessed that DVDs with a higher resolution would have been affected as well but that is seemingly not true.

User avatar
Rodeo
HandBrake Team
Posts: 11933
Joined: Tue Mar 03, 2009 8:55 pm

Re: Storage size changed

Post by Rodeo » Wed Sep 05, 2018 4:21 pm

The preset may have been configured for maximums of 720x480; Blu-Rays would go to 720xH because they use square pixels, whereas DVDs use not-square pixels and would always fit within 720 by 480, no height reduction needed.

Palestrina
Posts: 13
Joined: Mon Oct 23, 2017 3:15 pm

Re: Storage size changed

Post by Palestrina » Mon Sep 17, 2018 6:50 am

I checked the DVDs I had converted during the previous months. It appears that their size has been changed, too. E.g. if a DVD had a display size of 1024x426, the converted file had a display size of 1024x576. I wonder whether this means that the picture has been scaled (so that something is missing on both edges) or that the picture has been distorted (so that everything is a bit stretched). Do you know that?

Palestrina
Posts: 13
Joined: Mon Oct 23, 2017 3:15 pm

Re: Storage size changed

Post by Palestrina » Mon Sep 17, 2018 4:58 pm

Never mind, sorry.

Post Reply