If the CPU consumption can be lowered when encoding videos?

HandBrake for Mac support
Forum rules
An Activity Log is required for support requests. Please read How-to get an activity log? for details on how and why this should be provided.
Post Reply
pbjacob
New User
Posts: 1
Joined: Thu Aug 24, 2017 8:41 am

If the CPU consumption can be lowered when encoding videos?

Post by pbjacob » Thu Aug 24, 2017 8:54 am

Please detail your question or problem in as much detail as possible:
When encoding a video (1080p --> 720p), the CPU consumption is very high, and so is the CPU temperature.
Moreover, the encoding procedure usually lasts for hours.
I'm very worried about my CPU in such high intensity and long time work.

So, are there any options that can lower CPU operating load during the encoding?
I know that will also lengthen the whole encoding time, but it's OK for me.

Thank you so much!

Tell us about your environment. What version of HandBrake? What version of OSX are you running. etc.
Macbook 15' in 2015, HandBrake 1.0.7, Sierra 10.12.6.

If there was any exception or error displayed, please copy it and paste it here:

Please include the scan or encode log:

Code: Select all

 Paste a log of the scan or encode between these code brackets, or use a pastebin website and provide us with the URL it gives you. 
 Logs are required for all support requests.

User avatar
s55
HandBrake Team
Posts: 9501
Joined: Sun Dec 24, 2006 1:05 pm

Re: If the CPU consumption can be lowered when encoding videos?

Post by s55 » Thu Aug 24, 2017 9:27 am

The CPU is designed to adjust it's clock speed to keep the temperature within safe bounds. HandBrake and it's underlying encoders are designed to take full advantage of the CPU which is why your seeing high utilisation. High utilisation doesn't do any harm.

Intel CPU's will usually throttle quite aggressively at 100C however most macbooks I've worked with usually run full speed in the 80~90C range so within thermal limits.

Woodstock
Veteran User
Posts: 3153
Joined: Tue Aug 27, 2013 6:39 am

Re: If the CPU consumption can be lowered when encoding videos?

Post by Woodstock » Thu Aug 24, 2017 1:43 pm

If you're going to use a laptop for encoding, make VERY sure the cooling passages are CLEAN.

elddum
New User
Posts: 1
Joined: Tue Nov 28, 2017 12:43 pm

Re: If the CPU consumption can be lowered when encoding videos?

Post by elddum » Tue Nov 28, 2017 12:48 pm

It would be good if there was some way to throttle CPU usage for Handbrake - not from a concern over CPU impact, but to reduce the fan noise when I leave it running overnight.
I've a quad-core 3.3Ghz i7 iMac and it rips through the encodes pretty quickly... but the fan is running at full speed from about 30 seconds in. I want to batch encode overnight, but the noise from the fan will keep me awake!

Would be good if there was an option to limit CPU so it could it just plod away for hours overnight with minimal fan noise :)

Woodstock
Veteran User
Posts: 3153
Joined: Tue Aug 27, 2013 6:39 am

Re: If the CPU consumption can be lowered when encoding videos?

Post by Woodstock » Tue Nov 28, 2017 3:49 pm

You can reduce the number of cores MacOS assigns to handbrake, but it is uncertain how much that would help... You'd still have the cores you let it run on go at 100%.

video.baba
Posts: 55
Joined: Sun May 24, 2015 11:12 am

Re: If the CPU consumption can be lowered when encoding videos?

Post by video.baba » Wed Nov 29, 2017 9:00 am

Before I got my current laptop I used to have many overheating issues, would only encode for about 6 mins before reset. The laptop's cooling was old and past its day, but it was the only option I had. The only way around it was to add 'threads=1' to the advanced options, not ideal I guess, but it worked. Maybe give it a try.

cobb
Posts: 25
Joined: Fri Jul 12, 2013 1:35 pm

Re: If the CPU consumption can be lowered when encoding videos?

Post by cobb » Wed Nov 29, 2017 9:36 am

cputhrottle can do this:

Code: Select all

http://www.willnolan.com/cputhrottle/cputhrottle.html
It's also available via homebrew:

Code: Select all

http://brewformulas.org/Cputhrottle
Note that the overall CPU percentage of the system is calculated
by the number of cores and virtual cores if present.

i.e. if you have a Quad-Core Intel Xeon which utilises hyper-threading
technology, it adds up to eight cores and thus 800%.

If you use cputhrottle on that system with 400%, each (virtual)core
will perform at 50%.

wessongroup
Posts: 3
Joined: Wed Oct 01, 2014 11:07 pm

Re: If the CPU consumption can be lowered when encoding videos?

Post by wessongroup » Sun Dec 10, 2017 4:53 am

My mac mimi runs cool .. but, Handbrake software is eating my computers lunch on Encoding a MKV file over to .mp4

I'm doing a 26Gb file, The War for the Planet of the Apes ... and right now its finish time is 6.54.12 ..

I'm running server software also and checked the CPU utilization and using Handbrake takes up between 72 - 92%

The previous version was giving me between 1:45 to a little over 2 hr ... which was nice

Just did a fresh in stall ... that's where I got the numbers on the CPU's utilization

I will post the "activity log" ... somewhere else

Maybe its code ???

Mac mini Server late 2012 8Gb ram, 2.3Ghz i7 Quad Core with a 512Gb SSD external used HD via USB 3

Version 1.0.7 Handbrake

Here is the activity log for 2 movies I just decoded:

HandBrake Activity Log for Session: 2017-12-09 22:40:28 -0800
Handbrake Version: 1.0.7 (2017040900)
War for the Planet of the Apes t001.mp4
Preset: Fast 1080p30
[22:40:28] macgui: QueueCore scanning specifically for title: 1
[22:40:28] CPU: Intel(R) Core(TM) i7-3615QM CPU @ 2.30GHz
[22:40:28] - Intel microarchitecture Ivy Bridge
[22:40:28] - logical processor count: 8
[22:40:28] hb_scan: path=/Users/wileywesson/Movies/_MKV/War_for_the_Planet_of_the_Apes_t00.mkv, title_index=1
udfread ERROR: ECMA 167 Volume Recognition failed
disc.c:274: failed opening UDF image /Users/wileywesson/Movies/_MKV/War_for_the_Planet_of_the_Apes_t00.mkv
disc.c:352: error opening file BDMV/index.bdmv
disc.c:352: error opening file BDMV/BACKUP/index.bdmv
[22:40:28] bd: not a bd - trying as a stream/file instead
libdvdnav: Using dvdnav version 5.0.1
libdvdread: Encrypted DVD support unavailable.
libdvdread:DVDOpenFileUDF:UDFFindFile /VIDEO_TS/VIDEO_TS.IFO failed
libdvdread:DVDOpenFileUDF:UDFFindFile /VIDEO_TS/VIDEO_TS.BUP failed
libdvdread: Can't open file VIDEO_TS.IFO.
libdvdnav: vm: failed to read VIDEO_TS.IFO
[22:40:28] dvd: not a dvd - trying as a stream/file instead
Input #0, matroska,webm, from '/Users/wileywesson/Movies/_MKV/War_for_the_Planet_of_the_Apes_t00.mkv':
Metadata:
title : War for the Planet of the Apes
Duration: 02:20:09.28, start: 0.000000, bitrate: N/A
Chapter #0:0: start 0.000000, end 305.888917
Metadata:
title : Chapter 01
Chapter #0:1: start 305.888917, end 546.712833
Metadata:
title : Chapter 02
Chapter #0:2: start 546.712833, end 734.108375
Metadata:
title : Chapter 03
Chapter #0:3: start 734.108375, end 1101.016583
Metadata:
title : Chapter 04
Chapter #0:4: start 1101.016583, end 1504.503000
Metadata:
title : Chapter 05
Chapter #0:5: start 1504.503000, end 1817.398917
Metadata:
title : Chapter 06
Chapter #0:6: start 1817.398917, end 2053.092708
Metadata:
title : Chapter 07
Chapter #0:7: start 2053.092708, end 2266.347417
Metadata:
title : Chapter 08
Chapter #0:8: start 2266.347417, end 2574.446875
Metadata:
title : Chapter 09
Chapter #0:9: start 2574.446875, end 2971.802167
Metadata:
title : Chapter 10
Chapter #0:10: start 2971.802167, end 3254.626375
Metadata:
title : Chapter 11
Chapter #0:11: start 3254.626375, end 3529.817958
Metadata:
title : Chapter 12
Chapter #0:12: start 3529.817958, end 3924.128542
Metadata:
title : Chapter 13
Chapter #0:13: start 3924.128542, end 4218.380833
Metadata:
title : Chapter 14
Chapter #0:14: start 4218.380833, end 4493.822667
Metadata:
title : Chapter 15
Chapter #0:15: start 4493.822667, end 4739.192792
Metadata:
title : Chapter 16
Chapter #0:16: start 4739.192792, end 5135.672208
Metadata:
title : Chapter 17
Chapter #0:17: start 5135.672208, end 5377.372000
Metadata:
title : Chapter 18
Chapter #0:18: start 5377.372000, end 5662.823833
Metadata:
title : Chapter 19
Chapter #0:19: start 5662.823833, end 5967.711750
Metadata:
title : Chapter 20
Chapter #0:20: start 5967.711750, end 6228.222000
Metadata:
title : Chapter 21
Chapter #0:21: start 6228.222000, end 6525.393875
Metadata:
title : Chapter 22
Chapter #0:22: start 6525.393875, end 6920.580333
Metadata:
title : Chapter 23
Chapter #0:23: start 6920.580333, end 7084.702625
Metadata:
title : Chapter 24
Chapter #0:24: start 7084.702625, end 7353.929917
Metadata:
title : Chapter 25
Chapter #0:25: start 7353.929917, end 7554.797250
Metadata:
title : Chapter 26
Chapter #0:26: start 7554.797250, end 7971.213250
Metadata:
title : Chapter 27
Chapter #0:27: start 7971.213250, end 8409.280000
Metadata:
title : Chapter 28
Stream #0:0(eng): Video: h264 (High)
yuv420p, 1920x1080 [PAR 1:1 DAR 16:9], PAR 1:1 DAR 16:9
23.98 fps, 1k tbn
Metadata:
BPS-eng : 23355606
DURATION-eng : 02:20:09.275875000
NUMBER_OF_FRAMES-eng: 201621
NUMBER_OF_BYTES-eng: 24550464316
SOURCE_ID-eng : 001011
_STATISTICS_WRITING_APP-eng: MakeMKV v1.10.8 darwin(x64-release)
_STATISTICS_WRITING_DATE_UTC-eng: 2017-12-09 23:32:51
_STATISTICS_TAGS-eng: BPS DURATION NUMBER_OF_FRAMES NUMBER_OF_BYTES SOURCE_ID
Stream #0:1(eng): Audio: dts (DTS)
48000 Hz, 5.1, fltp, 1536 kb/s (default)
Metadata:
title : Surround 5.1
BPS-eng : 1509000
DURATION-eng : 02:20:09.280000000
NUMBER_OF_FRAMES-eng: 788370
NUMBER_OF_BYTES-eng: 1586200440
SOURCE_ID-eng : 001100
_STATISTICS_WRITING_APP-eng: MakeMKV v1.10.8 darwin(x64-release)
_STATISTICS_WRITING_DATE_UTC-eng: 2017-12-09 23:32:51
_STATISTICS_TAGS-eng: BPS DURATION NUMBER_OF_FRAMES NUMBER_OF_BYTES SOURCE_ID
Stream #0:2(eng): Audio: ac3
48000 Hz, 5.1, fltp, 448 kb/s
Metadata:
title : Surround 5.1
BPS-eng : 448000
DURATION-eng : 02:20:09.280000000
NUMBER_OF_FRAMES-eng: 262790
NUMBER_OF_BYTES-eng: 470919680
SOURCE_ID-eng : 001101
_STATISTICS_WRITING_APP-eng: MakeMKV v1.10.8 darwin(x64-release)
_STATISTICS_WRITING_DATE_UTC-eng: 2017-12-09 23:32:51
_STATISTICS_TAGS-eng: BPS DURATION NUMBER_OF_FRAMES NUMBER_OF_BYTES SOURCE_ID
Stream #0:3(eng): Subtitle: hdmv_pgs_subtitle
Metadata:
BPS-eng : 14230
DURATION-eng : 02:09:21.232645833
NUMBER_OF_FRAMES-eng: 2022
NUMBER_OF_BYTES-eng: 13805448
SOURCE_ID-eng : 001200
_STATISTICS_WRITING_APP-eng: MakeMKV v1.10.8 darwin(x64-release)
_STATISTICS_WRITING_DATE_UTC-eng: 2017-12-09 23:32:51
_STATISTICS_TAGS-eng: BPS DURATION NUMBER_OF_FRAMES NUMBER_OF_BYTES SOURCE_ID
Stream #0:4(eng): Subtitle: hdmv_pgs_subtitle
Metadata:
BPS-eng : 2575
DURATION-eng : 01:42:16.526229166
NUMBER_OF_FRAMES-eng: 383
NUMBER_OF_BYTES-eng: 1975262
SOURCE_ID-eng : 001203
_STATISTICS_WRITING_APP-eng: MakeMKV v1.10.8 darwin(x64-release)
_STATISTICS_WRITING_DATE_UTC-eng: 2017-12-09 23:32:51
_STATISTICS_TAGS-eng: BPS DURATION NUMBER_OF_FRAMES NUMBER_OF_BYTES SOURCE_ID
Stream #0:5(eng): Subtitle: hdmv_pgs_subtitle
Metadata:
BPS-eng : 2575
DURATION-eng : 01:42:16.526229166
NUMBER_OF_FRAMES-eng: 383
NUMBER_OF_BYTES-eng: 1975262
SOURCE_ID-eng : 001203
_STATISTICS_WRITING_APP-eng: MakeMKV v1.10.8 darwin(x64-release)
_STATISTICS_WRITING_DATE_UTC-eng: 2017-12-09 23:32:51
_STATISTICS_TAGS-eng: BPS DURATION NUMBER_OF_FRAMES NUMBER_OF_BYTES SOURCE_ID
Stream #0:6(eng): Subtitle: hdmv_pgs_subtitle
Metadata:
BPS-eng : 60962
DURATION-eng : 02:12:45.603479166
NUMBER_OF_FRAMES-eng: 3914
NUMBER_OF_BYTES-eng: 60700022
SOURCE_ID-eng : 001204
_STATISTICS_WRITING_APP-eng: MakeMKV v1.10.8 darwin(x64-release)
_STATISTICS_WRITING_DATE_UTC-eng: 2017-12-09 23:32:51
_STATISTICS_TAGS-eng: BPS DURATION NUMBER_OF_FRAMES NUMBER_OF_BYTES SOURCE_ID
[22:40:28] scan: decoding previews for title 1
[22:40:28] scan: audio 0x1: dca, rate=48000Hz, bitrate=1536000 English (DTS) (5.1 ch)
[22:40:28] scan: audio 0x2: ac3, rate=48000Hz, bitrate=448000 English (AC3) (5.1 ch)
[22:40:30] scan: 10 previews, 1920x1080, 23.976 fps, autocrop = 140/140/0/0, aspect 16:9, PAR 1:1
[22:40:30] libhb: scan thread found 1 valid title(s)
[22:40:30] macgui: QueueCore scan done
[22:40:30] macgui: QueueCore started encoding War for the Planet of the Apes t001.mp4
[22:40:30] 1 job(s) to process
[22:40:30] macgui: QueueCore with preset Fast 1080p30
[22:40:30] starting job
[22:40:30] decomb filter thread started for segment 1
[22:40:30] decomb filter thread started for segment 2
[22:40:30] decomb filter thread started for segment 3
[22:40:30] decomb filter thread started for segment 0
[22:40:30] decomb filter thread started for segment 4
[22:40:30] decomb filter thread started for segment 5
[22:40:30] decomb filter thread started for segment 6
[22:40:30] decomb filter thread started for segment 7
[22:40:30] decomb check thread started for segment 0
[22:40:30] decomb check thread started for segment 1
[22:40:30] decomb check thread started for segment 2
[22:40:30] decomb check thread started for segment 3
[22:40:30] decomb check thread started for segment 4
[22:40:30] decomb check thread started for segment 5
[22:40:30] decomb check thread started for segment 6
[22:40:30] decomb check thread started for segment 7
[22:40:30] mask filter thread started for segment 0
[22:40:30] mask filter thread started for segment 1
[22:40:30] mask filter thread started for segment 2
[22:40:30] mask filter thread started for segment 3
[22:40:30] mask filter thread started for segment 4
[22:40:30] mask filter thread started for segment 5
[22:40:30] mask filter thread started for segment 6
[22:40:30] mask filter thread started for segment 7
[22:40:30] mask erode thread started for segment 0
[22:40:30] mask erode thread started for segment 1
[22:40:30] mask erode thread started for segment 2
[22:40:30] mask erode thread started for segment 3
[22:40:30] mask erode thread started for segment 5
[22:40:30] mask erode thread started for segment 4
[22:40:30] mask erode thread started for segment 6
[22:40:30] mask erode thread started for segment 7
[22:40:30] mask dilate thread started for segment 0
[22:40:30] mask dilate thread started for segment 1
[22:40:30] mask dilate thread started for segment 2
[22:40:30] mask dilate thread started for segment 3
[22:40:30] mask dilate thread started for segment 4
[22:40:30] mask dilate thread started for segment 5
[22:40:30] mask dilate thread started for segment 6
[22:40:30] mask dilate thread started for segment 7
[22:40:30] yadif thread started for segment 0
[22:40:30] yadif thread started for segment 1
[22:40:30] yadif thread started for segment 2
[22:40:30] yadif thread started for segment 3
[22:40:30] yadif thread started for segment 4
[22:40:30] yadif thread started for segment 5
[22:40:30] yadif thread started for segment 6
[22:40:30] yadif thread started for segment 7
[22:40:30] job configuration:
[22:40:30] * source
[22:40:30] + /Users/wileywesson/Movies/_MKV/War_for_the_Planet_of_the_Apes_t00.mkv
[22:40:30] + title 1, chapter(s) 1 to 28
[22:40:30] + container: matroska,webm
[22:40:30] * destination
[22:40:30] + /Volumes/Movies/War for the Planet of the Apes t001.mp4
[22:40:30] + container: MPEG-4 (libavformat)
[22:40:30] + chapter markers
[22:40:30] * video track
[22:40:30] + decoder: h264
[22:40:30] + filters
[22:40:30] + Comb Detect (mode=3:spatial-metric=2:motion-thresh=1:spatial-thresh=1:filter-mode=2:block-thresh=40:block-width=16:block-height=16)
[22:40:30] + Decomb (mode=39)
[22:40:30] + Framerate Shaper (mode=2:rate=27000000/900000)
[22:40:30] + frame rate: 23.976 fps -> peak rate limited to 30.000 fps
[22:40:30] + Crop and Scale (width=1920:height=800:crop-top=140:crop-bottom=140:crop-left=0:crop-right=0)
[22:40:30] + source: 1920 * 1080, crop (140/140/0/0): 1920 * 800, scale: 1920 * 800
[22:40:30] + Output geometry
[22:40:30] + storage dimensions: 1920 x 800
[22:40:30] + pixel aspect ratio: 1 : 1
[22:40:30] + display dimensions: 1920 x 800
[22:40:30] * Foreign Audio Search: Render/Burn-in, Forced Only
[22:40:30] + subtitle, English (track 3, id 0x3) Picture [PGS]
[22:40:30] + subtitle, English (track 4, id 0x4) Picture [PGS]
[22:40:30] + subtitle, English (track 5, id 0x5) Picture [PGS]
[22:40:30] + subtitle, English (track 6, id 0x6) Picture [PGS]
[22:40:30] sync: expecting 201621 video frames
[22:41:30] reader: done. 1 scr changes
[22:41:30] work: average encoding speed for job is 0.000000 fps
[22:41:30] comb detect: heavy 0 | light 0 | uncombed 0 | total 0
[22:41:30] decomb: deinterlaced 0 | blended 0 | unfiltered 0 | total 0
[22:41:30] vfr: 0 frames output, 0 dropped and 0 duped for CFR/PFR
[22:41:30] vfr: lost time: 0 (0 frames)
[22:41:30] vfr: gained time: 0 (0 frames) (0 not accounted for)
[22:41:30] h264-decoder done: 0 frames, 0 decoder errors
[22:41:30] sync: got 0 frames, 201621 expected
[22:41:30] Subtitle track 3 (id 0x3) 'English': 1011 hits (0 forced)
[22:41:30] Subtitle track 4 (id 0x4) 'English': 192 hits (192 forced)
[22:41:30] Subtitle track 5 (id 0x5) 'English': 192 hits (192 forced)
[22:41:30] Subtitle track 6 (id 0x6) 'English': 1957 hits (0 forced)
[22:41:30] Found a subtitle candidate with id 0x4 (contains forced subs)
[22:41:30] starting job
[22:41:30] decomb filter thread started for segment 1
[22:41:30] decomb filter thread started for segment 0
[22:41:30] decomb filter thread started for segment 2
[22:41:30] decomb filter thread started for segment 3
[22:41:30] decomb filter thread started for segment 4
[22:41:30] decomb filter thread started for segment 5
[22:41:30] decomb filter thread started for segment 6
[22:41:30] decomb filter thread started for segment 7
[22:41:30] decomb check thread started for segment 0
[22:41:30] decomb check thread started for segment 1
[22:41:30] decomb check thread started for segment 2
[22:41:30] decomb check thread started for segment 3
[22:41:30] decomb check thread started for segment 4
[22:41:30] decomb check thread started for segment 5
[22:41:30] decomb check thread started for segment 6
[22:41:30] decomb check thread started for segment 7
[22:41:30] mask filter thread started for segment 0
[22:41:30] mask filter thread started for segment 1
[22:41:30] mask filter thread started for segment 2
[22:41:30] mask filter thread started for segment 3
[22:41:30] mask filter thread started for segment 4
[22:41:30] mask filter thread started for segment 5
[22:41:30] mask filter thread started for segment 6
[22:41:30] mask filter thread started for segment 7
[22:41:30] mask erode thread started for segment 0
[22:41:30] mask erode thread started for segment 1
[22:41:30] mask erode thread started for segment 2
[22:41:30] mask erode thread started for segment 3
[22:41:30] mask erode thread started for segment 4
[22:41:30] mask erode thread started for segment 5
[22:41:30] mask erode thread started for segment 6
[22:41:30] mask erode thread started for segment 7
[22:41:30] mask dilate thread started for segment 0
[22:41:30] mask dilate thread started for segment 1
[22:41:30] mask dilate thread started for segment 2
[22:41:30] mask dilate thread started for segment 3
[22:41:30] mask dilate thread started for segment 4
[22:41:30] mask dilate thread started for segment 5
[22:41:30] mask dilate thread started for segment 6
[22:41:30] mask dilate thread started for segment 7
[22:41:30] yadif thread started for segment 0
[22:41:30] yadif thread started for segment 1
[22:41:30] yadif thread started for segment 2
[22:41:30] yadif thread started for segment 3
[22:41:30] yadif thread started for segment 4
[22:41:30] yadif thread started for segment 5
[22:41:30] yadif thread started for segment 6
[22:41:30] yadif thread started for segment 7
[22:41:30] job configuration:
[22:41:30] * source
[22:41:30] + /Users/wileywesson/Movies/_MKV/War_for_the_Planet_of_the_Apes_t00.mkv
[22:41:30] + title 1, chapter(s) 1 to 28
[22:41:30] + container: matroska,webm
[22:41:30] * destination
[22:41:30] + /Volumes/Movies/War for the Planet of the Apes t001.mp4
[22:41:30] + container: MPEG-4 (libavformat)
[22:41:30] + chapter markers
[22:41:30] * video track
[22:41:30] + decoder: h264
[22:41:30] + filters
[22:41:30] + Comb Detect (mode=3:spatial-metric=2:motion-thresh=1:spatial-thresh=1:filter-mode=2:block-thresh=40:block-width=16:block-height=16)
[22:41:30] + Decomb (mode=39)
[22:41:30] + Framerate Shaper (mode=2:rate=27000000/900000)
[22:41:30] + frame rate: 23.976 fps -> peak rate limited to 30.000 fps
[22:41:30] + Subtitle renderer ()
[22:41:30] + Crop and Scale (width=1920:height=800:crop-top=140:crop-bottom=140:crop-left=0:crop-right=0)
[22:41:30] + source: 1920 * 1080, crop (140/140/0/0): 1920 * 800, scale: 1920 * 800
[22:41:30] + Output geometry
[22:41:30] + storage dimensions: 1920 x 800
[22:41:30] + pixel aspect ratio: 1 : 1
[22:41:30] + display dimensions: 1920 x 800
[22:41:30] + encoder: H.264 (libx264)
[22:41:30] + preset: fast
[22:41:30] + profile: main
[22:41:30] + level: 4.0
[22:41:30] + quality: 22.00 (RF)
[22:41:30] * subtitle track 1, English (track 4, id 0x4) Picture [PGS] -> Render/Burn-in, Forced Only
[22:41:30] * audio track 1
[22:41:30] + decoder: English (DTS) (5.1 ch) (track 1, id 0x1)
[22:41:30] + bitrate: 1536 kbps, samplerate: 48000 Hz
[22:41:30] + mixdown: Dolby Pro Logic II
[22:41:30] + encoder: AAC (Apple AudioToolbox)
[22:41:30] + bitrate: 160 kbps, samplerate: 48000 Hz
[22:41:30] sync: expecting 201621 video frames
[22:41:30] encx264: min-keyint: 24, keyint: 240
[22:41:30] encx264: encoding at constant RF 22.000000
[22:41:30] encx264: unparsed options: level=4.0:vbv-maxrate=20000:8x8dct=0:ref=2:weightp=1:subme=6:vbv-bufsize=25000:rc-lookahead=30
x264 [info]: using SAR=1/1
x264 [info]: using cpu capabilities: MMX2 SSE2Fast SSSE3 SSE4.2 AVX
x264 [info]: profile Main, level 4.0
[22:41:30] sync: first pts video is 0
[22:41:30] sync: "Chapter 1" (1) at frame 1 time 0
[22:41:30] sync: first pts audio 0x1 is 0
[22:42:03] macgui: trying to open a folder or file
[22:42:03] macgui: ScanCore scanning titles with a duration of 10 seconds or more
[22:42:03] CPU: Intel(R) Core(TM) i7-3615QM CPU @ 2.30GHz
[22:42:03] - Intel microarchitecture Ivy Bridge
[22:42:03] - logical processor count: 8
[22:42:03] hb_scan: path=/Users/wileywesson/Movies/_MKV/Dark_Tower,_The_(2017)_t01.mkv, title_index=0
udfread ERROR: ECMA 167 Volume Recognition failed
disc.c:274: failed opening UDF image /Users/wileywesson/Movies/_MKV/Dark_Tower,_The_(2017)_t01.mkv
disc.c:352: error opening file BDMV/index.bdmv
disc.c:352: error opening file BDMV/BACKUP/index.bdmv
[22:42:03] bd: not a bd - trying as a stream/file instead
libdvdnav: Using dvdnav version 5.0.1
libdvdread: Encrypted DVD support unavailable.
libdvdread:DVDOpenFileUDF:UDFFindFile /VIDEO_TS/VIDEO_TS.IFO failed
libdvdread:DVDOpenFileUDF:UDFFindFile /VIDEO_TS/VIDEO_TS.BUP failed
libdvdread: Can't open file VIDEO_TS.IFO.
libdvdnav: vm: failed to read VIDEO_TS.IFO
[22:42:03] dvd: not a dvd - trying as a stream/file instead
Input #0, matroska,webm, from '/Users/wileywesson/Movies/_MKV/Dark_Tower,_The_(2017)_t01.mkv':
Metadata:
title : Dark Tower, The (2017)
Duration: 01:34:44.67, start: 0.000000, bitrate: N/A
Chapter #0:0: start 0.000000, end 351.267583
Metadata:
title : Chapter 01
Chapter #0:1: start 351.267583, end 635.843542
Metadata:
title : Chapter 02
Chapter #0:2: start 635.843542, end 993.617625
Metadata:
title : Chapter 03
Chapter #0:3: start 993.617625, end 1314.896917
Metadata:
title : Chapter 04
Chapter #0:4: start 1314.896917, end 1535.534000
Metadata:
title : Chapter 05
Chapter #0:5: start 1535.534000, end 1861.818292
Metadata:
title : Chapter 06
Chapter #0:6: start 1861.818292, end 2185.016167
Metadata:
title : Chapter 07
Chapter #0:7: start 2185.016167, end 2450.239458
Metadata:
title : Chapter 08
Chapter #0:8: start 2450.239458, end 2762.009250
Metadata:
title : Chapter 09
Chapter #0:9: start 2762.009250, end 3198.403542
Metadata:
title : Chapter 10
Chapter #0:10: start 3198.403542, end 3522.852667
Metadata:
title : Chapter 11
Chapter #0:11: start 3522.852667, end 3831.118958
Metadata:
title : Chapter 12
Chapter #0:12: start 3831.118958, end 4237.650083
Metadata:
title : Chapter 13
Chapter #0:13: start 4237.650083, end 4553.173625
Metadata:
title : Chapter 14
Chapter #0:14: start 4553.173625, end 4875.078542
Metadata:
title : Chapter 15
Chapter #0:15: start 4875.078542, end 5684.679000
Metadata:
title : Chapter 16
Stream #0:0(eng): Video: h264 (High)
yuv420p, 1920x1080 [PAR 1:1 DAR 16:9], PAR 1:1 DAR 16:9
23.98 fps, 1k tbn
Metadata:
BPS-eng : 24826491
DURATION-eng : 01:34:44.679000000
NUMBER_OF_FRAMES-eng: 136296
NUMBER_OF_BYTES-eng: 17641329143
SOURCE_ID-eng : 001011
_STATISTICS_WRITING_APP-eng: MakeMKV v1.10.8 darwin(x64-release)
_STATISTICS_WRITING_DATE_UTC-eng: 2017-12-10 01:24:38
_STATISTICS_TAGS-eng: BPS DURATION NUMBER_OF_FRAMES NUMBER_OF_BYTES SOURCE_ID
Stream #0:1(eng): Audio: dts (DTS)
48000 Hz, 5.1, fltp, 1536 kb/s (default)
Metadata:
title : Surround 5.1
BPS-eng : 1509000
DURATION-eng : 01:34:44.682666666
NUMBER_OF_FRAMES-eng: 532939
NUMBER_OF_BYTES-eng: 1072273268
SOURCE_ID-eng : 001100
_STATISTICS_WRITING_APP-eng: MakeMKV v1.10.8 darwin(x64-release)
_STATISTICS_WRITING_DATE_UTC-eng: 2017-12-10 01:24:38
_STATISTICS_TAGS-eng: BPS DURATION NUMBER_OF_FRAMES NUMBER_OF_BYTES SOURCE_ID
Stream #0:2(eng): Audio: ac3
48000 Hz, 5.1, fltp, 640 kb/s
Metadata:
title : Surround 5.1
BPS-eng : 640000
DURATION-eng : 01:34:44.704000000
NUMBER_OF_FRAMES-eng: 177647
NUMBER_OF_BYTES-eng: 454776320
SOURCE_ID-eng : 001101
_STATISTICS_WRITING_APP-eng: MakeMKV v1.10.8 darwin(x64-release)
_STATISTICS_WRITING_DATE_UTC-eng: 2017-12-10 01:24:38
_STATISTICS_TAGS-eng: BPS DURATION NUMBER_OF_FRAMES NUMBER_OF_BYTES SOURCE_ID
Stream #0:3(eng): Subtitle: hdmv_pgs_subtitle
Metadata:
BPS-eng : 25827
DURATION-eng : 01:33:19.865104166
NUMBER_OF_FRAMES-eng: 2110
NUMBER_OF_BYTES-eng: 18078939
SOURCE_ID-eng : 001200
_STATISTICS_WRITING_APP-eng: MakeMKV v1.10.8 darwin(x64-release)
_STATISTICS_WRITING_DATE_UTC-eng: 2017-12-10 01:24:38
_STATISTICS_TAGS-eng: BPS DURATION NUMBER_OF_FRAMES NUMBER_OF_BYTES SOURCE_ID
Stream #0:4(eng): Subtitle: hdmv_pgs_subtitle
Metadata:
BPS-eng : 24370
DURATION-eng : 01:25:27.893604166
NUMBER_OF_FRAMES-eng: 1782
NUMBER_OF_BYTES-eng: 15621175
SOURCE_ID-eng : 001201
_STATISTICS_WRITING_APP-eng: MakeMKV v1.10.8 darwin(x64-release)
_STATISTICS_WRITING_DATE_UTC-eng: 2017-12-10 01:24:38
_STATISTICS_TAGS-eng: BPS DURATION NUMBER_OF_FRAMES NUMBER_OF_BYTES SOURCE_ID
Stream #0:5(eng): Subtitle: hdmv_pgs_subtitle
Metadata:
BPS-eng : 24382
DURATION-eng : 01:25:27.893604166
NUMBER_OF_FRAMES-eng: 1784
NUMBER_OF_BYTES-eng: 15628603
SOURCE_ID-eng : 001202
_STATISTICS_WRITING_APP-eng: MakeMKV v1.10.8 darwin(x64-release)
_STATISTICS_WRITING_DATE_UTC-eng: 2017-12-10 01:24:38
_STATISTICS_TAGS-eng: BPS DURATION NUMBER_OF_FRAMES NUMBER_OF_BYTES SOURCE_ID
[22:42:03] scan: decoding previews for title 1
[22:42:03] scan: audio 0x1: dca, rate=48000Hz, bitrate=1536000 English (DTS) (5.1 ch)
[22:42:03] scan: audio 0x2: ac3, rate=48000Hz, bitrate=640000 English (AC3) (5.1 ch)
[22:42:08] scan: 10 previews, 1920x1080, 23.976 fps, autocrop = 140/140/0/0, aspect 16:9, PAR 1:1
[22:42:08] libhb: scan thread found 1 valid title(s)
[22:42:08] macgui: ScanCore scan done
[22:59:55] sync: "Chapter 2" (2) at frame 7335 time 27530002
[23:18:28] sync: "Chapter 3" (3) at frame 13109 time 49204155
[23:20:38] sync: first pts subtitle 0x4 is 51985710
[23:29:51] sync: "Chapter 4" (4) at frame 17605 time 66081015
[23:53:35] sync: "Chapter 5" (5) at frame 26399 time 99091492
[00:18:26] sync: "Chapter 6" (6) at frame 36073 time 135405270
[00:38:21] sync: "Chapter 7" (7) at frame 43575 time 163565902
[00:52:09] sync: "Chapter 8" (8) at frame 49226 time 184778343
[01:05:09] sync: "Chapter 9" (9) at frame 54341 time 203978775
[01:25:29] sync: "Chapter 10" (10) at frame 61726 time 231700218
[01:48:24] sync: "Chapter 11" (11) at frame 71256 time 267473456
[02:01:56] sync: "Chapter 12" (12) at frame 78037 time 292927635
[02:17:59] sync: "Chapter 13" (13) at frame 84632 time 317683616
[02:37:24] sync: "Chapter 14" (14) at frame 94086 time 353171568
[02:51:07] sync: "Chapter 15" (15) at frame 101141 time 379654275
[03:04:03] sync: "Chapter 16" (16) at frame 107745 time 404444040
[03:14:08] sync: "Chapter 17" (17) at frame 113628 time 426527351
[03:29:10] sync: "Chapter 18" (18) at frame 123136 time 462218006
[03:39:21] sync: "Chapter 19" (19) at frame 128929 time 483963480
[03:52:09] sync: "Chapter 20" (20) at frame 135773 time 509654145
[04:06:44] sync: "Chapter 21" (21) at frame 143083 time 537094057
[04:18:36] sync: "Chapter 22" (22) at frame 149329 time 560539980
[04:31:31] sync: "Chapter 23" (23) at frame 156454 time 587285448
[04:48:20] sync: "Chapter 24" (24) at frame 165931 time 622859737
[04:54:47] sync: "Chapter 25" (25) at frame 169864 time 637623236
[05:08:01] sync: "Chapter 26" (26) at frame 176319 time 661853692
[05:18:05] sync: "Chapter 27" (27) at frame 181137 time 679939260
[05:35:30] sync: "Chapter 28" (28) at frame 191121 time 717416700
[05:46:21] reader: done. 1 scr changes
[05:46:25] work: average encoding speed for job is 7.907159 fps
[05:46:25] comb detect: heavy 453 | light 2586 | uncombed 198582 | total 201621
[05:46:25] decomb: deinterlaced 453 | blended 2586 | unfiltered 198582 | total 201621
[05:46:25] vfr: 201621 frames output, 0 dropped and 0 duped for CFR/PFR
[05:46:25] vfr: lost time: 0 (0 frames)
[05:46:25] vfr: gained time: 0 (0 frames) (0 not accounted for)
[05:46:25] dca-decoder done: 788370 frames, 0 decoder errors
[05:46:25] h264-decoder done: 201621 frames, 0 decoder errors
[05:46:25] sync: got 201621 frames, 201621 expected
[05:46:25] sync: framerate min 23.981 fps, max 23.981 fps, avg 23.976 fps
x264 [info]: frame I:2003 Avg QP:17.78 size:106477
x264 [info]: frame P:57683 Avg QP:20.92 size: 22434
x264 [info]: frame B:141935 Avg QP:22.60 size: 7212
x264 [info]: consecutive B-frames: 5.3% 1.3% 3.9% 89.5%
x264 [info]: mb I I16..4: 39.8% 0.0% 60.2%
x264 [info]: mb P I16..4: 5.1% 0.0% 3.8% P16..4: 38.7% 11.6% 7.8% 0.0% 0.0% skip:33.0%
x264 [info]: mb B I16..4: 4.2% 0.0% 0.5% B16..8: 21.2% 3.7% 0.2% direct:12.8% skip:57.2% L0:42.3% L1:50.6% BI: 7.1%
x264 [info]: coded y,uvDC,uvAC intra: 31.5% 62.1% 19.9% inter: 8.2% 21.8% 0.5%
x264 [info]: i16 v,h,dc,p: 39% 21% 19% 21%
x264 [info]: i4 v,h,dc,ddl,ddr,vr,hd,vl,hu: 21% 18% 22% 7% 8% 7% 7% 6% 5%
x264 [info]: i8c dc,h,v,p: 60% 16% 19% 4%
x264 [info]: Weighted P-Frames: Y:4.6% UV:2.2%
x264 [info]: ref P L0: 67.9% 32.1%
x264 [info]: ref B L0: 82.6% 17.4%
x264 [info]: ref B L1: 95.0% 5.0%
x264 [info]: kb/s:2407.77
[05:46:26] mux: track 0, 201621 frames, 2530878849 bytes, 2407.68 kbps, fifo 8192
[05:46:26] mux: track 1, 394186 frames, 172849553 bytes, 164.44 kbps, fifo 16384
[05:46:26] libhb: work result = 0


HandBrake Activity Log for Session: 2017-12-10 05:46:26 -0800
Handbrake Version: 1.0.7 (2017040900)
Dark Tower, The (2017) t011.mp4
Preset: Fast 1080p30
[05:46:26] macgui: QueueCore work done
[05:46:26] macgui: QueueCore scanning specifically for title: 1
[05:46:26] CPU: Intel(R) Core(TM) i7-3615QM CPU @ 2.30GHz
[05:46:26] - Intel microarchitecture Ivy Bridge
[05:46:26] - logical processor count: 8
[05:46:26] hb_scan: path=/Users/wileywesson/Movies/_MKV/Dark_Tower,_The_(2017)_t01.mkv, title_index=1
udfread ERROR: ECMA 167 Volume Recognition failed
disc.c:274: failed opening UDF image /Users/wileywesson/Movies/_MKV/Dark_Tower,_The_(2017)_t01.mkv
disc.c:352: error opening file BDMV/index.bdmv
disc.c:352: error opening file BDMV/BACKUP/index.bdmv
[05:46:26] bd: not a bd - trying as a stream/file instead
libdvdnav: Using dvdnav version 5.0.1
libdvdread: Encrypted DVD support unavailable.
libdvdread:DVDOpenFileUDF:UDFFindFile /VIDEO_TS/VIDEO_TS.IFO failed
libdvdread:DVDOpenFileUDF:UDFFindFile /VIDEO_TS/VIDEO_TS.BUP failed
libdvdread: Can't open file VIDEO_TS.IFO.
libdvdnav: vm: failed to read VIDEO_TS.IFO
[05:46:26] dvd: not a dvd - trying as a stream/file instead
Input #0, matroska,webm, from '/Users/wileywesson/Movies/_MKV/Dark_Tower,_The_(2017)_t01.mkv':
Metadata:
title : Dark Tower, The (2017)
Duration: 01:34:44.67, start: 0.000000, bitrate: N/A
Chapter #0:0: start 0.000000, end 351.267583
Metadata:
title : Chapter 01
Chapter #0:1: start 351.267583, end 635.843542
Metadata:
title : Chapter 02
Chapter #0:2: start 635.843542, end 993.617625
Metadata:
title : Chapter 03
Chapter #0:3: start 993.617625, end 1314.896917
Metadata:
title : Chapter 04
Chapter #0:4: start 1314.896917, end 1535.534000
Metadata:
title : Chapter 05
Chapter #0:5: start 1535.534000, end 1861.818292
Metadata:
title : Chapter 06
Chapter #0:6: start 1861.818292, end 2185.016167
Metadata:
title : Chapter 07
Chapter #0:7: start 2185.016167, end 2450.239458
Metadata:
title : Chapter 08
Chapter #0:8: start 2450.239458, end 2762.009250
Metadata:
title : Chapter 09
Chapter #0:9: start 2762.009250, end 3198.403542
Metadata:
title : Chapter 10
Chapter #0:10: start 3198.403542, end 3522.852667
Metadata:
title : Chapter 11
Chapter #0:11: start 3522.852667, end 3831.118958
Metadata:
title : Chapter 12
Chapter #0:12: start 3831.118958, end 4237.650083
Metadata:
title : Chapter 13
Chapter #0:13: start 4237.650083, end 4553.173625
Metadata:
title : Chapter 14
Chapter #0:14: start 4553.173625, end 4875.078542
Metadata:
title : Chapter 15
Chapter #0:15: start 4875.078542, end 5684.679000
Metadata:
title : Chapter 16
Stream #0:0(eng): Video: h264 (High)
yuv420p, 1920x1080 [PAR 1:1 DAR 16:9], PAR 1:1 DAR 16:9
23.98 fps, 1k tbn
Metadata:
BPS-eng : 24826491
DURATION-eng : 01:34:44.679000000
NUMBER_OF_FRAMES-eng: 136296
NUMBER_OF_BYTES-eng: 17641329143
SOURCE_ID-eng : 001011
_STATISTICS_WRITING_APP-eng: MakeMKV v1.10.8 darwin(x64-release)
_STATISTICS_WRITING_DATE_UTC-eng: 2017-12-10 01:24:38
_STATISTICS_TAGS-eng: BPS DURATION NUMBER_OF_FRAMES NUMBER_OF_BYTES SOURCE_ID
Stream #0:1(eng): Audio: dts (DTS)
48000 Hz, 5.1, fltp, 1536 kb/s (default)
Metadata:
title : Surround 5.1
BPS-eng : 1509000
DURATION-eng : 01:34:44.682666666
NUMBER_OF_FRAMES-eng: 532939
NUMBER_OF_BYTES-eng: 1072273268
SOURCE_ID-eng : 001100
_STATISTICS_WRITING_APP-eng: MakeMKV v1.10.8 darwin(x64-release)
_STATISTICS_WRITING_DATE_UTC-eng: 2017-12-10 01:24:38
_STATISTICS_TAGS-eng: BPS DURATION NUMBER_OF_FRAMES NUMBER_OF_BYTES SOURCE_ID
Stream #0:2(eng): Audio: ac3
48000 Hz, 5.1, fltp, 640 kb/s
Metadata:
title : Surround 5.1
BPS-eng : 640000
DURATION-eng : 01:34:44.704000000
NUMBER_OF_FRAMES-eng: 177647
NUMBER_OF_BYTES-eng: 454776320
SOURCE_ID-eng : 001101
_STATISTICS_WRITING_APP-eng: MakeMKV v1.10.8 darwin(x64-release)
_STATISTICS_WRITING_DATE_UTC-eng: 2017-12-10 01:24:38
_STATISTICS_TAGS-eng: BPS DURATION NUMBER_OF_FRAMES NUMBER_OF_BYTES SOURCE_ID
Stream #0:3(eng): Subtitle: hdmv_pgs_subtitle
Metadata:
BPS-eng : 25827
DURATION-eng : 01:33:19.865104166
NUMBER_OF_FRAMES-eng: 2110
NUMBER_OF_BYTES-eng: 18078939
SOURCE_ID-eng : 001200
_STATISTICS_WRITING_APP-eng: MakeMKV v1.10.8 darwin(x64-release)
_STATISTICS_WRITING_DATE_UTC-eng: 2017-12-10 01:24:38
_STATISTICS_TAGS-eng: BPS DURATION NUMBER_OF_FRAMES NUMBER_OF_BYTES SOURCE_ID
Stream #0:4(eng): Subtitle: hdmv_pgs_subtitle
Metadata:
BPS-eng : 24370
DURATION-eng : 01:25:27.893604166
NUMBER_OF_FRAMES-eng: 1782
NUMBER_OF_BYTES-eng: 15621175
SOURCE_ID-eng : 001201
_STATISTICS_WRITING_APP-eng: MakeMKV v1.10.8 darwin(x64-release)
_STATISTICS_WRITING_DATE_UTC-eng: 2017-12-10 01:24:38
_STATISTICS_TAGS-eng: BPS DURATION NUMBER_OF_FRAMES NUMBER_OF_BYTES SOURCE_ID
Stream #0:5(eng): Subtitle: hdmv_pgs_subtitle
Metadata:
BPS-eng : 24382
DURATION-eng : 01:25:27.893604166
NUMBER_OF_FRAMES-eng: 1784
NUMBER_OF_BYTES-eng: 15628603
SOURCE_ID-eng : 001202
_STATISTICS_WRITING_APP-eng: MakeMKV v1.10.8 darwin(x64-release)
_STATISTICS_WRITING_DATE_UTC-eng: 2017-12-10 01:24:38
_STATISTICS_TAGS-eng: BPS DURATION NUMBER_OF_FRAMES NUMBER_OF_BYTES SOURCE_ID
[05:46:26] scan: decoding previews for title 1
[05:46:26] scan: audio 0x1: dca, rate=48000Hz, bitrate=1536000 English (DTS) (5.1 ch)
[05:46:26] scan: audio 0x2: ac3, rate=48000Hz, bitrate=640000 English (AC3) (5.1 ch)
[05:46:30] scan: 10 previews, 1920x1080, 23.976 fps, autocrop = 140/140/0/0, aspect 16:9, PAR 1:1
[05:46:30] libhb: scan thread found 1 valid title(s)
[05:46:30] macgui: QueueCore scan done
[05:46:30] macgui: QueueCore started encoding Dark Tower, The (2017) t011.mp4
[05:46:30] macgui: QueueCore with preset Fast 1080p30
[05:46:30] 1 job(s) to process
[05:46:30] starting job
[05:46:30] decomb filter thread started for segment 0
[05:46:30] decomb filter thread started for segment 1
[05:46:30] decomb filter thread started for segment 2
[05:46:30] decomb filter thread started for segment 3
[05:46:30] decomb filter thread started for segment 4
[05:46:30] decomb filter thread started for segment 5
[05:46:30] decomb filter thread started for segment 6
[05:46:30] decomb filter thread started for segment 7
[05:46:30] decomb check thread started for segment 0
[05:46:30] decomb check thread started for segment 1
[05:46:30] decomb check thread started for segment 2
[05:46:30] decomb check thread started for segment 3
[05:46:30] decomb check thread started for segment 4
[05:46:30] decomb check thread started for segment 5
[05:46:30] decomb check thread started for segment 6
[05:46:30] decomb check thread started for segment 7
[05:46:30] mask filter thread started for segment 0
[05:46:30] mask filter thread started for segment 1
[05:46:30] mask filter thread started for segment 2
[05:46:30] mask filter thread started for segment 3
[05:46:30] mask filter thread started for segment 4
[05:46:30] mask filter thread started for segment 5
[05:46:30] mask filter thread started for segment 6
[05:46:30] mask filter thread started for segment 7
[05:46:30] mask erode thread started for segment 0
[05:46:30] mask erode thread started for segment 1
[05:46:30] mask erode thread started for segment 2
[05:46:30] mask erode thread started for segment 3
[05:46:30] mask erode thread started for segment 4
[05:46:30] mask erode thread started for segment 5
[05:46:30] mask erode thread started for segment 6
[05:46:30] mask erode thread started for segment 7
[05:46:30] mask dilate thread started for segment 0
[05:46:30] mask dilate thread started for segment 1
[05:46:30] mask dilate thread started for segment 2
[05:46:30] mask dilate thread started for segment 3
[05:46:30] mask dilate thread started for segment 4
[05:46:30] mask dilate thread started for segment 5
[05:46:30] mask dilate thread started for segment 6
[05:46:30] mask dilate thread started for segment 7
[05:46:30] yadif thread started for segment 0
[05:46:30] yadif thread started for segment 1
[05:46:30] yadif thread started for segment 2
[05:46:30] yadif thread started for segment 3
[05:46:30] yadif thread started for segment 4
[05:46:30] yadif thread started for segment 5
[05:46:30] yadif thread started for segment 6
[05:46:30] yadif thread started for segment 7
[05:46:30] job configuration:
[05:46:30] * source
[05:46:30] + /Users/wileywesson/Movies/_MKV/Dark_Tower,_The_(2017)_t01.mkv
[05:46:30] + title 1, chapter(s) 1 to 16
[05:46:30] + container: matroska,webm
[05:46:30] * destination
[05:46:30] + /Volumes/Movies/Dark Tower, The (2017) t011.mp4
[05:46:30] + container: MPEG-4 (libavformat)
[05:46:30] + chapter markers
[05:46:30] * video track
[05:46:30] + decoder: h264
[05:46:30] + filters
[05:46:30] + Comb Detect (mode=3:spatial-metric=2:motion-thresh=1:spatial-thresh=1:filter-mode=2:block-thresh=40:block-width=16:block-height=16)
[05:46:30] + Decomb (mode=39)
[05:46:30] + Framerate Shaper (mode=2:rate=27000000/900000)
[05:46:30] + frame rate: 23.976 fps -> peak rate limited to 30.000 fps
[05:46:30] + Crop and Scale (width=1920:height=800:crop-top=140:crop-bottom=140:crop-left=0:crop-right=0)
[05:46:30] + source: 1920 * 1080, crop (140/140/0/0): 1920 * 800, scale: 1920 * 800
[05:46:30] + Output geometry
[05:46:30] + storage dimensions: 1920 x 800
[05:46:30] + pixel aspect ratio: 1 : 1
[05:46:30] + display dimensions: 1920 x 800
[05:46:30] * Foreign Audio Search: Render/Burn-in, Forced Only
[05:46:30] + subtitle, English (track 3, id 0x3) Picture [PGS]
[05:46:30] + subtitle, English (track 4, id 0x4) Picture [PGS]
[05:46:30] + subtitle, English (track 5, id 0x5) Picture [PGS]
[05:46:30] sync: expecting 136296 video frames
[05:47:13] reader: done. 1 scr changes
[05:47:13] work: average encoding speed for job is 0.000000 fps
[05:47:13] comb detect: heavy 0 | light 0 | uncombed 0 | total 0
[05:47:13] decomb: deinterlaced 0 | blended 0 | unfiltered 0 | total 0
[05:47:13] vfr: 0 frames output, 0 dropped and 0 duped for CFR/PFR
[05:47:13] vfr: lost time: 0 (0 frames)
[05:47:13] vfr: gained time: 0 (0 frames) (0 not accounted for)
[05:47:13] h264-decoder done: 0 frames, 0 decoder errors
[05:47:13] sync: got 0 frames, 136296 expected
[05:47:13] Subtitle track 3 (id 0x3) 'English': 1055 hits (0 forced)
[05:47:13] Subtitle track 4 (id 0x4) 'English': 891 hits (0 forced)
[05:47:13] Subtitle track 5 (id 0x5) 'English': 892 hits (0 forced)
[05:47:13] No candidate detected during subtitle scan
[05:47:13] starting job
[05:47:13] decomb filter thread started for segment 0
[05:47:13] decomb filter thread started for segment 1
[05:47:13] decomb filter thread started for segment 2
[05:47:13] decomb filter thread started for segment 3
[05:47:13] decomb filter thread started for segment 4
[05:47:13] decomb filter thread started for segment 5
[05:47:13] decomb filter thread started for segment 6
[05:47:13] decomb filter thread started for segment 7
[05:47:13] decomb check thread started for segment 0
[05:47:13] decomb check thread started for segment 1
[05:47:13] decomb check thread started for segment 2
[05:47:13] decomb check thread started for segment 3
[05:47:13] decomb check thread started for segment 4
[05:47:13] decomb check thread started for segment 5
[05:47:13] decomb check thread started for segment 6
[05:47:13] decomb check thread started for segment 7
[05:47:13] mask filter thread started for segment 0
[05:47:13] mask filter thread started for segment 1
[05:47:13] mask filter thread started for segment 2
[05:47:13] mask filter thread started for segment 3
[05:47:13] mask filter thread started for segment 4
[05:47:13] mask filter thread started for segment 5
[05:47:13] mask filter thread started for segment 6
[05:47:13] mask filter thread started for segment 7
[05:47:13] mask erode thread started for segment 0
[05:47:13] mask erode thread started for segment 1
[05:47:13] mask erode thread started for segment 2
[05:47:13] mask erode thread started for segment 3
[05:47:13] mask erode thread started for segment 4
[05:47:13] mask erode thread started for segment 5
[05:47:13] mask erode thread started for segment 6
[05:47:13] mask erode thread started for segment 7
[05:47:13] mask dilate thread started for segment 0
[05:47:13] mask dilate thread started for segment 1
[05:47:13] mask dilate thread started for segment 2
[05:47:13] mask dilate thread started for segment 3
[05:47:13] mask dilate thread started for segment 4
[05:47:13] mask dilate thread started for segment 5
[05:47:13] mask dilate thread started for segment 6
[05:47:13] mask dilate thread started for segment 7
[05:47:13] yadif thread started for segment 0
[05:47:13] yadif thread started for segment 1
[05:47:13] yadif thread started for segment 2
[05:47:13] yadif thread started for segment 3
[05:47:13] yadif thread started for segment 4
[05:47:13] yadif thread started for segment 5
[05:47:13] yadif thread started for segment 6
[05:47:13] yadif thread started for segment 7
[05:47:13] job configuration:
[05:47:13] * source
[05:47:13] + /Users/wileywesson/Movies/_MKV/Dark_Tower,_The_(2017)_t01.mkv
[05:47:13] + title 1, chapter(s) 1 to 16
[05:47:13] + container: matroska,webm
[05:47:13] * destination
[05:47:13] + /Volumes/Movies/Dark Tower, The (2017) t011.mp4
[05:47:13] + container: MPEG-4 (libavformat)
[05:47:13] + chapter markers
[05:47:13] * video track
[05:47:13] + decoder: h264
[05:47:13] + filters
[05:47:13] + Comb Detect (mode=3:spatial-metric=2:motion-thresh=1:spatial-thresh=1:filter-mode=2:block-thresh=40:block-width=16:block-height=16)
[05:47:13] + Decomb (mode=39)
[05:47:13] + Framerate Shaper (mode=2:rate=27000000/900000)
[05:47:13] + frame rate: 23.976 fps -> peak rate limited to 30.000 fps
[05:47:13] + Crop and Scale (width=1920:height=800:crop-top=140:crop-bottom=140:crop-left=0:crop-right=0)
[05:47:13] + source: 1920 * 1080, crop (140/140/0/0): 1920 * 800, scale: 1920 * 800
[05:47:13] + Output geometry
[05:47:13] + storage dimensions: 1920 x 800
[05:47:13] + pixel aspect ratio: 1 : 1
[05:47:13] + display dimensions: 1920 x 800
[05:47:13] + encoder: H.264 (libx264)
[05:47:13] + preset: fast
[05:47:13] + profile: main
[05:47:13] + level: 4.0
[05:47:13] + quality: 22.00 (RF)
[05:47:13] * audio track 1
[05:47:13] + decoder: English (DTS) (5.1 ch) (track 1, id 0x1)
[05:47:13] + bitrate: 1536 kbps, samplerate: 48000 Hz
[05:47:13] + mixdown: Dolby Pro Logic II
[05:47:13] + encoder: AAC (Apple AudioToolbox)
[05:47:13] + bitrate: 160 kbps, samplerate: 48000 Hz
[05:47:13] sync: expecting 136296 video frames
[05:47:13] encx264: min-keyint: 24, keyint: 240
[05:47:13] encx264: encoding at constant RF 22.000000
[05:47:13] encx264: unparsed options: level=4.0:vbv-maxrate=20000:8x8dct=0:ref=2:weightp=1:subme=6:vbv-bufsize=25000:rc-lookahead=30
x264 [info]: using SAR=1/1
x264 [info]: using cpu capabilities: MMX2 SSE2Fast SSSE3 SSE4.2 AVX
x264 [info]: profile Main, level 4.0
[05:47:14] sync: first pts video is 0
[05:47:14] sync: "Chapter 1" (1) at frame 1 time 0
[05:47:14] sync: first pts audio 0x1 is 0
[06:02:30] sync: "Chapter 2" (2) at frame 8423 time 31614082
[06:15:34] sync: "Chapter 3" (3) at frame 15246 time 57225918
[06:33:40] sync: "Chapter 4" (4) at frame 23824 time 89425586
[06:50:26] sync: "Chapter 5" (5) at frame 31527 time 118340722
[07:00:47] sync: "Chapter 6" (6) at frame 36817 time 138198060
[07:14:40] sync: "Chapter 7" (7) at frame 44642 time 167571153
[07:29:46] sync: "Chapter 8" (8) at frame 52391 time 196658962
[07:40:32] sync: "Chapter 9" (9) at frame 58750 time 220529058
[07:53:59] sync: "Chapter 10" (10) at frame 66225 time 248588340
[08:11:27] sync: "Chapter 11" (11) at frame 76686 time 287856318
[08:28:30] sync: "Chapter 12" (12) at frame 84465 time 317056740
[08:43:23] sync: "Chapter 13" (13) at frame 91856 time 344800706
[09:01:34] sync: "Chapter 14" (14) at frame 101605 time 381396015
[09:18:16] sync: "Chapter 15" (15) at frame 109168 time 409785626
[09:51:39] sync: "Chapter 16" (16) at frame 116886 time 438757068
[11:07:21] reader: done. 1 scr changes
[11:07:35] work: average encoding speed for job is 7.093181 fps
[11:07:35] comb detect: heavy 2353 | light 10642 | uncombed 123301 | total 136296
[11:07:35] decomb: deinterlaced 2353 | blended 10642 | unfiltered 123301 | total 136296
[11:07:35] vfr: 136296 frames output, 0 dropped and 0 duped for CFR/PFR
[11:07:35] vfr: lost time: 0 (0 frames)
[11:07:35] vfr: gained time: 0 (0 frames) (0 not accounted for)
[11:07:35] dca-decoder done: 532939 frames, 0 decoder errors
[11:07:35] h264-decoder done: 136296 frames, 0 decoder errors
[11:07:36] sync: got 136296 frames, 136296 expected
[11:07:36] sync: framerate min 23.981 fps, max 23.981 fps, avg 23.976 fps
x264 [info]: frame I:2458 Avg QP:18.83 size: 93606
x264 [info]: frame P:41483 Avg QP:22.09 size: 24540
x264 [info]: frame B:92355 Avg QP:23.29 size: 8446
x264 [info]: consecutive B-frames: 8.3% 3.0% 3.5% 85.3%
x264 [info]: mb I I16..4: 37.1% 0.0% 62.9%
x264 [info]: mb P I16..4: 7.6% 0.0% 6.1% P16..4: 37.2% 10.9% 7.4% 0.0% 0.0% skip:30.7%
x264 [info]: mb B I16..4: 5.0% 0.0% 0.8% B16..8: 22.2% 4.1% 0.2% direct:13.0% skip:54.7% L0:44.1% L1:48.8% BI: 7.1%
x264 [info]: coded y,uvDC,uvAC intra: 39.3% 62.4% 23.2% inter: 9.8% 21.6% 0.6%
x264 [info]: i16 v,h,dc,p: 38% 21% 16% 25%
x264 [info]: i4 v,h,dc,ddl,ddr,vr,hd,vl,hu: 24% 18% 21% 6% 7% 7% 7% 5% 5%
x264 [info]: i8c dc,h,v,p: 57% 17% 20% 6%
x264 [info]: Weighted P-Frames: Y:5.1% UV:3.2%
x264 [info]: ref P L0: 69.6% 30.4%
x264 [info]: ref B L0: 83.9% 16.1%
x264 [info]: ref B L1: 95.0% 5.0%
x264 [info]: kb/s:2854.09
[11:07:37] mux: track 0, 136296 frames, 2027989741 bytes, 2853.95 kbps, fifo 8192
[11:07:37] mux: track 1, 266470 frames, 116732065 bytes, 164.27 kbps, fifo 16384
[11:07:37] libhb: work result = 0
Last edited by wessongroup on Sun Dec 10, 2017 10:33 pm, edited 1 time in total.

Woodstock
Veteran User
Posts: 3153
Joined: Tue Aug 27, 2013 6:39 am

Re: If the CPU consumption can be lowered when encoding videos?

Post by Woodstock » Sun Dec 10, 2017 5:21 pm

If you want fast encodes (as most people do), you will be using all available resources. There are people that have posted here complaining that handbrake didn't use all the resources on their 32-core system, due to limitations in the encoder, or in a particular filter they chose to use.

You're fighting against the flow, here, asking that handbrake be modified to limit the impact on your machines that weren't intended to host processes that use 100% of system resources for extended periods of time. A laptop or mini computer simply doesn't have the cooling capacity.

So, why do manufacturers put powerful CPUs in marginally-cooled packages? Because the average user of those packages needs "spurts" of 100% CPU, and mainly idle along at 10%. Apple is not immune to this - even the iMac, which does a decent enough job on encoding speed, loses its ability to run at 100% for extended periods if you don't clean it periodically.

Until then, you can use the CPU throttling bandaids mentioned to slow things down to what the cooling can handle.

wessongroup
Posts: 3
Joined: Wed Oct 01, 2014 11:07 pm

Re: If the CPU consumption can be lowered when encoding videos?

Post by wessongroup » Wed Jan 03, 2018 1:04 am

Just a follow up on Mac OS Higher Sierria 10.13.2 on a mac mini (late 2012 i7 with 16GB and the os running on 500GB SSD

When back on installed the older Version 0.10.5 x86_64 (2016021100)

Currently doing Pirates of the Caribbean: Dead Men Tell No Tales, Blu ray ... 28.5GB mky > 6.47 mp4 in 47.13:00

Not sure what was happening with the new Version, but, , but I'll settle for this Verion ... It what works for me

Perhaps some one else has run into this problem ... a bit of the thred .. Found the heating problem interesting ... Use to have one of those G4's with the silver face ... always ran hot .. added on "fans" ... what worked best was just leaving the door down ... run much cooler .. didn't bother me, it worked ;)

rollin_eng
Veteran User
Posts: 3129
Joined: Wed May 04, 2011 11:06 pm

Re: If the CPU consumption can be lowered when encoding videos?

Post by rollin_eng » Wed Jan 03, 2018 8:17 am

You are probably using different settings.

Post Reply