HEVC/h.265 encodes not playable on macOS 10.13 High Sierra

HandBrake for Mac support
Forum rules
An Activity Log is required for support requests. Please read How-to get an activity log? for details on how and why this should be provided.
Post Reply
lone_tree
Posts: 75
Joined: Mon May 05, 2008 10:23 pm

HEVC/h.265 encodes not playable on macOS 10.13 High Sierra

Post by lone_tree » Wed Jun 14, 2017 6:42 pm

Please detail your question or problem in as much detail as possible:

I'm trying to encode an MKV (ripped from a 1080p Blu-ray) with h.265 (main profile/auto level as suggested by Apple) but the resulting file will not play on macOS 10.13, while sample content I've found online encoded with h.265 plays back just fine.

Sample videos from https://x265.com/hevc-video-files/ and https://mango.blender.org/download/ play fine on macOS 10.13.

I've previously encoded this MKV in h.264 with no problems.

Tell us about your environment. What version of HandBrake? What version of OSX are you running. etc.

Encoding in: macOS 10.12.5, HB Version 1.0.7 (2017040900)
Attempting playback in: macOS 10.13 beta 1

If there was any exception or error displayed, please copy it and paste it here:

No exception or error.

Please include the scan or encode log:

Code: Select all

 [12:10:28] macgui: Handbrake Version: 1.0.7  (2017040900)
[12:10:28] hb_init: starting libhb thread
[12:10:28] hb_init: starting libhb thread
[12:10:34] macgui: trying to open a folder or file
[12:10:34] macgui: ScanCore scanning titles with a duration of 10 seconds or more
[12:10:34] CPU: Intel(R) Core(TM) i5-6267U CPU @ 2.90GHz
[12:10:34]  - Intel microarchitecture Skylake
[12:10:34]  - logical processor count: 4
[12:10:34] hb_scan: path=/Users/dane/Downloads/Fellowship.mkv, title_index=0
udfread ERROR: ECMA 167 Volume Recognition failed
disc.c:274: failed opening UDF image /Users/dane/Downloads/Fellowship.mkv
disc.c:352: error opening file BDMV/index.bdmv
disc.c:352: error opening file BDMV/BACKUP/index.bdmv
[12:10:34] bd: not a bd - trying as a stream/file instead
libdvdnav: Using dvdnav version 5.0.1
libdvdread: Encrypted DVD support unavailable.
libdvdread:DVDOpenFileUDF:UDFFindFile /VIDEO_TS/VIDEO_TS.IFO failed
libdvdread:DVDOpenFileUDF:UDFFindFile /VIDEO_TS/VIDEO_TS.BUP failed
libdvdread: Can't open file VIDEO_TS.IFO.
libdvdnav: vm: failed to read VIDEO_TS.IFO
[12:10:34] dvd: not a dvd - trying as a stream/file instead
Input #0, matroska,webm, from '/Users/dane/Downloads/Fellowship.mkv':
  Metadata:
    title           : THE LORD OF THE RINGS: THE FELLOWSHIP OF THE RING (EXT.) PT. 1
  Duration: 03:48:18.81, start: 0.000000, bitrate: N/A
    Chapter #0:0: start 0.000000, end 456.789667
    Metadata:
      title           : Chapter 01
    Chapter #0:1: start 456.789667, end 635.551583
    Metadata:
      title           : Chapter 02
    Chapter #0:2: start 635.551583, end 939.813875
    Metadata:
      title           : Chapter 03
    Chapter #0:3: start 939.813875, end 1198.447250
    Metadata:
      title           : Chapter 04
    Chapter #0:4: start 1198.447250, end 1532.572708
    Metadata:
      title           : Chapter 05
    Chapter #0:5: start 1532.572708, end 1797.337208
    Metadata:
      title           : Chapter 06
    Chapter #0:6: start 1797.337208, end 1930.637042
    Metadata:
      title           : Chapter 07
    Chapter #0:7: start 1930.637042, end 2091.756333
    Metadata:
      title           : Chapter 08
    Chapter #0:8: start 2091.756333, end 2178.176000
    Metadata:
      title           : Chapter 09
    Chapter #0:9: start 2178.176000, end 2704.118083
    Metadata:
      title           : Chapter 10
    Chapter #0:10: start 2704.118083, end 2804.259792
    Metadata:
      title           : Chapter 11
    Chapter #0:11: start 2804.259792, end 3081.161417
    Metadata:
      title           : Chapter 12
    Chapter #0:12: start 3081.161417, end 3312.392417
    Metadata:
      title           : Chapter 13
    Chapter #0:13: start 3312.392417, end 3450.029917
    Metadata:
      title           : Chapter 14
    Chapter #0:14: start 3450.029917, end 3811.474333
    Metadata:
      title           : Chapter 15
    Chapter #0:15: start 3811.474333, end 4036.073708
    Metadata:
      title           : Chapter 16
    Chapter #0:16: start 4036.073708, end 4133.420958
    Metadata:
      title           : Chapter 17
    Chapter #0:17: start 4133.420958, end 4235.898333
    Metadata:
      title           : Chapter 18
    Chapter #0:18: start 4235.898333, end 4515.010500
    Metadata:
      title           : Chapter 19
    Chapter #0:19: start 4515.010500, end 4666.578583
    Metadata:
      title           : Chapter 20
    Chapter #0:20: start 4666.578583, end 5051.546500
    Metadata:
      title           : Chapter 21
    Chapter #0:21: start 5051.546500, end 5172.458958
    Metadata:
      title           : Chapter 22
    Chapter #0:22: start 5172.458958, end 5381.542833
    Metadata:
      title           : Chapter 23
    Chapter #0:23: start 5381.542833, end 5594.297042
    Metadata:
      title           : Chapter 24
    Chapter #0:24: start 5594.297042, end 5754.039958
    Metadata:
      title           : Chapter 25
    Chapter #0:25: start 5754.039958, end 5852.930417
    Metadata:
      title           : Chapter 26
    Chapter #0:26: start 5852.930417, end 6343.420417
    Metadata:
      title           : Chapter 27
    Chapter #0:27: start 6343.420708, end 6419.204750
    Metadata:
      title           : Chapter 01
    Chapter #0:28: start 6419.204750, end 6522.599708
    Metadata:
      title           : Chapter 02
    Chapter #0:29: start 6522.599708, end 6600.010375
    Metadata:
      title           : Chapter 03
    Chapter #0:30: start 6600.010375, end 6785.821000
    Metadata:
      title           : Chapter 04
    Chapter #0:31: start 6785.821000, end 7072.107000
    Metadata:
      title           : Chapter 05
    Chapter #0:32: start 7072.107000, end 7457.325167
    Metadata:
      title           : Chapter 06
    Chapter #0:33: start 7457.325167, end 7847.840292
    Metadata:
      title           : Chapter 07
    Chapter #0:34: start 7847.840292, end 8412.279167
    Metadata:
      title           : Chapter 08
    Chapter #0:35: start 8412.279167, end 8993.735042
    Metadata:
      title           : Chapter 09
    Chapter #0:36: start 8993.735042, end 9186.636083
    Metadata:
      title           : Chapter 10
    Chapter #0:37: start 9186.636083, end 9623.364042
    Metadata:
      title           : Chapter 11
    Chapter #0:38: start 9623.364042, end 9963.370375
    Metadata:
      title           : Chapter 12
    Chapter #0:39: start 9963.370375, end 10064.805042
    Metadata:
      title           : Chapter 13
    Chapter #0:40: start 10064.805042, end 10387.544125
    Metadata:
      title           : Chapter 14
    Chapter #0:41: start 10387.544125, end 10679.794417
    Metadata:
      title           : Chapter 15
    Chapter #0:42: start 10679.794417, end 11067.598500
    Metadata:
      title           : Chapter 16
    Chapter #0:43: start 11067.598500, end 11503.534000
    Metadata:
      title           : Chapter 17
    Chapter #0:44: start 11503.534000, end 11665.821125
    Metadata:
      title           : Chapter 18
    Chapter #0:45: start 11665.821125, end 12044.074000
    Metadata:
      title           : Chapter 19
    Chapter #0:46: start 12044.074000, end 12504.534000
    Metadata:
      title           : Chapter 20
    Chapter #0:47: start 12504.534000, end 13698.812708
    Metadata:
      title           : Chapter 21
    Stream #0:0(eng): Video: h264 (High)
      yuv420p, 1920x1080 [PAR 1:1 DAR 16:9], PAR 1:1 DAR 16:9
      23.98 fps, 1k tbn
    Metadata:
      BPS             : 2990360
      BPS-eng         : 2990360
      DURATION        : 01:45:43.420416666
      DURATION-eng    : 01:45:43.420416666
      NUMBER_OF_FRAMES: 152090
      NUMBER_OF_FRAMES-eng: 152090
      NUMBER_OF_BYTES : 23711389997
      NUMBER_OF_BYTES-eng: 23711389997
      SOURCE_ID       : 001011
      SOURCE_ID-eng   : 001011
      _STATISTICS_WRITING_APP: MakeMKV v1.9.8 darwin(x86-release)
      _STATISTICS_WRITING_APP-eng: MakeMKV v1.9.8 darwin(x86-release)
      _STATISTICS_WRITING_DATE_UTC: 2016-01-08 03:37:49
      _STATISTICS_WRITING_DATE_UTC-eng: 2016-01-08 03:37:49
      _STATISTICS_TAGS: BPS DURATION NUMBER_OF_FRAMES NUMBER_OF_BYTES SOURCE_ID
      _STATISTICS_TAGS-eng: BPS DURATION NUMBER_OF_FRAMES NUMBER_OF_BYTES SOURCE_ID
    Stream #0:1(eng): Audio: dts (DTS-ES)
      48000 Hz, 6.1, fltp, 1536 kb/s (default)
    Metadata:
      title           : Surround 5.1
      BPS             : 150900
      BPS-eng         : 150900
      DURATION        : 01:45:42.336000000
      DURATION-eng    : 01:45:42.336000000
      NUMBER_OF_FRAMES: 594594
      NUMBER_OF_FRAMES-eng: 594594
      NUMBER_OF_BYTES : 1196323128
      NUMBER_OF_BYTES-eng: 1196323128
      SOURCE_ID       : 001100
      SOURCE_ID-eng   : 001100
      _STATISTICS_WRITING_APP: MakeMKV v1.9.8 darwin(x86-release)
      _STATISTICS_WRITING_APP-eng: MakeMKV v1.9.8 darwin(x86-release)
      _STATISTICS_WRITING_DATE_UTC: 2016-01-08 03:37:49
      _STATISTICS_WRITING_DATE_UTC-eng: 2016-01-08 03:37:49
      _STATISTICS_TAGS: BPS DURATION NUMBER_OF_FRAMES NUMBER_OF_BYTES SOURCE_ID
      _STATISTICS_TAGS-eng: BPS DURATION NUMBER_OF_FRAMES NUMBER_OF_BYTES SOURCE_ID
    Stream #0:2(por): Audio: ac3
      48000 Hz, 5.1, fltp, 640 kb/s
    Metadata:
      title           : Surround 5.1
      BPS             : 64000
      BPS-eng         : 64000
      DURATION        : 01:45:42.368000000
      DURATION-eng    : 01:45:42.368000000
      NUMBER_OF_FRAMES: 198199
      NUMBER_OF_FRAMES-eng: 198199
      NUMBER_OF_BYTES : 507389440
      NUMBER_OF_BYTES-eng: 507389440
      SOURCE_ID       : 001101
      SOURCE_ID-eng   : 001101
      _STATISTICS_WRITING_APP: MakeMKV v1.9.8 darwin(x86-release)
      _STATISTICS_WRITING_APP-eng: MakeMKV v1.9.8 darwin(x86-release)
      _STATISTICS_WRITING_DATE_UTC: 2016-01-08 03:37:49
      _STATISTICS_WRITING_DATE_UTC-eng: 2016-01-08 03:37:49
      _STATISTICS_TAGS: BPS DURATION NUMBER_OF_FRAMES NUMBER_OF_BYTES SOURCE_ID
      _STATISTICS_TAGS-eng: BPS DURATION NUMBER_OF_FRAMES NUMBER_OF_BYTES SOURCE_ID
    Stream #0:3(eng): Subtitle: hdmv_pgs_subtitle
    Metadata:
      BPS             : 2554
      BPS-eng         : 2554
      DURATION        : 01:45:05.987187500
      DURATION-eng    : 01:45:05.987187500
      NUMBER_OF_FRAMES: 2190
      NUMBER_OF_FRAMES-eng: 2190
      NUMBER_OF_BYTES : 20134683
      NUMBER_OF_BYTES-eng: 20134683
      SOURCE_ID       : 001200
      SOURCE_ID-eng   : 001200
      _STATISTICS_WRITING_APP: MakeMKV v1.9.8 darwin(x86-release)
      _STATISTICS_WRITING_APP-eng: MakeMKV v1.9.8 darwin(x86-release)
      _STATISTICS_WRITING_DATE_UTC: 2016-01-08 03:37:49
      _STATISTICS_WRITING_DATE_UTC-eng: 2016-01-08 03:37:49
      _STATISTICS_TAGS: BPS DURATION NUMBER_OF_FRAMES NUMBER_OF_BYTES SOURCE_ID
      _STATISTICS_TAGS-eng: BPS DURATION NUMBER_OF_FRAMES NUMBER_OF_BYTES SOURCE_ID
    Stream #0:4(spa): Subtitle: hdmv_pgs_subtitle
    Metadata:
      BPS             : 2362
      BPS-eng         : 2362
      DURATION        : 01:45:02.942479166
      DURATION-eng    : 01:45:02.942479166
      NUMBER_OF_FRAMES: 2060
      NUMBER_OF_FRAMES-eng: 2060
      NUMBER_OF_BYTES : 18609676
      NUMBER_OF_BYTES-eng: 18609676
      SOURCE_ID       : 001201
      SOURCE_ID-eng   : 001201
      _STATISTICS_WRITING_APP: MakeMKV v1.9.8 darwin(x86-release)
      _STATISTICS_WRITING_APP-eng: MakeMKV v1.9.8 darwin(x86-release)
      _STATISTICS_WRITING_DATE_UTC: 2016-01-08 03:37:49
      _STATISTICS_WRITING_DATE_UTC-eng: 2016-01-08 03:37:49
      _STATISTICS_TAGS: BPS DURATION NUMBER_OF_FRAMES NUMBER_OF_BYTES SOURCE_ID
      _STATISTICS_TAGS-eng: BPS DURATION NUMBER_OF_FRAMES NUMBER_OF_BYTES SOURCE_ID
    Stream #0:5(por): Subtitle: hdmv_pgs_subtitle
    Metadata:
      BPS             : 2494
      BPS-eng         : 2494
      DURATION        : 01:45:02.942479166
      DURATION-eng    : 01:45:02.942479166
      NUMBER_OF_FRAMES: 2076
      NUMBER_OF_FRAMES-eng: 2076
      NUMBER_OF_BYTES : 19655219
      NUMBER_OF_BYTES-eng: 19655219
      SOURCE_ID       : 001202
      SOURCE_ID-eng   : 001202
      _STATISTICS_WRITING_APP: MakeMKV v1.9.8 darwin(x86-release)
      _STATISTICS_WRITING_APP-eng: MakeMKV v1.9.8 darwin(x86-release)
      _STATISTICS_WRITING_DATE_UTC: 2016-01-08 03:37:49
      _STATISTICS_WRITING_DATE_UTC-eng: 2016-01-08 03:37:49
      _STATISTICS_TAGS: BPS DURATION NUMBER_OF_FRAMES NUMBER_OF_BYTES SOURCE_ID
      _STATISTICS_TAGS-eng: BPS DURATION NUMBER_OF_FRAMES NUMBER_OF_BYTES SOURCE_ID
    Stream #0:6(eng): Subtitle: hdmv_pgs_subtitle
    Metadata:
      BPS             : 443
      BPS-eng         : 443
      DURATION        : 01:44:43.297854166
      DURATION-eng    : 01:44:43.297854166
      NUMBER_OF_FRAMES: 4114
      NUMBER_OF_FRAMES-eng: 4114
      NUMBER_OF_BYTES : 3484870
      NUMBER_OF_BYTES-eng: 3484870
      SOURCE_ID       : 001203
      SOURCE_ID-eng   : 001203
      _STATISTICS_WRITING_APP: MakeMKV v1.9.8 darwin(x86-release)
      _STATISTICS_WRITING_APP-eng: MakeMKV v1.9.8 darwin(x86-release)
      _STATISTICS_WRITING_DATE_UTC: 2016-01-08 03:37:49
      _STATISTICS_WRITING_DATE_UTC-eng: 2016-01-08 03:37:49
      _STATISTICS_TAGS: BPS DURATION NUMBER_OF_FRAMES NUMBER_OF_BYTES SOURCE_ID
      _STATISTICS_TAGS-eng: BPS DURATION NUMBER_OF_FRAMES NUMBER_OF_BYTES SOURCE_ID
    Stream #0:7(eng): Subtitle: hdmv_pgs_subtitle
    Metadata:
      BPS             : 294
      BPS-eng         : 294
      DURATION        : 01:45:25.965479166
      DURATION-eng    : 01:45:25.965479166
      NUMBER_OF_FRAMES: 2398
      NUMBER_OF_FRAMES-eng: 2398
      NUMBER_OF_BYTES : 2329083
      NUMBER_OF_BYTES-eng: 2329083
      SOURCE_ID       : 001204
      SOURCE_ID-eng   : 001204
      _STATISTICS_WRITING_APP: MakeMKV v1.9.8 darwin(x86-release)
      _STATISTICS_WRITING_APP-eng: MakeMKV v1.9.8 darwin(x86-release)
      _STATISTICS_WRITING_DATE_UTC: 2016-01-08 03:37:49
      _STATISTICS_WRITING_DATE_UTC-eng: 2016-01-08 03:37:49
      _STATISTICS_TAGS: BPS DURATION NUMBER_OF_FRAMES NUMBER_OF_BYTES SOURCE_ID
      _STATISTICS_TAGS-eng: BPS DURATION NUMBER_OF_FRAMES NUMBER_OF_BYTES SOURCE_ID
    Stream #0:8(eng): Subtitle: hdmv_pgs_subtitle
    Metadata:
      BPS             : 515
      BPS-eng         : 515
      DURATION        : 01:45:26.549395833
      DURATION-eng    : 01:45:26.549395833
      NUMBER_OF_FRAMES: 4510
      NUMBER_OF_FRAMES-eng: 4510
      NUMBER_OF_BYTES : 4080278
      NUMBER_OF_BYTES-eng: 4080278
      SOURCE_ID       : 001205
      SOURCE_ID-eng   : 001205
      _STATISTICS_WRITING_APP: MakeMKV v1.9.8 darwin(x86-release)
      _STATISTICS_WRITING_APP-eng: MakeMKV v1.9.8 darwin(x86-release)
      _STATISTICS_WRITING_DATE_UTC: 2016-01-08 03:37:49
      _STATISTICS_WRITING_DATE_UTC-eng: 2016-01-08 03:37:49
      _STATISTICS_TAGS: BPS DURATION NUMBER_OF_FRAMES NUMBER_OF_BYTES SOURCE_ID
      _STATISTICS_TAGS-eng: BPS DURATION NUMBER_OF_FRAMES NUMBER_OF_BYTES SOURCE_ID
    Stream #0:9(eng): Subtitle: hdmv_pgs_subtitle
    Metadata:
      BPS             : 706
      BPS-eng         : 706
      DURATION        : 01:45:10.533395833
      DURATION-eng    : 01:45:10.533395833
      NUMBER_OF_FRAMES: 7912
      NUMBER_OF_FRAMES-eng: 7912
      NUMBER_OF_BYTES : 5576491
      NUMBER_OF_BYTES-eng: 5576491
      SOURCE_ID       : 001206
      SOURCE_ID-eng   : 001206
      _STATISTICS_WRITING_APP: MakeMKV v1.9.8 darwin(x86-release)
      _STATISTICS_WRITING_APP-eng: MakeMKV v1.9.8 darwin(x86-release)
      _STATISTICS_WRITING_DATE_UTC: 2016-01-08 03:37:49
      _STATISTICS_WRITING_DATE_UTC-eng: 2016-01-08 03:37:49
      _STATISTICS_TAGS: BPS DURATION NUMBER_OF_FRAMES NUMBER_OF_BYTES SOURCE_ID
      _STATISTICS_TAGS-eng: BPS DURATION NUMBER_OF_FRAMES NUMBER_OF_BYTES SOURCE_ID
    Stream #0:10(por): Subtitle: hdmv_pgs_subtitle
    Metadata:
      BPS             : 59
      BPS-eng         : 59
      DURATION        : 01:25:08.540937500
      DURATION-eng    : 01:25:08.540937500
      NUMBER_OF_FRAMES: 40
      NUMBER_OF_FRAMES-eng: 40
      NUMBER_OF_BYTES : 379540
      NUMBER_OF_BYTES-eng: 379540
      SOURCE_ID       : 001207
      SOURCE_ID-eng   : 001207
      _STATISTICS_WRITING_APP: MakeMKV v1.9.8 darwin(x86-release)
      _STATISTICS_WRITING_APP-eng: MakeMKV v1.9.8 darwin(x86-release)
      _STATISTICS_WRITING_DATE_UTC: 2016-01-08 03:37:49
      _STATISTICS_WRITING_DATE_UTC-eng: 2016-01-08 03:37:49
      _STATISTICS_TAGS: BPS DURATION NUMBER_OF_FRAMES NUMBER_OF_BYTES SOURCE_ID
      _STATISTICS_TAGS-eng: BPS DURATION NUMBER_OF_FRAMES NUMBER_OF_BYTES SOURCE_ID
[12:10:34] scan: decoding previews for title 1
[12:10:34] scan: audio 0x1: dca, rate=48000Hz, bitrate=1536000 English (DTS-ES) (6.1 ch)
[12:10:34] scan: audio 0x2: ac3, rate=48000Hz, bitrate=640000 Portugues (AC3) (5.1 ch)
[12:10:35] scan: 10 previews, 1920x1080, 23.976 fps, autocrop = 140/140/0/0, aspect 16:9, PAR 1:1
[12:10:35] libhb: scan thread found 1 valid title(s)
[12:10:35] macgui: ScanCore scan done
[12:11:35] macgui: QueueCore scanning specifically for title: 1
[12:11:35] CPU: Intel(R) Core(TM) i5-6267U CPU @ 2.90GHz
[12:11:35]  - Intel microarchitecture Skylake
[12:11:35]  - logical processor count: 4
[12:11:35] hb_scan: path=/Users/dane/Downloads/Fellowship.mkv, title_index=1
udfread ERROR: ECMA 167 Volume Recognition failed
disc.c:274: failed opening UDF image /Users/dane/Downloads/Fellowship.mkv
disc.c:352: error opening file BDMV/index.bdmv
disc.c:352: error opening file BDMV/BACKUP/index.bdmv
[12:11:35] bd: not a bd - trying as a stream/file instead
libdvdnav: Using dvdnav version 5.0.1
libdvdread: Encrypted DVD support unavailable.
libdvdread:DVDOpenFileUDF:UDFFindFile /VIDEO_TS/VIDEO_TS.IFO failed
libdvdread:DVDOpenFileUDF:UDFFindFile /VIDEO_TS/VIDEO_TS.BUP failed
libdvdread: Can't open file VIDEO_TS.IFO.
libdvdnav: vm: failed to read VIDEO_TS.IFO
[12:11:35] dvd: not a dvd - trying as a stream/file instead
Input #0, matroska,webm, from '/Users/dane/Downloads/Fellowship.mkv':
  Metadata:
    title           : THE LORD OF THE RINGS: THE FELLOWSHIP OF THE RING (EXT.) PT. 1
  Duration: 03:48:18.81, start: 0.000000, bitrate: N/A
    Chapter #0:0: start 0.000000, end 456.789667
    Metadata:
      title           : Chapter 01
    Chapter #0:1: start 456.789667, end 635.551583
    Metadata:
      title           : Chapter 02
    Chapter #0:2: start 635.551583, end 939.813875
    Metadata:
      title           : Chapter 03
    Chapter #0:3: start 939.813875, end 1198.447250
    Metadata:
      title           : Chapter 04
    Chapter #0:4: start 1198.447250, end 1532.572708
    Metadata:
      title           : Chapter 05
    Chapter #0:5: start 1532.572708, end 1797.337208
    Metadata:
      title           : Chapter 06
    Chapter #0:6: start 1797.337208, end 1930.637042
    Metadata:
      title           : Chapter 07
    Chapter #0:7: start 1930.637042, end 2091.756333
    Metadata:
      title           : Chapter 08
    Chapter #0:8: start 2091.756333, end 2178.176000
    Metadata:
      title           : Chapter 09
    Chapter #0:9: start 2178.176000, end 2704.118083
    Metadata:
      title           : Chapter 10
    Chapter #0:10: start 2704.118083, end 2804.259792
    Metadata:
      title           : Chapter 11
    Chapter #0:11: start 2804.259792, end 3081.161417
    Metadata:
      title           : Chapter 12
    Chapter #0:12: start 3081.161417, end 3312.392417
    Metadata:
      title           : Chapter 13
    Chapter #0:13: start 3312.392417, end 3450.029917
    Metadata:
      title           : Chapter 14
    Chapter #0:14: start 3450.029917, end 3811.474333
    Metadata:
      title           : Chapter 15
    Chapter #0:15: start 3811.474333, end 4036.073708
    Metadata:
      title           : Chapter 16
    Chapter #0:16: start 4036.073708, end 4133.420958
    Metadata:
      title           : Chapter 17
    Chapter #0:17: start 4133.420958, end 4235.898333
    Metadata:
      title           : Chapter 18
    Chapter #0:18: start 4235.898333, end 4515.010500
    Metadata:
      title           : Chapter 19
    Chapter #0:19: start 4515.010500, end 4666.578583
    Metadata:
      title           : Chapter 20
    Chapter #0:20: start 4666.578583, end 5051.546500
    Metadata:
      title           : Chapter 21
    Chapter #0:21: start 5051.546500, end 5172.458958
    Metadata:
      title           : Chapter 22
    Chapter #0:22: start 5172.458958, end 5381.542833
    Metadata:
      title           : Chapter 23
    Chapter #0:23: start 5381.542833, end 5594.297042
    Metadata:
      title           : Chapter 24
    Chapter #0:24: start 5594.297042, end 5754.039958
    Metadata:
      title           : Chapter 25
    Chapter #0:25: start 5754.039958, end 5852.930417
    Metadata:
      title           : Chapter 26
    Chapter #0:26: start 5852.930417, end 6343.420417
    Metadata:
      title           : Chapter 27
    Chapter #0:27: start 6343.420708, end 6419.204750
    Metadata:
      title           : Chapter 01
    Chapter #0:28: start 6419.204750, end 6522.599708
    Metadata:
      title           : Chapter 02
    Chapter #0:29: start 6522.599708, end 6600.010375
    Metadata:
      title           : Chapter 03
    Chapter #0:30: start 6600.010375, end 6785.821000
    Metadata:
      title           : Chapter 04
    Chapter #0:31: start 6785.821000, end 7072.107000
    Metadata:
      title           : Chapter 05
    Chapter #0:32: start 7072.107000, end 7457.325167
    Metadata:
      title           : Chapter 06
    Chapter #0:33: start 7457.325167, end 7847.840292
    Metadata:
      title           : Chapter 07
    Chapter #0:34: start 7847.840292, end 8412.279167
    Metadata:
      title           : Chapter 08
    Chapter #0:35: start 8412.279167, end 8993.735042
    Metadata:
      title           : Chapter 09
    Chapter #0:36: start 8993.735042, end 9186.636083
    Metadata:
      title           : Chapter 10
    Chapter #0:37: start 9186.636083, end 9623.364042
    Metadata:
      title           : Chapter 11
    Chapter #0:38: start 9623.364042, end 9963.370375
    Metadata:
      title           : Chapter 12
    Chapter #0:39: start 9963.370375, end 10064.805042
    Metadata:
      title           : Chapter 13
    Chapter #0:40: start 10064.805042, end 10387.544125
    Metadata:
      title           : Chapter 14
    Chapter #0:41: start 10387.544125, end 10679.794417
    Metadata:
      title           : Chapter 15
    Chapter #0:42: start 10679.794417, end 11067.598500
    Metadata:
      title           : Chapter 16
    Chapter #0:43: start 11067.598500, end 11503.534000
    Metadata:
      title           : Chapter 17
    Chapter #0:44: start 11503.534000, end 11665.821125
    Metadata:
      title           : Chapter 18
    Chapter #0:45: start 11665.821125, end 12044.074000
    Metadata:
      title           : Chapter 19
    Chapter #0:46: start 12044.074000, end 12504.534000
    Metadata:
      title           : Chapter 20
    Chapter #0:47: start 12504.534000, end 13698.812708
    Metadata:
      title           : Chapter 21
    Stream #0:0(eng): Video: h264 (High)
      yuv420p, 1920x1080 [PAR 1:1 DAR 16:9], PAR 1:1 DAR 16:9
      23.98 fps, 1k tbn
    Metadata:
      BPS             : 2990360
      BPS-eng         : 2990360
      DURATION        : 01:45:43.420416666
      DURATION-eng    : 01:45:43.420416666
      NUMBER_OF_FRAMES: 152090
      NUMBER_OF_FRAMES-eng: 152090
      NUMBER_OF_BYTES : 23711389997
      NUMBER_OF_BYTES-eng: 23711389997
      SOURCE_ID       : 001011
      SOURCE_ID-eng   : 001011
      _STATISTICS_WRITING_APP: MakeMKV v1.9.8 darwin(x86-release)
      _STATISTICS_WRITING_APP-eng: MakeMKV v1.9.8 darwin(x86-release)
      _STATISTICS_WRITING_DATE_UTC: 2016-01-08 03:37:49
      _STATISTICS_WRITING_DATE_UTC-eng: 2016-01-08 03:37:49
      _STATISTICS_TAGS: BPS DURATION NUMBER_OF_FRAMES NUMBER_OF_BYTES SOURCE_ID
      _STATISTICS_TAGS-eng: BPS DURATION NUMBER_OF_FRAMES NUMBER_OF_BYTES SOURCE_ID
    Stream #0:1(eng): Audio: dts (DTS-ES)
      48000 Hz, 6.1, fltp, 1536 kb/s (default)
    Metadata:
      title           : Surround 5.1
      BPS             : 150900
      BPS-eng         : 150900
      DURATION        : 01:45:42.336000000
      DURATION-eng    : 01:45:42.336000000
      NUMBER_OF_FRAMES: 594594
      NUMBER_OF_FRAMES-eng: 594594
      NUMBER_OF_BYTES : 1196323128
      NUMBER_OF_BYTES-eng: 1196323128
      SOURCE_ID       : 001100
      SOURCE_ID-eng   : 001100
      _STATISTICS_WRITING_APP: MakeMKV v1.9.8 darwin(x86-release)
      _STATISTICS_WRITING_APP-eng: MakeMKV v1.9.8 darwin(x86-release)
      _STATISTICS_WRITING_DATE_UTC: 2016-01-08 03:37:49
      _STATISTICS_WRITING_DATE_UTC-eng: 2016-01-08 03:37:49
      _STATISTICS_TAGS: BPS DURATION NUMBER_OF_FRAMES NUMBER_OF_BYTES SOURCE_ID
      _STATISTICS_TAGS-eng: BPS DURATION NUMBER_OF_FRAMES NUMBER_OF_BYTES SOURCE_ID
    Stream #0:2(por): Audio: ac3
      48000 Hz, 5.1, fltp, 640 kb/s
    Metadata:
      title           : Surround 5.1
      BPS             : 64000
      BPS-eng         : 64000
      DURATION        : 01:45:42.368000000
      DURATION-eng    : 01:45:42.368000000
      NUMBER_OF_FRAMES: 198199
      NUMBER_OF_FRAMES-eng: 198199
      NUMBER_OF_BYTES : 507389440
      NUMBER_OF_BYTES-eng: 507389440
      SOURCE_ID       : 001101
      SOURCE_ID-eng   : 001101
      _STATISTICS_WRITING_APP: MakeMKV v1.9.8 darwin(x86-release)
      _STATISTICS_WRITING_APP-eng: MakeMKV v1.9.8 darwin(x86-release)
      _STATISTICS_WRITING_DATE_UTC: 2016-01-08 03:37:49
      _STATISTICS_WRITING_DATE_UTC-eng: 2016-01-08 03:37:49
      _STATISTICS_TAGS: BPS DURATION NUMBER_OF_FRAMES NUMBER_OF_BYTES SOURCE_ID
      _STATISTICS_TAGS-eng: BPS DURATION NUMBER_OF_FRAMES NUMBER_OF_BYTES SOURCE_ID
    Stream #0:3(eng): Subtitle: hdmv_pgs_subtitle
    Metadata:
      BPS             : 2554
      BPS-eng         : 2554
      DURATION        : 01:45:05.987187500
      DURATION-eng    : 01:45:05.987187500
      NUMBER_OF_FRAMES: 2190
      NUMBER_OF_FRAMES-eng: 2190
      NUMBER_OF_BYTES : 20134683
      NUMBER_OF_BYTES-eng: 20134683
      SOURCE_ID       : 001200
      SOURCE_ID-eng   : 001200
      _STATISTICS_WRITING_APP: MakeMKV v1.9.8 darwin(x86-release)
      _STATISTICS_WRITING_APP-eng: MakeMKV v1.9.8 darwin(x86-release)
      _STATISTICS_WRITING_DATE_UTC: 2016-01-08 03:37:49
      _STATISTICS_WRITING_DATE_UTC-eng: 2016-01-08 03:37:49
      _STATISTICS_TAGS: BPS DURATION NUMBER_OF_FRAMES NUMBER_OF_BYTES SOURCE_ID
      _STATISTICS_TAGS-eng: BPS DURATION NUMBER_OF_FRAMES NUMBER_OF_BYTES SOURCE_ID
    Stream #0:4(spa): Subtitle: hdmv_pgs_subtitle
    Metadata:
      BPS             : 2362
      BPS-eng         : 2362
      DURATION        : 01:45:02.942479166
      DURATION-eng    : 01:45:02.942479166
      NUMBER_OF_FRAMES: 2060
      NUMBER_OF_FRAMES-eng: 2060
      NUMBER_OF_BYTES : 18609676
      NUMBER_OF_BYTES-eng: 18609676
      SOURCE_ID       : 001201
      SOURCE_ID-eng   : 001201
      _STATISTICS_WRITING_APP: MakeMKV v1.9.8 darwin(x86-release)
      _STATISTICS_WRITING_APP-eng: MakeMKV v1.9.8 darwin(x86-release)
      _STATISTICS_WRITING_DATE_UTC: 2016-01-08 03:37:49
      _STATISTICS_WRITING_DATE_UTC-eng: 2016-01-08 03:37:49
      _STATISTICS_TAGS: BPS DURATION NUMBER_OF_FRAMES NUMBER_OF_BYTES SOURCE_ID
      _STATISTICS_TAGS-eng: BPS DURATION NUMBER_OF_FRAMES NUMBER_OF_BYTES SOURCE_ID
    Stream #0:5(por): Subtitle: hdmv_pgs_subtitle
    Metadata:
      BPS             : 2494
      BPS-eng         : 2494
      DURATION        : 01:45:02.942479166
      DURATION-eng    : 01:45:02.942479166
      NUMBER_OF_FRAMES: 2076
      NUMBER_OF_FRAMES-eng: 2076
      NUMBER_OF_BYTES : 19655219
      NUMBER_OF_BYTES-eng: 19655219
      SOURCE_ID       : 001202
      SOURCE_ID-eng   : 001202
      _STATISTICS_WRITING_APP: MakeMKV v1.9.8 darwin(x86-release)
      _STATISTICS_WRITING_APP-eng: MakeMKV v1.9.8 darwin(x86-release)
      _STATISTICS_WRITING_DATE_UTC: 2016-01-08 03:37:49
      _STATISTICS_WRITING_DATE_UTC-eng: 2016-01-08 03:37:49
      _STATISTICS_TAGS: BPS DURATION NUMBER_OF_FRAMES NUMBER_OF_BYTES SOURCE_ID
      _STATISTICS_TAGS-eng: BPS DURATION NUMBER_OF_FRAMES NUMBER_OF_BYTES SOURCE_ID
    Stream #0:6(eng): Subtitle: hdmv_pgs_subtitle
    Metadata:
      BPS             : 443
      BPS-eng         : 443
      DURATION        : 01:44:43.297854166
      DURATION-eng    : 01:44:43.297854166
      NUMBER_OF_FRAMES: 4114
      NUMBER_OF_FRAMES-eng: 4114
      NUMBER_OF_BYTES : 3484870
      NUMBER_OF_BYTES-eng: 3484870
      SOURCE_ID       : 001203
      SOURCE_ID-eng   : 001203
      _STATISTICS_WRITING_APP: MakeMKV v1.9.8 darwin(x86-release)
      _STATISTICS_WRITING_APP-eng: MakeMKV v1.9.8 darwin(x86-release)
      _STATISTICS_WRITING_DATE_UTC: 2016-01-08 03:37:49
      _STATISTICS_WRITING_DATE_UTC-eng: 2016-01-08 03:37:49
      _STATISTICS_TAGS: BPS DURATION NUMBER_OF_FRAMES NUMBER_OF_BYTES SOURCE_ID
      _STATISTICS_TAGS-eng: BPS DURATION NUMBER_OF_FRAMES NUMBER_OF_BYTES SOURCE_ID
    Stream #0:7(eng): Subtitle: hdmv_pgs_subtitle
    Metadata:
      BPS             : 294
      BPS-eng         : 294
      DURATION        : 01:45:25.965479166
      DURATION-eng    : 01:45:25.965479166
      NUMBER_OF_FRAMES: 2398
      NUMBER_OF_FRAMES-eng: 2398
      NUMBER_OF_BYTES : 2329083
      NUMBER_OF_BYTES-eng: 2329083
      SOURCE_ID       : 001204
      SOURCE_ID-eng   : 001204
      _STATISTICS_WRITING_APP: MakeMKV v1.9.8 darwin(x86-release)
      _STATISTICS_WRITING_APP-eng: MakeMKV v1.9.8 darwin(x86-release)
      _STATISTICS_WRITING_DATE_UTC: 2016-01-08 03:37:49
      _STATISTICS_WRITING_DATE_UTC-eng: 2016-01-08 03:37:49
      _STATISTICS_TAGS: BPS DURATION NUMBER_OF_FRAMES NUMBER_OF_BYTES SOURCE_ID
      _STATISTICS_TAGS-eng: BPS DURATION NUMBER_OF_FRAMES NUMBER_OF_BYTES SOURCE_ID
    Stream #0:8(eng): Subtitle: hdmv_pgs_subtitle
    Metadata:
      BPS             : 515
      BPS-eng         : 515
      DURATION        : 01:45:26.549395833
      DURATION-eng    : 01:45:26.549395833
      NUMBER_OF_FRAMES: 4510
      NUMBER_OF_FRAMES-eng: 4510
      NUMBER_OF_BYTES : 4080278
      NUMBER_OF_BYTES-eng: 4080278
      SOURCE_ID       : 001205
      SOURCE_ID-eng   : 001205
      _STATISTICS_WRITING_APP: MakeMKV v1.9.8 darwin(x86-release)
      _STATISTICS_WRITING_APP-eng: MakeMKV v1.9.8 darwin(x86-release)
      _STATISTICS_WRITING_DATE_UTC: 2016-01-08 03:37:49
      _STATISTICS_WRITING_DATE_UTC-eng: 2016-01-08 03:37:49
      _STATISTICS_TAGS: BPS DURATION NUMBER_OF_FRAMES NUMBER_OF_BYTES SOURCE_ID
      _STATISTICS_TAGS-eng: BPS DURATION NUMBER_OF_FRAMES NUMBER_OF_BYTES SOURCE_ID
    Stream #0:9(eng): Subtitle: hdmv_pgs_subtitle
    Metadata:
      BPS             : 706
      BPS-eng         : 706
      DURATION        : 01:45:10.533395833
      DURATION-eng    : 01:45:10.533395833
      NUMBER_OF_FRAMES: 7912
      NUMBER_OF_FRAMES-eng: 7912
      NUMBER_OF_BYTES : 5576491
      NUMBER_OF_BYTES-eng: 5576491
      SOURCE_ID       : 001206
      SOURCE_ID-eng   : 001206
      _STATISTICS_WRITING_APP: MakeMKV v1.9.8 darwin(x86-release)
      _STATISTICS_WRITING_APP-eng: MakeMKV v1.9.8 darwin(x86-release)
      _STATISTICS_WRITING_DATE_UTC: 2016-01-08 03:37:49
      _STATISTICS_WRITING_DATE_UTC-eng: 2016-01-08 03:37:49
      _STATISTICS_TAGS: BPS DURATION NUMBER_OF_FRAMES NUMBER_OF_BYTES SOURCE_ID
      _STATISTICS_TAGS-eng: BPS DURATION NUMBER_OF_FRAMES NUMBER_OF_BYTES SOURCE_ID
    Stream #0:10(por): Subtitle: hdmv_pgs_subtitle
    Metadata:
      BPS             : 59
      BPS-eng         : 59
      DURATION        : 01:25:08.540937500
      DURATION-eng    : 01:25:08.540937500
      NUMBER_OF_FRAMES: 40
      NUMBER_OF_FRAMES-eng: 40
      NUMBER_OF_BYTES : 379540
      NUMBER_OF_BYTES-eng: 379540
      SOURCE_ID       : 001207
      SOURCE_ID-eng   : 001207
      _STATISTICS_WRITING_APP: MakeMKV v1.9.8 darwin(x86-release)
      _STATISTICS_WRITING_APP-eng: MakeMKV v1.9.8 darwin(x86-release)
      _STATISTICS_WRITING_DATE_UTC: 2016-01-08 03:37:49
      _STATISTICS_WRITING_DATE_UTC-eng: 2016-01-08 03:37:49
      _STATISTICS_TAGS: BPS DURATION NUMBER_OF_FRAMES NUMBER_OF_BYTES SOURCE_ID
      _STATISTICS_TAGS-eng: BPS DURATION NUMBER_OF_FRAMES NUMBER_OF_BYTES SOURCE_ID
[12:11:35] scan: decoding previews for title 1
[12:11:35] scan: audio 0x1: dca, rate=48000Hz, bitrate=1536000 English (DTS-ES) (6.1 ch)
[12:11:35] scan: audio 0x2: ac3, rate=48000Hz, bitrate=640000 Portugues (AC3) (5.1 ch)
[12:11:36] scan: 10 previews, 1920x1080, 23.976 fps, autocrop = 140/140/0/0, aspect 16:9, PAR 1:1
[12:11:36] libhb: scan thread found 1 valid title(s)
[12:11:36] macgui: QueueCore scan done
[12:11:36] macgui: QueueCore started encoding Fellowship_h.265.m4v
[12:11:36] 1 job(s) to process
[12:11:36] macgui: QueueCore with preset Custom
[12:11:36] starting job
[12:11:36] decomb filter thread started for segment 0
[12:11:36] decomb filter thread started for segment 1
[12:11:36] decomb filter thread started for segment 2
[12:11:36] decomb filter thread started for segment 3
[12:11:36] decomb check thread started for segment 0
[12:11:36] decomb check thread started for segment 1
[12:11:36] decomb check thread started for segment 2
[12:11:36] decomb check thread started for segment 3
[12:11:36] mask filter thread started for segment 0
[12:11:36] mask filter thread started for segment 1
[12:11:36] mask filter thread started for segment 2
[12:11:36] mask filter thread started for segment 3
[12:11:36] mask erode thread started for segment 0
[12:11:36] mask erode thread started for segment 1
[12:11:36] mask erode thread started for segment 2
[12:11:36] mask erode thread started for segment 3
[12:11:36] mask dilate thread started for segment 0
[12:11:36] mask dilate thread started for segment 1
[12:11:36] mask dilate thread started for segment 2
[12:11:36] mask dilate thread started for segment 3
[12:11:36] yadif thread started for segment 0
[12:11:36] yadif thread started for segment 1
[12:11:36] yadif thread started for segment 2
[12:11:36] yadif thread started for segment 3
[12:11:36] job configuration:
[12:11:36]  * source
[12:11:36]    + /Users/dane/Downloads/Fellowship.mkv
[12:11:36]    + title 1, start 00:00:0.00 stop 00:03:0.00
[12:11:36]    + container: matroska,webm
[12:11:36]  * destination
[12:11:36]    + /Users/dane/Desktop/Fellowship_h.265.m4v
[12:11:36]    + container: MPEG-4 (libavformat)
[12:11:36]      + chapter markers
[12:11:36]  * video track
[12:11:36]    + decoder: h264
[12:11:36]    + filters
[12:11:36]      + Comb Detect (mode=3:spatial-metric=2:motion-thresh=1:spatial-thresh=1:filter-mode=2:block-thresh=40:block-width=16:block-height=16)
[12:11:36]      + Decomb (mode=39)
[12:11:36]      + Framerate Shaper (mode=0:rate=27000000/1126125)
[12:11:36]        + frame rate: same as source (around 23.976 fps)
[12:11:36]      + Crop and Scale (width=1920:height=800:crop-top=140:crop-bottom=140:crop-left=0:crop-right=0)
[12:11:36]        + source: 1920 * 1080, crop (140/140/0/0): 1920 * 800, scale: 1920 * 800
[12:11:36]    + Output geometry
[12:11:36]      + storage dimensions: 1920 x 800
[12:11:36]      + pixel aspect ratio: 1 : 1
[12:11:36]      + display dimensions: 1920 x 800
[12:11:36]    + encoder: H.265 (libx265)
[12:11:36]      + preset:  fast
[12:11:36]      + profile: main
[12:11:36]      + quality: 22.00 (RF)
[12:11:36]  * audio track 1
[12:11:36]    + decoder: English (DTS-ES) (6.1 ch) (track 1, id 0x1)
[12:11:36]      + bitrate: 1536 kbps, samplerate: 48000 Hz
[12:11:36]    + mixdown: Dolby Pro Logic II
[12:11:36]    + encoder: AAC (Apple AudioToolbox)
[12:11:36]      + bitrate: 160 kbps, samplerate: 48000 Hz
[12:11:36] sync: expecting 4339 video frames
x265 [info]: HEVC encoder version 2.1
x265 [info]: build info [Mac OS X][clang 8.1.0][64 bit] 8bit
x265 [info]: using cpu capabilities: MMX2 SSE2Fast SSSE3 SSE4.2 AVX AVX2 FMA3 LZCNT BMI2
x265 [info]: Main profile, Level-4 (Main tier)
x265 [info]: Thread pool created using 4 threads
x265 [info]: Slices                              : 1
x265 [info]: frame threads / pool features       : 2 / wpp(13 rows)
x265 [info]: Coding QT: max CU size, min CU size : 64 / 8
x265 [info]: Residual QT: max TU size, max depth : 32 / 1 inter / 1 intra
x265 [info]: ME / range / subpel / merge         : hex / 57 / 2 / 2
x265 [info]: Keyframe min / max / scenecut       : 24 / 240 / 40
x265 [info]: Lookahead / bframes / badapt        : 15 / 4 / 0
x265 [info]: b-pyramid / weightp / weightb       : 1 / 1 / 0
x265 [info]: References / ref-limit  cu / depth  : 3 / on / on
x265 [info]: AQ: mode / str / qg-size / cu-tree  : 1 / 1.0 / 32 / 1
x265 [info]: Rate Control / qCompress            : CRF-22.0 / 0.60
x265 [info]: tools: rd=2 psy-rd=2.00 rskip signhide tmvp fast-intra
x265 [info]: tools: strong-intra-smoothing lslices=5 deblock sao
[12:11:36] sync: first pts video is 0
[12:11:36] sync: "Chapter 1" (1) at frame 1 time 0
[12:11:36] sync: first pts audio 0x1 is 0
[12:18:26] sync: reached audio 0x1 pts 16200000, exiting early
[12:18:26] sync: reached video pts 16201185, exiting early
[12:18:35] work: average encoding speed for job is 10.509768 fps
[12:18:35] comb detect: heavy 0 | light 115 | uncombed 4201 | total 4316
[12:18:35] decomb: deinterlaced 0 | blended 115 | unfiltered 4201 | total 4316
[12:18:35] vfr: lost time: 0 (0 frames)
[12:18:35] vfr: gained time: 0 (0 frames) (0 not accounted for)
[12:18:35] dca-decoder done: 18285 frames, 0 decoder errors
[12:18:35] h264-decoder done: 4664 frames, 0 decoder errors
[12:18:35] sync: got 4316 frames, 4339 expected
[12:18:35] sync: framerate min 23.981 fps, max 23.981 fps, avg 23.976 fps
x265 [info]: frame I:     41, Avg QP:20.87  kb/s: 10828.54
x265 [info]: frame P:    860, Avg QP:23.18  kb/s: 3063.45 
x265 [info]: frame B:   3415, Avg QP:26.93  kb/s: 963.66  
x265 [info]: Weighted P-Frames: Y:20.3% UV:15.7%
x265 [info]: consecutive B-frames: 4.1% 0.6% 1.1% 0.7% 93.6% 

encoded 4316 frames in 419.39s (10.29 fps), 1475.78 kb/s, Avg QP:26.12
[12:18:35] mux: track 0, 4316 frames, 33224636 bytes, 1476.20 kbps, fifo 4096
[12:18:35] mux: track 1, 8438 frames, 3704330 bytes, 164.59 kbps, fifo 8192
[12:18:35] libhb: work result = 0
[12:18:36] macgui: QueueCore work done
[12:18:36] macgui: Queue Done, there are no more pending encodes

User avatar
s55
HandBrake Team
Posts: 9545
Joined: Sun Dec 24, 2006 1:05 pm

Re: HEVC/h.265 encodes not playable on macOS 10.13 High Sierra

Post by s55 » Wed Jun 14, 2017 6:49 pm

Yup this is expected. There is nothing wrong with your file but QT will not play it as it's not muxed in a way want.

We've got a workaround in the nightly builds, but all existing encodes will need to be remuxed with a muxer that happens to mux the way QT wants.

lone_tree
Posts: 75
Joined: Mon May 05, 2008 10:23 pm

Re: HEVC/h.265 encodes not playable on macOS 10.13 High Sierra

Post by lone_tree » Wed Jun 14, 2017 7:18 pm

Good deal, thanks for the quick reply. Glad to see you're still around on this project! I haven't been on these forums since ~2009.

I'll give the latest nightly build a try.

lone_tree
Posts: 75
Joined: Mon May 05, 2008 10:23 pm

Re: HEVC/h.265 encodes not playable on macOS 10.13 High Sierra

Post by lone_tree » Wed Jun 14, 2017 7:29 pm

Side question: Is Handbrake utilizing hardware accelerated encoding in 10.13? h.265 encoding seems to be quite a bit faster in 10.13 compared to 10.12.

User avatar
Ritsuka
HandBrake Team
Posts: 1064
Joined: Fri Jan 12, 2007 11:29 am

Re: HEVC/h.265 encodes not playable on macOS 10.13 High Sierra

Post by Ritsuka » Wed Jun 14, 2017 7:32 pm

No.

mduell
Veteran User
Posts: 6680
Joined: Sat Apr 21, 2007 8:54 pm

Re: HEVC/h.265 encodes not playable on macOS 10.13 High Sierra

Post by mduell » Wed Jun 14, 2017 7:37 pm

lone_tree wrote:
Wed Jun 14, 2017 7:29 pm
Side question: Is Handbrake utilizing hardware accelerated encoding in 10.13? h.265 encoding seems to be quite a bit faster in 10.13 compared to 10.12.
No, most likely you picked different settings or provided a different source.

lone_tree
Posts: 75
Joined: Mon May 05, 2008 10:23 pm

Re: HEVC/h.265 encodes not playable on macOS 10.13 High Sierra

Post by lone_tree » Wed Jun 14, 2017 9:34 pm

Thanks everyone! I just built with the latest code and the output is now playable.

User avatar
BradleyS
Moderator
Posts: 1638
Joined: Thu Aug 09, 2007 12:16 pm

Re: HEVC/h.265 encodes not playable on macOS 10.13 High Sierra

Post by BradleyS » Thu Jun 15, 2017 3:14 am

Great, glad you got it working.

Sadly, we had no way of knowing how Apple would handle HEVC/H.265 until just now with the High Sierra developer beta.

Subler for macOS can remux your video without re-encoding. No doubt it will be updated soon, if it hasn't already been, to handle this issue.

Post Reply