Blu-Ray to MakeMKV to HandBrake with Subtitles/CC in iTunes

HandBrake for Mac support
Forum rules
An Activity Log is required for support requests. Please read How-to get an activity log? for details on how and why this should be provided.
Post Reply
railhead
Posts: 7
Joined: Sun Aug 18, 2013 3:29 pm

Blu-Ray to MakeMKV to HandBrake with Subtitles/CC in iTunes

Post by railhead » Tue Mar 08, 2016 5:03 am

I promise I've been searching for an answer to this, but haven't found one. Here's my situation:

1. I'm archiving my Blu-Ray movies onto my iMac for playback in iTunes.

2. I use MakeMKV to copy the movie.

2a. When I playback the MKV in VLC, I can toggle English subtitles on or off from the subtitles menu and they display properly.

3. When I drop the MKV onto HB to encode, I encode for AppleTV 3 -- and no matter what option I select on the subtitles panel, I cannot get the subtitles to toggle in VLC or iTunes. After encoding, they're gone -- unless they are Foreign Audio, then they appear. OR, I can force them to burn in and be always viewable -- but I want to be able to turn them off or on as needed.

I know I must simply be overlooking something, but I'm at my wit's end trying to figure this out.

Thanks for any help!

mduell
Veteran User
Posts: 6552
Joined: Sat Apr 21, 2007 8:54 pm

Re: Blu-Ray to MakeMKV to HandBrake with Subtitles/CC in iTunes

Post by mduell » Tue Mar 08, 2016 6:03 am

MP4 doesn't support Bluray subs, and Apple doesn't support MKV, so you're boned.

kpflugshaupt
Posts: 63
Joined: Sat Feb 06, 2010 8:00 pm

Re: Blu-Ray to MakeMKV to HandBrake with Subtitles/CC in iTunes

Post by kpflugshaupt » Tue Mar 08, 2016 12:06 pm

railhead wrote:I promise I've been searching for an answer to this, but haven't found one. Here's my situation:

1. I'm archiving my Blu-Ray movies onto my iMac for playback in iTunes.

2. I use MakeMKV to copy the movie.

2a. When I playback the MKV in VLC, I can toggle English subtitles on or off from the subtitles menu and they display properly.

3. When I drop the MKV onto HB to encode, I encode for AppleTV 3 -- and no matter what option I select on the subtitles panel, I cannot get the subtitles to toggle in VLC or iTunes. After encoding, they're gone -- unless they are Foreign Audio, then they appear. OR, I can force them to burn in and be always viewable -- but I want to be able to turn them off or on as needed.

I know I must simply be overlooking something, but I'm at my wit's end trying to figure this out.

Thanks for any help!
The simplest way to reach your goal is to look for subtitles for your movie online (as SRT file), and pack them into the finished mp4 using e.g. Subler. Having to check for synchronisation issues is a bother, though.

User avatar
Rodeo
HandBrake Team
Posts: 12123
Joined: Tue Mar 03, 2009 8:55 pm

Re: Blu-Ray to MakeMKV to HandBrake with Subtitles/CC in iTunes

Post by Rodeo » Tue Mar 08, 2016 12:39 pm

Generally speaking, if online subtitles were created from a Blu-ray, sync issues are very rare. Blu-rays, unlike DVDs, almost always have the same frame rate & timing all around the world.

RichardU
Posts: 1
Joined: Tue Mar 08, 2016 8:38 pm

Re: Blu-Ray to MakeMKV to HandBrake with Subtitles/CC in iTunes

Post by RichardU » Tue Mar 08, 2016 9:12 pm

Rodeo wrote:Generally speaking, if online subtitles were created from a Blu-ray, sync issues are very rare. Blu-rays, unlike DVDs, almost always have the same frame rate & timing all around the world.
Yes, when you find the right .srt file, it remains synced throughout, however I recently d/l hundreds of .srt files for bluray (makemkv) and at least 30% of the time I had to try several to find the correct one. Depending on the movie, there can be a variety of editions, and they are not always correctly labeled.

kpflugshaupt
Posts: 63
Joined: Sat Feb 06, 2010 8:00 pm

Re: Blu-Ray to MakeMKV to HandBrake with Subtitles/CC in iTunes

Post by kpflugshaupt » Wed Mar 09, 2016 10:13 am

RichardU wrote:
Rodeo wrote:Generally speaking, if online subtitles were created from a Blu-ray, sync issues are very rare. Blu-rays, unlike DVDs, almost always have the same frame rate & timing all around the world.
Yes, when you find the right .srt file, it remains synced throughout, however I recently d/l hundreds of .srt files for bluray (makemkv) and at least 30% of the time I had to try several to find the correct one. Depending on the movie, there can be a variety of editions, and they are not always correctly labeled.
Exactly!

I just had a hell of a time finding SRT files for the "Life on Mars" series, only to finally realize that I had the "International version" on DVD. This misses a few short scenes from each episode compared to the "British version", thus subtitles are not compatible... and you may not notice if you only check the start of each episode.

Of course, the DVD box fails to mention this detail :x

zindi
Posts: 6
Joined: Fri Dec 14, 2007 9:33 pm

Re: Blu-Ray to MakeMKV to HandBrake with Subtitles/CC in iTunes

Post by zindi » Wed Mar 23, 2016 8:40 pm

you can extract subtitles from the mkv file using subler or mkvextract (part of MKVToolNix) depending on the type of subtitle.

daphatty
Posts: 2
Joined: Sat Apr 02, 2016 4:59 pm

Re: Blu-Ray to MakeMKV to HandBrake with Subtitles/CC in iTunes

Post by daphatty » Sat Apr 02, 2016 5:06 pm

You should look at MP4Tools. The free version will allow you to test whether your mkv files will convert with the subtitles intact. The author also has a tool called SUBtools that takes subtitle conversion into MP4 compatible format a step further.

http://www.emmgunn.com/mp4tools-home/

Thain Esh Kelch
Posts: 10
Joined: Wed Jul 20, 2011 8:46 pm

Re: Blu-Ray to MakeMKV to HandBrake with Subtitles/CC in iTunes

Post by Thain Esh Kelch » Mon Apr 04, 2016 7:47 am

I use Subler to OCR the subtitles from the MKVs I've ripped to SRT files. There are small errors here and there, but in general they are fine, and they fit my movie perfectly of course since they come from the same source material.

machineshop44
Posts: 4
Joined: Fri Apr 15, 2016 8:38 am

Re: Blu-Ray to MakeMKV to HandBrake with Subtitles/CC in iTunes

Post by machineshop44 » Fri Apr 15, 2016 8:43 am

I am having semi the same issue but instead of iTunes I am creating a plex server. I noticed that handrake on mac will not give me the subs like myself and the OP want but I have noticed that handbrake for windows will do this. Is there some reason why one would do it and not the other? I have no problem ripping on my mac while I am at work using MakeMKV and then moving them over to my windows machine where my plex drive is in order to run them through handbrake there it just get a little tedious. I thought both the mac and the windows versions were the same?

rollin_eng
Veteran User
Posts: 3103
Joined: Wed May 04, 2011 11:06 pm

Re: Blu-Ray to MakeMKV to HandBrake with Subtitles/CC in iTunes

Post by rollin_eng » Fri Apr 15, 2016 11:47 am

machineshop44 wrote:I am having semi the same issue but instead of iTunes I am creating a plex server. I noticed that handrake on mac will not give me the subs like myself and the OP want but I have noticed that handbrake for windows will do this. Is there some reason why one would do it and not the other? I have no problem ripping on my mac while I am at work using MakeMKV and then moving them over to my windows machine where my plex drive is in order to run them through handbrake there it just get a little tedious. I thought both the mac and the windows versions were the same?
The windows and mac version should be the same, can you post logs from both encodes, thanks.

machineshop44
Posts: 4
Joined: Fri Apr 15, 2016 8:38 am

Re: Blu-Ray to MakeMKV to HandBrake with Subtitles/CC in iTunes

Post by machineshop44 » Fri Apr 15, 2016 11:58 am

I would have to go through 2 encodes: 1 on mac and one on windows for me to give you that and that would take 6+ hours for each one (laptops for both).
I realized all of this because I accidentally put the same .mkv file in both of them and on the windows version I was able to burn in the foreign subs and default my english subs. The mac version would let me burn in the foreign subs but nothing else. I even downloaded the the nightly build last night for my mac and I was able to now burn in the english subs but not default them at all. I do not want to have to burn in the eng subs for cases were myself or my wife do not want the subs on.

rollin_eng
Veteran User
Posts: 3103
Joined: Wed May 04, 2011 11:06 pm

Re: Blu-Ray to MakeMKV to HandBrake with Subtitles/CC in iTunes

Post by rollin_eng » Fri Apr 15, 2016 12:28 pm

Your old logs should still be there unless you removed them.

If not just encode a chapter or 10 mins of the mkv.

machineshop44
Posts: 4
Joined: Fri Apr 15, 2016 8:38 am

Re: Blu-Ray to MakeMKV to HandBrake with Subtitles/CC in iTunes

Post by machineshop44 » Fri Apr 15, 2016 1:29 pm

I'll run these now but probably wont post until later on since I work nights and just got off work and am exhausted!

machineshop44
Posts: 4
Joined: Fri Apr 15, 2016 8:38 am

Re: Blu-Ray to MakeMKV to HandBrake with Subtitles/CC in iTunes

Post by machineshop44 » Sat Apr 16, 2016 12:25 am

Both encodes are of the same chapter of the same movie with what should be all the same settings except that the eng subs are defaults in the windows and not on the mac at all...

Mac:

[09:22:38] CPU: Intel(R) Core(TM) i5-3210M CPU @ 2.50GHz
[09:22:38] - Intel microarchitecture Ivy Bridge
[09:22:38] - logical processor count: 4
[09:22:38] OpenCL device #1: Intel HD Graphics 4000
[09:22:38] - OpenCL version: 1.2
[09:22:38] - driver version: 1.2(Feb 26 2016 23:24:00)
[09:22:38] - device type: GPU
[09:22:38] - supported: no
[09:22:38] hb_scan: path=/Users/andrewpross/Desktop/Things to watch/Need to go through Handbrake/Lord of War.mkv, title_index=0
libbluray/bdnav/index_parse.c:162: indx_parse(): error opening /Users/andrewpross/Desktop/Things to watch/Need to go through Handbrake/Lord of War.mkv/BDMV/index.bdmv
libbluray/bdnav/index_parse.c:162: indx_parse(): error opening /Users/andrewpross/Desktop/Things to watch/Need to go through Handbrake/Lord of War.mkv/BDMV/BACKUP/index.bdmv
libbluray/bluray.c:2182: nav_get_title_list(/Users/andrewpross/Desktop/Things to watch/Need to go through Handbrake/Lord of War.mkv) failed
[09:22:38] bd: not a bd - trying as a stream/file instead
libdvdnav: Using dvdnav version 5.0.1
libdvdread:DVDOpenFileUDF:UDFFindFile /VIDEO_TS/VIDEO_TS.IFO failed
libdvdread:DVDOpenFileUDF:UDFFindFile /VIDEO_TS/VIDEO_TS.BUP failed
libdvdread: Can't open file VIDEO_TS.IFO.
libdvdnav: vm: failed to read VIDEO_TS.IFO
[09:22:38] dvd: not a dvd - trying as a stream/file instead
Input #0, matroska,webm, from '/Users/andrewpross/Desktop/Things to watch/Need to go through Handbrake/Lord of War.mkv':
Duration: 02:01:43.29, start: 0.000000, bitrate: N/A
Chapter #0.0: start 0.000000, end 486.110625
Metadata:
title : Chapter 01
Chapter #0.1: start 486.110625, end 1045.919875
Metadata:
title : Chapter 02
Chapter #0.2: start 1045.919875, end 1478.852375
Metadata:
title : Chapter 03
Chapter #0.3: start 1478.852375, end 1967.090125
Metadata:
title : Chapter 04
Chapter #0.4: start 1967.090125, end 2531.153625
Metadata:
title : Chapter 05
Chapter #0.5: start 2531.153625, end 3129.876750
Metadata:
title : Chapter 06
Chapter #0.6: start 3129.876750, end 3629.751125
Metadata:
title : Chapter 07
Chapter #0.7: start 3629.751125, end 4131.252125
Metadata:
title : Chapter 08
Chapter #0.8: start 4131.252125, end 4659.655000
Metadata:
title : Chapter 09
Chapter #0.9: start 4659.655000, end 5096.341250
Metadata:
title : Chapter 10
Chapter #0.10: start 5096.341250, end 5555.424875
Metadata:
title : Chapter 11
Chapter #0.11: start 5555.424875, end 6382.125750
Metadata:
title : Chapter 12
Chapter #0.12: start 6382.125750, end 6855.974125
Metadata:
title : Chapter 13
Chapter #0.13: start 6855.974125, end 7303.296000
Metadata:
title : Chapter 14
Stream #0.0(eng): Video: mpeg2video (Main), yuv420p, 1920x1080 [PAR 1:1 DAR 16:9], 36000 kb/s, 23.98 fps, 1k tbn, 47.95 tbc
Metadata:
BPS-eng : 21229986
DURATION-eng : 02:01:43.296000000
NUMBER_OF_FRAMES-eng: 175104
NUMBER_OF_BYTES-eng: 19381109166
SOURCE_ID-eng : 001011
_STATISTICS_WRITING_APP-eng: MakeMKV v1.9.9 darwin(x86-release)
_STATISTICS_WRITING_DATE_UTC-eng: 2016-04-15 03:48:48
_STATISTICS_TAGS-eng: BPS DURATION NUMBER_OF_FRAMES NUMBER_OF_BYTES SOURCE_ID
Stream #0.1(eng): Audio: dca (DTS-ES), 48000 Hz, 6.1, fltp, 1536 kb/s (default)
Metadata:
title : Surround 5.1
BPS-eng : 1509000
DURATION-eng : 02:01:43.296000000
NUMBER_OF_FRAMES-eng: 684684
NUMBER_OF_BYTES-eng: 1377584208
SOURCE_ID-eng : 001100
_STATISTICS_WRITING_APP-eng: MakeMKV v1.9.9 darwin(x86-release)
_STATISTICS_WRITING_DATE_UTC-eng: 2016-04-15 03:48:48
_STATISTICS_TAGS-eng: BPS DURATION NUMBER_OF_FRAMES NUMBER_OF_BYTES SOURCE_ID
Stream #0.2(eng): Audio: ac3, 48000 Hz, 5.1, fltp, 640 kb/s
Metadata:
title : Surround 5.1
BPS-eng : 640000
DURATION-eng : 02:01:43.296000000
NUMBER_OF_FRAMES-eng: 228228
NUMBER_OF_BYTES-eng: 584263680
SOURCE_ID-eng : 001101
_STATISTICS_WRITING_APP-eng: MakeMKV v1.9.9 darwin(x86-release)
_STATISTICS_WRITING_DATE_UTC-eng: 2016-04-15 03:48:48
_STATISTICS_TAGS-eng: BPS DURATION NUMBER_OF_FRAMES NUMBER_OF_BYTES SOURCE_ID
Stream #0.3(eng): Subtitle: pgssub
Metadata:
BPS-eng : 40565
DURATION-eng : 01:54:16.537187500
NUMBER_OF_FRAMES-eng: 2756
NUMBER_OF_BYTES-eng: 34767343
SOURCE_ID-eng : 001200
_STATISTICS_WRITING_APP-eng: MakeMKV v1.9.9 darwin(x86-release)
_STATISTICS_WRITING_DATE_UTC-eng: 2016-04-15 03:48:48
_STATISTICS_TAGS-eng: BPS DURATION NUMBER_OF_FRAMES NUMBER_OF_BYTES SOURCE_ID
[09:22:38] scan: decoding previews for title 1
[09:22:38] scan: audio 0x1: dca, rate=48000Hz, bitrate=1536000 English (DTS-ES) (6.1 ch)
[09:22:38] scan: audio 0x2: ac3, rate=48000Hz, bitrate=640000 English (AC3) (5.1 ch) (Dolby Digital EX)
[09:22:39] scan: 10 previews, 1920x1080, 23.976 fps, autocrop = 140/142/0/0, aspect 16:9, PAR 1:1
[09:22:39] libhb: scan thread found 1 valid title(s)
[09:22:39] macgui: ScanDone state received from fHandle
[09:22:39] macgui: showNewScan: This is a new source item scan
[09:24:12] macgui: Rip: Pending queue count is 0
[09:24:12] macgui: getNextPendingQueueIndex next pending encode index is:0
[09:24:12] macgui: scanning specifically for title: 1
[09:24:12] CPU: Intel(R) Core(TM) i5-3210M CPU @ 2.50GHz
[09:24:12] - Intel microarchitecture Ivy Bridge
[09:24:12] - logical processor count: 4
[09:24:12] OpenCL device #1: Intel HD Graphics 4000
[09:24:12] - OpenCL version: 1.2
[09:24:12] - driver version: 1.2(Feb 26 2016 23:24:00)
[09:24:12] - device type: GPU
[09:24:12] - supported: no
[09:24:12] hb_scan: path=/Users/andrewpross/Desktop/Things to watch/Need to go through Handbrake/Lord of War.mkv, title_index=1
libbluray/bdnav/index_parse.c:162: indx_parse(): error opening /Users/andrewpross/Desktop/Things to watch/Need to go through Handbrake/Lord of War.mkv/BDMV/index.bdmv
libbluray/bdnav/index_parse.c:162: indx_parse(): error opening /Users/andrewpross/Desktop/Things to watch/Need to go through Handbrake/Lord of War.mkv/BDMV/BACKUP/index.bdmv
libbluray/bluray.c:2182: nav_get_title_list(/Users/andrewpross/Desktop/Things to watch/Need to go through Handbrake/Lord of War.mkv) failed
[09:24:12] bd: not a bd - trying as a stream/file instead
libdvdnav: Using dvdnav version 5.0.1
libdvdread:DVDOpenFileUDF:UDFFindFile /VIDEO_TS/VIDEO_TS.IFO failed
libdvdread:DVDOpenFileUDF:UDFFindFile /VIDEO_TS/VIDEO_TS.BUP failed
libdvdread: Can't open file VIDEO_TS.IFO.
libdvdnav: vm: failed to read VIDEO_TS.IFO
[09:24:12] dvd: not a dvd - trying as a stream/file instead
Input #0, matroska,webm, from '/Users/andrewpross/Desktop/Things to watch/Need to go through Handbrake/Lord of War.mkv':
Duration: 02:01:43.29, start: 0.000000, bitrate: N/A
Chapter #0.0: start 0.000000, end 486.110625
Metadata:
title : Chapter 01
Chapter #0.1: start 486.110625, end 1045.919875
Metadata:
title : Chapter 02
Chapter #0.2: start 1045.919875, end 1478.852375
Metadata:
title : Chapter 03
Chapter #0.3: start 1478.852375, end 1967.090125
Metadata:
title : Chapter 04
Chapter #0.4: start 1967.090125, end 2531.153625
Metadata:
title : Chapter 05
Chapter #0.5: start 2531.153625, end 3129.876750
Metadata:
title : Chapter 06
Chapter #0.6: start 3129.876750, end 3629.751125
Metadata:
title : Chapter 07
Chapter #0.7: start 3629.751125, end 4131.252125
Metadata:
title : Chapter 08
Chapter #0.8: start 4131.252125, end 4659.655000
Metadata:
title : Chapter 09
Chapter #0.9: start 4659.655000, end 5096.341250
Metadata:
title : Chapter 10
Chapter #0.10: start 5096.341250, end 5555.424875
Metadata:
title : Chapter 11
Chapter #0.11: start 5555.424875, end 6382.125750
Metadata:
title : Chapter 12
Chapter #0.12: start 6382.125750, end 6855.974125
Metadata:
title : Chapter 13
Chapter #0.13: start 6855.974125, end 7303.296000
Metadata:
title : Chapter 14
Stream #0.0(eng): Video: mpeg2video (Main), yuv420p, 1920x1080 [PAR 1:1 DAR 16:9], 36000 kb/s, 23.98 fps, 1k tbn, 47.95 tbc
Metadata:
BPS-eng : 21229986
DURATION-eng : 02:01:43.296000000
NUMBER_OF_FRAMES-eng: 175104
NUMBER_OF_BYTES-eng: 19381109166
SOURCE_ID-eng : 001011
_STATISTICS_WRITING_APP-eng: MakeMKV v1.9.9 darwin(x86-release)
_STATISTICS_WRITING_DATE_UTC-eng: 2016-04-15 03:48:48
_STATISTICS_TAGS-eng: BPS DURATION NUMBER_OF_FRAMES NUMBER_OF_BYTES SOURCE_ID
Stream #0.1(eng): Audio: dca (DTS-ES), 48000 Hz, 6.1, fltp, 1536 kb/s (default)
Metadata:
title : Surround 5.1
BPS-eng : 1509000
DURATION-eng : 02:01:43.296000000
NUMBER_OF_FRAMES-eng: 684684
NUMBER_OF_BYTES-eng: 1377584208
SOURCE_ID-eng : 001100
_STATISTICS_WRITING_APP-eng: MakeMKV v1.9.9 darwin(x86-release)
_STATISTICS_WRITING_DATE_UTC-eng: 2016-04-15 03:48:48
_STATISTICS_TAGS-eng: BPS DURATION NUMBER_OF_FRAMES NUMBER_OF_BYTES SOURCE_ID
Stream #0.2(eng): Audio: ac3, 48000 Hz, 5.1, fltp, 640 kb/s
Metadata:
title : Surround 5.1
BPS-eng : 640000
DURATION-eng : 02:01:43.296000000
NUMBER_OF_FRAMES-eng: 228228
NUMBER_OF_BYTES-eng: 584263680
SOURCE_ID-eng : 001101
_STATISTICS_WRITING_APP-eng: MakeMKV v1.9.9 darwin(x86-release)
_STATISTICS_WRITING_DATE_UTC-eng: 2016-04-15 03:48:48
_STATISTICS_TAGS-eng: BPS DURATION NUMBER_OF_FRAMES NUMBER_OF_BYTES SOURCE_ID
Stream #0.3(eng): Subtitle: pgssub
Metadata:
BPS-eng : 40565
DURATION-eng : 01:54:16.537187500
NUMBER_OF_FRAMES-eng: 2756
NUMBER_OF_BYTES-eng: 34767343
SOURCE_ID-eng : 001200
_STATISTICS_WRITING_APP-eng: MakeMKV v1.9.9 darwin(x86-release)
_STATISTICS_WRITING_DATE_UTC-eng: 2016-04-15 03:48:48
_STATISTICS_TAGS-eng: BPS DURATION NUMBER_OF_FRAMES NUMBER_OF_BYTES SOURCE_ID
[09:24:12] scan: decoding previews for title 1
[09:24:12] scan: audio 0x1: dca, rate=48000Hz, bitrate=1536000 English (DTS-ES) (6.1 ch)
[09:24:12] scan: audio 0x2: ac3, rate=48000Hz, bitrate=640000 English (AC3) (5.1 ch) (Dolby Digital EX)
[09:24:13] scan: 10 previews, 1920x1080, 23.976 fps, autocrop = 140/142/0/0, aspect 16:9, PAR 1:1
[09:24:13] libhb: scan thread found 1 valid title(s)
[09:24:13] macgui: ScanDone state received from fQueueEncodeLibhb
[09:24:13] macgui: Preset: Blu Ray (Default)
[09:24:13] macgui: processNewQueueEncode number of passes expected is: 1
[09:24:13] macgui: Start / Stop set to chapters
[09:24:13] macgui: Foreign Language Search: 1
[09:24:13] macgui: prepareJob exiting
[09:24:13] 2 job(s) to process
[09:24:13] starting job
[09:24:13] yadif thread started for segment 0
[09:24:13] yadif thread started for segment 1
[09:24:13] yadif thread started for segment 2
[09:24:13] yadif thread started for segment 3
[09:24:13] sync: expecting 23801 video frames
[09:24:13] job configuration:
[09:24:13] * source
[09:24:13] + /Users/andrewpross/Desktop/Things to watch/Need to go through Handbrake/Lord of War.mkv
[09:24:13] + title 1, chapter(s) 2 to 3
[09:24:13] + container: matroska,webm
[09:24:13] * destination
[09:24:13] + /Users/andrewpross/Desktop/Things to watch/Lord Of War.m4v
[09:24:13] + container: MPEG-4 (libavformat)
[09:24:13] + optimized for HTTP streaming (fast start)
[09:24:13] + chapter markers
[09:24:13] * video track
[09:24:13] + decoder: mpeg2video
[09:24:13] + bitrate 36000 kbps
[09:24:13] + filters
[09:24:13] + Decomb (7:2:6:9:1:80)
[09:24:13] + Framerate Shaper (0:27000000:1126125)
[09:24:13] + frame rate: same as source (around 23.976 fps)
[09:24:13] + Crop and Scale (1920:798:140:142:0:0)
[09:24:13] + source: 1920 * 1080, crop (140/142/0/0): 1920 * 798, scale: 1920 * 798
[09:24:13] + strict anamorphic
[09:24:13] + storage dimensions: 1920 * 798, mod 2
[09:24:13] + pixel aspect ratio: 1 / 1
[09:24:13] + display dimensions: 1920 * 798
[09:24:13] * Foreign Audio Search: Render/Burn-in, Forced Only
[09:24:13] + subtitle, English (track 3, id 0x3) Picture [PGS]
[09:24:13] decomb filter thread started for segment 1
[09:24:13] decomb filter thread started for segment 2
[09:24:13] decomb filter thread started for segment 0
[09:24:13] decomb filter thread started for segment 3
[09:24:13] decomb check thread started for segment 1
[09:24:13] decomb check thread started for segment 0
[09:24:13] decomb check thread started for segment 2
[09:24:13] decomb check thread started for segment 3
[09:24:14] macgui: Queue reloaded
[09:24:44] reader: end of chapter 3 (media 3) reached at media chapter 4
[09:24:44] reader: done. 1 scr changes
[09:24:44] work: average encoding speed for job is 0.000000 fps
[09:24:44] decomb: deinterlaced 0 | blended 0 | unfiltered 0 | total 0
[09:24:44] render: lost time: 0 (0 frames)
[09:24:44] render: gained time: 0 (0 frames) (0 not accounted for)
[09:24:44] mpeg2video-decoder done: 0 frames, 0 decoder errors, 0 drops
[09:24:44] Subtitle track 3 (id 0x3) 'English': 222 hits (0 forced)
[09:24:44] No candidate detected during subtitle scan
[09:24:44] starting job
[09:24:44] yadif thread started for segment 0
[09:24:44] yadif thread started for segment 1
[09:24:44] yadif thread started for segment 2
[09:24:44] yadif thread started for segment 3
[09:24:44] decomb filter thread started for segment 0
[09:24:44] decomb filter thread started for segment 1
[09:24:44] decomb filter thread started for segment 2
[09:24:44] decomb filter thread started for segment 3
[09:24:44] decomb check thread started for segment 0
[09:24:44] decomb check thread started for segment 1
[09:24:44] decomb check thread started for segment 2
[09:24:44] decomb check thread started for segment 3
[09:24:44] sync: expecting 23801 video frames
[09:24:44] job configuration:
[09:24:44] * source
[09:24:44] + /Users/andrewpross/Desktop/Things to watch/Need to go through Handbrake/Lord of War.mkv
[09:24:44] + title 1, chapter(s) 2 to 3
[09:24:44] + container: matroska,webm
[09:24:44] * destination
[09:24:44] + /Users/andrewpross/Desktop/Things to watch/Lord Of War.m4v
[09:24:44] + container: MPEG-4 (libavformat)
[09:24:44] + optimized for HTTP streaming (fast start)
[09:24:44] + chapter markers
[09:24:44] * video track
[09:24:44] + decoder: mpeg2video
[09:24:44] + bitrate 36000 kbps
[09:24:44] + filters
[09:24:44] + Decomb (7:2:6:9:1:80)
[09:24:44] + Framerate Shaper (0:27000000:1126125)
[09:24:44] + frame rate: same as source (around 23.976 fps)
[09:24:44] + Crop and Scale (1920:798:140:142:0:0)
[09:24:44] + source: 1920 * 1080, crop (140/142/0/0): 1920 * 798, scale: 1920 * 798
[09:24:44] + strict anamorphic
[09:24:44] + storage dimensions: 1920 * 798, mod 2
[09:24:44] + pixel aspect ratio: 1 / 1
[09:24:44] + display dimensions: 1920 * 798
[09:24:44] + encoder: H.264 (libx264)
[09:24:44] + options: b-adapt=2:rc-lookahead=50:direct=auto
[09:24:44] + quality: 21.00 (RF)
[09:24:44] * audio track 1
[09:24:44] + decoder: English (DTS-ES) (6.1 ch) (track 1, id 0x1)
[09:24:44] + bitrate: 1536 kbps, samplerate: 48000 Hz
[09:24:44] + mixdown: Dolby Pro Logic II
[09:24:44] + gain: 2dB
[09:24:44] + encoder: AAC (Apple AudioToolbox)
[09:24:44] + bitrate: 160 kbps, samplerate: 48000 Hz
[09:24:44] * audio track 2
[09:24:44] + decoder: English (DTS-ES) (6.1 ch) (track 1, id 0x1)
[09:24:44] + bitrate: 1536 kbps, samplerate: 48000 Hz
[09:24:44] + mixdown: 5.1 Channels
[09:24:44] + gain: 2dB
[09:24:44] + encoder: AC3 (libavcodec)
[09:24:44] + bitrate: 640 kbps, samplerate: 48000 Hz
[09:24:44] encx264: min-keyint: 24, keyint: 240
[09:24:44] encx264: encoding at constant RF 21.000000
[09:24:44] encx264: unparsed options: b-adapt=2:rc-lookahead=50:direct=auto
[09:24:44] reader: first SCR 43716150 id 0x0 DTS 43716150
x264 [info]: using SAR=1/1
x264 [info]: using cpu capabilities: MMX2 SSE2Fast SSSE3 SSE4.2 AVX
x264 [info]: profile High, level 4.0
[09:56:05] mpeg2video: "Chapter 3" (3) at frame 13441 time 50416650
[10:21:45] reader: end of chapter 3 (media 3) reached at media chapter 4
[10:21:45] reader: done. 1 scr changes
[10:22:06] work: average encoding speed for job is 6.938626 fps
[10:22:07] sync: got 23814 frames, 23801 expected
[10:22:07] decomb: deinterlaced 17 | blended 126 | unfiltered 23670 | total 23813
[10:22:07] render: lost time: 0 (0 frames)
[10:22:07] render: gained time: 0 (0 frames) (0 not accounted for)
[10:22:07] mpeg2video-decoder done: 23815 frames, 0 decoder errors, 0 drops
x264 [info]: frame I:234 Avg QP:19.61 size:176104
x264 [info]: frame P:6850 Avg QP:22.62 size: 69017
x264 [info]: frame B:16729 Avg QP:23.83 size: 39912
x264 [info]: consecutive B-frames: 1.5% 3.0% 34.2% 61.3%
x264 [info]: mb I I16..4: 3.8% 79.7% 16.5%
x264 [info]: mb P I16..4: 0.9% 16.0% 1.9% P16..4: 42.7% 19.3% 11.3% 0.0% 0.0% skip: 8.0%
x264 [info]: mb B I16..4: 0.1% 4.6% 0.3% B16..8: 55.2% 7.9% 2.0% direct: 8.7% skip:21.1% L0:44.3% L1:48.0% BI: 7.7%
x264 [info]: 8x8 transform intra:87.0% inter:61.4%
x264 [info]: direct mvs spatial:100.0% temporal:0.0%
x264 [info]: coded y,uvDC,uvAC intra: 90.6% 69.5% 26.0% inter: 43.7% 35.1% 1.1%
x264 [info]: i16 v,h,dc,p: 19% 13% 13% 55%
x264 [info]: i8 v,h,dc,ddl,ddr,vr,hd,vl,hu: 10% 10% 36% 7% 7% 7% 7% 7% 8%
x264 [info]: i4 v,h,dc,ddl,ddr,vr,hd,vl,hu: 14% 17% 17% 8% 10% 8% 10% 7% 9%
x264 [info]: i8c dc,h,v,p: 57% 18% 19% 6%
x264 [info]: Weighted P-Frames: Y:2.2% UV:1.3%
x264 [info]: ref P L0: 48.1% 12.9% 27.9% 10.9% 0.2%
x264 [info]: ref B L0: 76.1% 19.7% 4.1%
x264 [info]: ref B L1: 89.9% 10.1%
x264 [info]: kb/s:9518.38
[10:22:07] dca-decoder done: 0 frames, 0 decoder errors, 0 drops
[10:22:07] dca-decoder done: 0 frames, 0 decoder errors, 0 drops
[10:22:58] mux: track 0, 23813 frames, 1181647652 bytes, 9517.50 kbps, fifo 512
[10:22:58] mux: track 1, 46558 frames, 20412880 bytes, 164.41 kbps, fifo 1024
[10:22:58] mux: track 2, 31038 frames, 79457280 bytes, 639.98 kbps, fifo 1024
[10:22:58] libhb: work result = 0
[10:22:59] macgui: incrementQueueItemDone there are no more pending encodes
[10:23:06] macgui: Queue reloaded






Windows:

[10:22:46] CPU: Intel(R) Core(TM) i5 CPU M 460 @ 2.53GHz
[10:22:46] - logical processor count: 4
[10:22:46] OpenCL: library not available
[10:22:46] Intel Quick Sync Video support: no
[10:22:46] hb_scan: path=E:\Lord of War.mkv, title_index=0
libbluray/bdnav/index_parse.c:162: indx_parse(): error opening E:\Lord of War.mkv/BDMV/index.bdmv
libbluray/bdnav/index_parse.c:162: indx_parse(): error opening E:\Lord of War.mkv/BDMV/BACKUP/index.bdmv
libbluray/bluray.c:2182: nav_get_title_list(E:\Lord of War.mkv) failed
[10:22:46] bd: not a bd - trying as a stream/file instead
libdvdnav: Using dvdnav version 5.0.1
libdvdread: Encrypted DVD support unavailable.
libdvdread:DVDOpenFileUDF:UDFFindFile /VIDEO_TS/VIDEO_TS.IFO failed
libdvdread:DVDOpenFileUDF:UDFFindFile /VIDEO_TS/VIDEO_TS.BUP failed
libdvdread: Can't open file VIDEO_TS.IFO.
libdvdnav: vm: failed to read VIDEO_TS.IFO
[10:22:46] dvd: not a dvd - trying as a stream/file instead
Input #0, matroska,webm, from 'E:\Lord of War.mkv':
Duration: 02:01:43.29, start: 0.000000, bitrate: N/A
Chapter #0.0: start 0.000000, end 486.110625
Metadata:
title : Chapter 01
Chapter #0.1: start 486.110625, end 1045.919875
Metadata:
title : Chapter 02
Chapter #0.2: start 1045.919875, end 1478.852375
Metadata:
title : Chapter 03
Chapter #0.3: start 1478.852375, end 1967.090125
Metadata:
title : Chapter 04
Chapter #0.4: start 1967.090125, end 2531.153625
Metadata:
title : Chapter 05
Chapter #0.5: start 2531.153625, end 3129.876750
Metadata:
title : Chapter 06
Chapter #0.6: start 3129.876750, end 3629.751125
Metadata:
title : Chapter 07
Chapter #0.7: start 3629.751125, end 4131.252125
Metadata:
title : Chapter 08
Chapter #0.8: start 4131.252125, end 4659.655000
Metadata:
title : Chapter 09
Chapter #0.9: start 4659.655000, end 5096.341250
Metadata:
title : Chapter 10
Chapter #0.10: start 5096.341250, end 5555.424875
Metadata:
title : Chapter 11
Chapter #0.11: start 5555.424875, end 6382.125750
Metadata:
title : Chapter 12
Chapter #0.12: start 6382.125750, end 6855.974125
Metadata:
title : Chapter 13
Chapter #0.13: start 6855.974125, end 7303.296000
Metadata:
title : Chapter 14
Stream #0.0(eng): Video: mpeg2video (Main), yuv420p, 1920x1080 [PAR 1:1 DAR 16:9], 36000 kb/s, 23.98 fps, 1k tbn, 47.95 tbc
Metadata:
BPS-eng : 21229986
DURATION-eng : 02:01:43.296000000
NUMBER_OF_FRAMES-eng: 175104
NUMBER_OF_BYTES-eng: 19381109166
SOURCE_ID-eng : 001011
_STATISTICS_WRITING_APP-eng: MakeMKV v1.9.9 darwin(x86-release)
_STATISTICS_WRITING_DATE_UTC-eng: 2016-04-15 03:48:48
_STATISTICS_TAGS-eng: BPS DURATION NUMBER_OF_FRAMES NUMBER_OF_BYTES SOURCE_ID
Stream #0.1(eng): Audio: dca (DTS-ES), 48000 Hz, 6.1, fltp, 1536 kb/s (default)
Metadata:
title : Surround 5.1
BPS-eng : 1509000
DURATION-eng : 02:01:43.296000000
NUMBER_OF_FRAMES-eng: 684684
NUMBER_OF_BYTES-eng: 1377584208
SOURCE_ID-eng : 001100
_STATISTICS_WRITING_APP-eng: MakeMKV v1.9.9 darwin(x86-release)
_STATISTICS_WRITING_DATE_UTC-eng: 2016-04-15 03:48:48
_STATISTICS_TAGS-eng: BPS DURATION NUMBER_OF_FRAMES NUMBER_OF_BYTES SOURCE_ID
Stream #0.2(eng): Audio: ac3, 48000 Hz, 5.1, fltp, 640 kb/s
Metadata:
title : Surround 5.1
BPS-eng : 640000
DURATION-eng : 02:01:43.296000000
NUMBER_OF_FRAMES-eng: 228228
NUMBER_OF_BYTES-eng: 584263680
SOURCE_ID-eng : 001101
_STATISTICS_WRITING_APP-eng: MakeMKV v1.9.9 darwin(x86-release)
_STATISTICS_WRITING_DATE_UTC-eng: 2016-04-15 03:48:48
_STATISTICS_TAGS-eng: BPS DURATION NUMBER_OF_FRAMES NUMBER_OF_BYTES SOURCE_ID
Stream #0.3(eng): Subtitle: pgssub
Metadata:
BPS-eng : 40565
DURATION-eng : 01:54:16.537187500
NUMBER_OF_FRAMES-eng: 2756
NUMBER_OF_BYTES-eng: 34767343
SOURCE_ID-eng : 001200
_STATISTICS_WRITING_APP-eng: MakeMKV v1.9.9 darwin(x86-release)
_STATISTICS_WRITING_DATE_UTC-eng: 2016-04-15 03:48:48
_STATISTICS_TAGS-eng: BPS DURATION NUMBER_OF_FRAMES NUMBER_OF_BYTES SOURCE_ID
[10:22:46] scan: decoding previews for title 1
[10:22:46] scan: audio 0x1: dca, rate=48000Hz, bitrate=1536000 English (DTS-ES) (6.1 ch)
[10:22:46] scan: audio 0x2: ac3, rate=48000Hz, bitrate=640000 English (AC3) (5.1 ch) (Dolby Digital EX)
[10:22:48] scan: 10 previews, 1920x1080, 23.976 fps, autocrop = 140/142/0/0, aspect 16:9, PAR 1:1
[10:22:48] libhb: scan thread found 1 valid title(s)

Post Reply