Handbrake stopped compressing MP4's last night. It's reducing MP4 files to 0 bytes.

HandBrake for Mac support
Forum rules
An Activity Log is required for support requests. Please read How-to get an activity log? for details on how and why this should be provided.
Post Reply
magentawave
Posts: 19
Joined: Sun Jun 15, 2014 1:57 am

Handbrake stopped compressing MP4's last night. It's reducing MP4 files to 0 bytes.

Post by magentawave »

Handbrake was working great for months for compressing MP4 files until last night (3-26-15). When I try to compress MP4's of any size now it finishes them super fast and they end up being zero bytes. This happens regardless of the MP4 file I try to compress or the size of the MP4 file I start out with. I quit Handbrake and deleted everything from the queue and restarted it but that doesn't fix it. I haven't made any other changes to my computer, as in no OSX updates lately. I've also been using the exact same saved compression Presets that I've been using for a long time. In other words, trying to compress files in the exact same way that worked successfully for many months prior to last night is no longer working.

Thank you. :D

Handbrake 6509svn x86_64 (2014110901)
Mac OSX 10.9.5


Below is everything from the Activity Window from when I tried to compress three different MP4 files that ranged from 370 MB to 623 MB.

Code: Select all

[12:57:04] macgui: Handbrake Version: 6509svn x86_64 (2014110901)
[12:57:04] hb_init: starting libhb thread
[12:57:04] hb_init: starting libhb thread
[12:57:04] macgui: hbInstances path to this instance: /Applications/HandBrake.app
[12:57:04] macgui: hbInstance found instance pidnum: 74477 at path: /Applications/HandBrake.app
[12:57:04] macgui: hbInstance MATCH FOUND, our pidnum is: 74477
[12:57:04] macgui: Pid for this instance: 74477
[12:57:04] macgui: HBQueueController : My Pidnum is 74477
[12:57:08] macgui: Queue reloaded
[12:57:55] macgui: trying to open video_ts folder (parent directory chosen)
[12:57:55] macgui: scanning titles with a duration of 10 seconds or more
[12:57:55] CPU: Intel(R) Core(TM)2 Duo CPU     T9300  @ 2.50GHz
[12:57:55]  - logical processor count: 2
[12:57:56] OpenCL device #1: NVIDIA GeForce 8600M GT
[12:57:56]  - OpenCL version: 1.0 
[12:57:56]  - driver version: 8.24.16 310.90.9.05f01
[12:57:56]  - device type:    GPU
[12:57:56]  - supported:      no
[12:57:56] hb_scan: path=/Volumes/Data/TV SHOWS/The Sopranos - 1999-2007/1-Sopranos/The Sopranos Season 1 Episode 01 - Pilot.mp4, title_index=0
libbluray/bdnav/index_parse.c:162: indx_parse(): error opening /Volumes/Data/TV SHOWS/The Sopranos - 1999-2007/1-Sopranos/The Sopranos Season 1 Episode 01 - Pilot.mp4/BDMV/index.bdmv
libbluray/bdnav/index_parse.c:162: indx_parse(): error opening /Volumes/Data/TV SHOWS/The Sopranos - 1999-2007/1-Sopranos/The Sopranos Season 1 Episode 01 - Pilot.mp4/BDMV/BACKUP/index.bdmv
libbluray/bluray.c:2182: nav_get_title_list(/Volumes/Data/TV SHOWS/The Sopranos - 1999-2007/1-Sopranos/The Sopranos Season 1 Episode 01 - Pilot.mp4) failed
[12:57:56] bd: not a bd - trying as a stream/file instead
libdvdnav: Using dvdnav version 5.0.1
libdvdread: Encrypted DVD support unavailable.
libdvdread:DVDOpenFileUDF:UDFFindFile /VIDEO_TS/VIDEO_TS.IFO failed
libdvdread:DVDOpenFileUDF:UDFFindFile /VIDEO_TS/VIDEO_TS.BUP failed
libdvdread: Can't open file VIDEO_TS.IFO.
libdvdnav: vm: failed to read VIDEO_TS.IFO
[12:57:56] dvd: not a dvd - trying as a stream/file instead
Input #0, mov,mp4,m4a,3gp,3g2,mj2, from '/Volumes/Data/TV SHOWS/The Sopranos - 1999-2007/1-Sopranos/The Sopranos Season 1 Episode 01 - Pilot.mp4':
  Metadata:
    major_brand     : mp42
    minor_version   : 0
    compatible_brands: mp42isomavc1
    creation_time   : 2014-04-06 21:26:38
    encoder         : HandBrake 0.9.9 2013051800
  Duration: 01:00:00.01, start: 0.000000, bitrate: 1385 kb/s
    Stream #0.0(und): Video: h264 (Main), yuv420p, 720x416 [PAR 1:1 DAR 45:26], 1216 kb/s, 23.98 fps, 90k tbn, 180k tbc (default)
    Metadata:
      creation_time   : 2014-04-06 21:26:38
    Stream #0.1(und): Audio: aac, 48000 Hz, stereo, fltp, 164 kb/s (default)
    Metadata:
      creation_time   : 2014-04-06 21:26:38
[12:57:58] scan: decoding previews for title 1
Input #0, mov,mp4,m4a,3gp,3g2,mj2, from '/Volumes/Data/TV SHOWS/The Sopranos - 1999-2007/1-Sopranos/The Sopranos Season 1 Episode 01 - Pilot.mp4':
  Metadata:
    major_brand     : mp42
    minor_version   : 0
    compatible_brands: mp42isomavc1
    creation_time   : 2014-04-06 21:26:38
    encoder         : HandBrake 0.9.9 2013051800
  Duration: 01:00:00.01, start: 0.000000, bitrate: 1385 kb/s
    Stream #0.0(und): Video: h264 (Main), yuv420p, 720x416 [PAR 1:1 DAR 45:26], 1216 kb/s, 23.98 fps, 90k tbn, 180k tbc (default)
    Metadata:
      creation_time   : 2014-04-06 21:26:38
    Stream #0.1(und): Audio: aac, 48000 Hz, stereo, fltp, 164 kb/s (default)
    Metadata:
      creation_time   : 2014-04-06 21:26:38
[12:57:59] scan: audio 0x1: aac, rate=48000Hz, bitrate=164543 Unknown (AAC) (2.0 ch)
[12:58:00] scan: 10 previews, 720x416, 23.976 fps, autocrop = 0/0/0/0, aspect 1.73:1, PAR 1:1
[12:58:00] libhb: scan thread found 1 valid title(s)
[12:58:00] macgui: ScanDone state received from fHandle
[12:58:00] macgui: showNewScan: This is a new source item scan
[12:58:04] macgui: Queue reloaded
[12:58:07] macgui: Rip: Pending queue count is 1
[12:58:07] macgui: getNextPendingQueueIndex next pending encode index is:0
[12:58:07] macgui: scanning specifically for title: 1
[12:58:07] CPU: Intel(R) Core(TM)2 Duo CPU     T9300  @ 2.50GHz
[12:58:07]  - logical processor count: 2
[12:58:07] OpenCL device #1: NVIDIA GeForce 8600M GT
[12:58:07]  - OpenCL version: 1.0 
[12:58:07]  - driver version: 8.24.16 310.90.9.05f01
[12:58:07]  - device type:    GPU
[12:58:07]  - supported:      no
[12:58:07] hb_scan: path=/Volumes/Data/TV SHOWS/The Sopranos - 1999-2007/1-Sopranos/The Sopranos Season 1 Episode 01 - Pilot.mp4, title_index=1
libbluray/bdnav/index_parse.c:162: indx_parse(): error opening /Volumes/Data/TV SHOWS/The Sopranos - 1999-2007/1-Sopranos/The Sopranos Season 1 Episode 01 - Pilot.mp4/BDMV/index.bdmv
libbluray/bdnav/index_parse.c:162: indx_parse(): error opening /Volumes/Data/TV SHOWS/The Sopranos - 1999-2007/1-Sopranos/The Sopranos Season 1 Episode 01 - Pilot.mp4/BDMV/BACKUP/index.bdmv
libbluray/bluray.c:2182: nav_get_title_list(/Volumes/Data/TV SHOWS/The Sopranos - 1999-2007/1-Sopranos/The Sopranos Season 1 Episode 01 - Pilot.mp4) failed
[12:58:07] bd: not a bd - trying as a stream/file instead
libdvdnav: Using dvdnav version 5.0.1
libdvdread: Encrypted DVD support unavailable.
libdvdread:DVDOpenFileUDF:UDFFindFile /VIDEO_TS/VIDEO_TS.IFO failed
libdvdread:DVDOpenFileUDF:UDFFindFile /VIDEO_TS/VIDEO_TS.BUP failed
libdvdread: Can't open file VIDEO_TS.IFO.
libdvdnav: vm: failed to read VIDEO_TS.IFO
[12:58:07] dvd: not a dvd - trying as a stream/file instead
Input #0, mov,mp4,m4a,3gp,3g2,mj2, from '/Volumes/Data/TV SHOWS/The Sopranos - 1999-2007/1-Sopranos/The Sopranos Season 1 Episode 01 - Pilot.mp4':
  Metadata:
    major_brand     : mp42
    minor_version   : 0
    compatible_brands: mp42isomavc1
    creation_time   : 2014-04-06 21:26:38
    encoder         : HandBrake 0.9.9 2013051800
  Duration: 01:00:00.01, start: 0.000000, bitrate: 1385 kb/s
    Stream #0.0(und): Video: h264 (Main), yuv420p, 720x416 [PAR 1:1 DAR 45:26], 1216 kb/s, 23.98 fps, 90k tbn, 180k tbc (default)
    Metadata:
      creation_time   : 2014-04-06 21:26:38
    Stream #0.1(und): Audio: aac, 48000 Hz, stereo, fltp, 164 kb/s (default)
    Metadata:
      creation_time   : 2014-04-06 21:26:38
[12:58:07] scan: decoding previews for title 1
Input #0, mov,mp4,m4a,3gp,3g2,mj2, from '/Volumes/Data/TV SHOWS/The Sopranos - 1999-2007/1-Sopranos/The Sopranos Season 1 Episode 01 - Pilot.mp4':
  Metadata:
    major_brand     : mp42
    minor_version   : 0
    compatible_brands: mp42isomavc1
    creation_time   : 2014-04-06 21:26:38
    encoder         : HandBrake 0.9.9 2013051800
  Duration: 01:00:00.01, start: 0.000000, bitrate: 1385 kb/s
    Stream #0.0(und): Video: h264 (Main), yuv420p, 720x416 [PAR 1:1 DAR 45:26], 1216 kb/s, 23.98 fps, 90k tbn, 180k tbc (default)
    Metadata:
      creation_time   : 2014-04-06 21:26:38
    Stream #0.1(und): Audio: aac, 48000 Hz, stereo, fltp, 164 kb/s (default)
    Metadata:
      creation_time   : 2014-04-06 21:26:38
[12:58:07] scan: audio 0x1: aac, rate=48000Hz, bitrate=164543 Unknown (AAC) (2.0 ch)
[12:58:07] macgui: Queue reloaded
[12:58:07] scan: 10 previews, 720x416, 23.976 fps, autocrop = 0/0/0/0, aspect 1.73:1, PAR 1:1
[12:58:07] libhb: scan thread found 1 valid title(s)
[12:58:07] macgui: ScanDone state received from fQueueEncodeLibhb
[12:58:07] macgui: Preset: EBS-Settings
[12:58:07] macgui: processNewQueueEncode number of passes expected is: 1
[12:58:07] macgui: Start / Stop set to chapters
[12:58:07] macgui: prepareJob exiting
[12:58:07] 1 job(s) to process
[12:58:07] starting job
[12:58:07] sync: expecting 86313 video frames
[12:58:07] job configuration:
[12:58:07]  * source
[12:58:07]    + /Volumes/Data/TV SHOWS/The Sopranos - 1999-2007/1-Sopranos/The Sopranos Season 1 Episode 01 - Pilot.mp4
[12:58:07]    + title 1, chapter(s) 1 to 1
[12:58:07]    + container: mov,mp4,m4a,3gp,3g2,mj2
[12:58:07]    + data rate: 1385 kbps
[12:58:07]  * destination
[12:58:07]    + /Volumes/Data/The Sopranos Season 1 Episode 01 - Pilot.mp4
[12:58:07]    + container: MPEG-4 (libavformat)
[12:58:07]      + optimized for HTTP streaming (fast start)
[12:58:07]  * video track
[12:58:07]    + decoder: h264
[12:58:07]      + bitrate 1216 kbps
[12:58:07]    + filters
[12:58:07]      + Framerate Shaper (2:27000000:1800000)
[12:58:07]        + frame rate: 23.976 fps -> peak rate limited to 15.000 fps
[12:58:07]      + Crop and Scale (640:368:0:0:0:0)
[12:58:07]        + source: 720 * 416, crop (0/0/0/0): 720 * 416, scale: 640 * 368
[12:58:07]    + dimensions: 640 * 368, mod 16
[12:58:07]    + encoder: H.264 (libx264)
[12:58:07]      + preset:  veryfast
[12:58:07]      + profile: main
[12:58:07]      + level:   4.0
[12:58:07]      + quality: 25.00 (RF)
[12:58:07]  * audio track 1
[12:58:07]    + decoder: Unknown (AAC) (2.0 ch) (track 1, id 0x1)
[12:58:07]      + bitrate: 164 kbps, samplerate: 48000 Hz
[12:58:07]    + mixdown: Stereo
[12:58:07]    + encoder: AAC (Apple AudioToolbox)
[12:58:07]      + bitrate: 128 kbps, samplerate: 48000 Hz
[12:58:08] macgui: Queue reloaded
[12:58:08] reader: first SCR 0 id 0x1 DTS 0
[12:58:08] encx264: min-keyint: 15, keyint: 150
[12:58:08] encx264: encoding at constant RF 25.000000
[12:58:08] encx264: unparsed options: level=4.0:ref=1:8x8dct=0:weightp=1:subme=2:mixed-refs=0:trellis=0:vbv-bufsize=25000:vbv-maxrate=20000:rc-lookahead=10
x264 [info]: using cpu capabilities: MMX2 SSE2Fast SSSE3 SSE4.1 Cache64
x264 [info]: profile Main, level 4.0
[12:58:18] macgui: trying to open video_ts folder (parent directory chosen)
[12:58:18] macgui: scanning titles with a duration of 10 seconds or more
[12:58:18] CPU: Intel(R) Core(TM)2 Duo CPU     T9300  @ 2.50GHz
[12:58:18]  - logical processor count: 2
[12:58:18] OpenCL device #1: NVIDIA GeForce 8600M GT
[12:58:18]  - OpenCL version: 1.0 
[12:58:18]  - driver version: 8.24.16 310.90.9.05f01
[12:58:18]  - device type:    GPU
[12:58:18]  - supported:      no
[12:58:18] hb_scan: path=/Volumes/Data/TV SHOWS/The Sopranos - 1999-2007/1-Sopranos/The Sopranos Season 1 Episode 02 - 46 Long.mp4, title_index=0
libbluray/bdnav/index_parse.c:162: indx_parse(): error opening /Volumes/Data/TV SHOWS/The Sopranos - 1999-2007/1-Sopranos/The Sopranos Season 1 Episode 02 - 46 Long.mp4/BDMV/index.bdmv
libbluray/bdnav/index_parse.c:162: indx_parse(): error opening /Volumes/Data/TV SHOWS/The Sopranos - 1999-2007/1-Sopranos/The Sopranos Season 1 Episode 02 - 46 Long.mp4/BDMV/BACKUP/index.bdmv
libbluray/bluray.c:2182: nav_get_title_list(/Volumes/Data/TV SHOWS/The Sopranos - 1999-2007/1-Sopranos/The Sopranos Season 1 Episode 02 - 46 Long.mp4) failed
[12:58:18] bd: not a bd - trying as a stream/file instead
libdvdnav: Using dvdnav version 5.0.1
libdvdread: Encrypted DVD support unavailable.
libdvdread:DVDOpenFileUDF:UDFFindFile /VIDEO_TS/VIDEO_TS.IFO failed
libdvdread:DVDOpenFileUDF:UDFFindFile /VIDEO_TS/VIDEO_TS.BUP failed
libdvdread: Can't open file VIDEO_TS.IFO.
libdvdnav: vm: failed to read VIDEO_TS.IFO
[12:58:18] dvd: not a dvd - trying as a stream/file instead
Input #0, mov,mp4,m4a,3gp,3g2,mj2, from '/Volumes/Data/TV SHOWS/The Sopranos - 1999-2007/1-Sopranos/The Sopranos Season 1 Episode 02 - 46 Long.mp4':
  Metadata:
    major_brand     : mp42
    minor_version   : 0
    compatible_brands: mp42isomavc1
    creation_time   : 2014-04-06 21:51:28
    encoder         : HandBrake 0.9.9 2013051800
  Duration: 00:49:42.48, start: 0.000000, bitrate: 1293 kb/s
    Stream #0.0(und): Video: h264 (Main), yuv420p, 720x416 [PAR 1:1 DAR 45:26], 1123 kb/s, 23.98 fps, 90k tbn, 180k tbc (default)
    Metadata:
      creation_time   : 2014-04-06 21:51:28
    Stream #0.1(und): Audio: aac, 48000 Hz, stereo, fltp, 164 kb/s (default)
    Metadata:
      creation_time   : 2014-04-06 21:51:28
[12:58:18] scan: decoding previews for title 1
Input #0, mov,mp4,m4a,3gp,3g2,mj2, from '/Volumes/Data/TV SHOWS/The Sopranos - 1999-2007/1-Sopranos/The Sopranos Season 1 Episode 02 - 46 Long.mp4':
  Metadata:
    major_brand     : mp42
    minor_version   : 0
    compatible_brands: mp42isomavc1
    creation_time   : 2014-04-06 21:51:28
    encoder         : HandBrake 0.9.9 2013051800
  Duration: 00:49:42.48, start: 0.000000, bitrate: 1293 kb/s
    Stream #0.0(und): Video: h264 (Main), yuv420p, 720x416 [PAR 1:1 DAR 45:26], 1123 kb/s, 23.98 fps, 90k tbn, 180k tbc (default)
    Metadata:
      creation_time   : 2014-04-06 21:51:28
    Stream #0.1(und): Audio: aac, 48000 Hz, stereo, fltp, 164 kb/s (default)
    Metadata:
      creation_time   : 2014-04-06 21:51:28
[12:58:18] scan: audio 0x1: aac, rate=48000Hz, bitrate=164276 Unknown (AAC) (2.0 ch)
[12:58:19] scan: 10 previews, 720x416, 23.976 fps, autocrop = 0/0/0/0, aspect 1.73:1, PAR 1:1
[12:58:19] libhb: scan thread found 1 valid title(s)
[12:58:19] macgui: ScanDone state received from fHandle
[12:58:19] macgui: showNewScan: This is a new source item scan
[12:58:35] macgui: Queue reloaded
[12:58:38] macgui: trying to open video_ts folder (parent directory chosen)
[12:58:38] macgui: scanning titles with a duration of 10 seconds or more
[12:58:38] CPU: Intel(R) Core(TM)2 Duo CPU     T9300  @ 2.50GHz
[12:58:38]  - logical processor count: 2
[12:58:38] OpenCL device #1: NVIDIA GeForce 8600M GT
[12:58:38]  - OpenCL version: 1.0 
[12:58:38]  - driver version: 8.24.16 310.90.9.05f01
[12:58:38]  - device type:    GPU
[12:58:38]  - supported:      no
[12:58:38] hb_scan: path=/Volumes/Data/TV SHOWS/The Sopranos - 1999-2007/1-Sopranos/The Sopranos Season 1 Episode 03 - Denial, Anger, Acceptance.mp4, title_index=0
libbluray/bdnav/index_parse.c:162: indx_parse(): error opening /Volumes/Data/TV SHOWS/The Sopranos - 1999-2007/1-Sopranos/The Sopranos Season 1 Episode 03 - Denial, Anger, Acceptance.mp4/BDMV/index.bdmv
libbluray/bdnav/index_parse.c:162: indx_parse(): error opening /Volumes/Data/TV SHOWS/The Sopranos - 1999-2007/1-Sopranos/The Sopranos Season 1 Episode 03 - Denial, Anger, Acceptance.mp4/BDMV/BACKUP/index.bdmv
libbluray/bluray.c:2182: nav_get_title_list(/Volumes/Data/TV SHOWS/The Sopranos - 1999-2007/1-Sopranos/The Sopranos Season 1 Episode 03 - Denial, Anger, Acceptance.mp4) failed
[12:58:38] bd: not a bd - trying as a stream/file instead
libdvdnav: Using dvdnav version 5.0.1
libdvdread: Encrypted DVD support unavailable.
libdvdread:DVDOpenFileUDF:UDFFindFile /VIDEO_TS/VIDEO_TS.IFO failed
libdvdread:DVDOpenFileUDF:UDFFindFile /VIDEO_TS/VIDEO_TS.BUP failed
libdvdread: Can't open file VIDEO_TS.IFO.
libdvdnav: vm: failed to read VIDEO_TS.IFO
[12:58:38] dvd: not a dvd - trying as a stream/file instead
Input #0, mov,mp4,m4a,3gp,3g2,mj2, from '/Volumes/Data/TV SHOWS/The Sopranos - 1999-2007/1-Sopranos/The Sopranos Season 1 Episode 03 - Denial, Anger, Acceptance.mp4':
  Metadata:
    major_brand     : mp42
    minor_version   : 0
    compatible_brands: mp42isomavc1
    creation_time   : 2014-04-06 12:43:53
    encoder         : HandBrake 0.9.9 2013051800
  Duration: 00:44:46.35, start: 0.000000, bitrate: 1103 kb/s
    Stream #0.0(und): Video: h264 (Main), yuv420p, 720x416 [PAR 1:1 DAR 45:26], 934 kb/s, 23.98 fps, 90k tbn, 180k tbc (default)
    Metadata:
      creation_time   : 2014-04-06 12:43:53
    Stream #0.1(und): Audio: aac, 48000 Hz, stereo, fltp, 163 kb/s (default)
    Metadata:
      creation_time   : 2014-04-06 12:43:53
[12:58:38] scan: decoding previews for title 1
Input #0, mov,mp4,m4a,3gp,3g2,mj2, from '/Volumes/Data/TV SHOWS/The Sopranos - 1999-2007/1-Sopranos/The Sopranos Season 1 Episode 03 - Denial, Anger, Acceptance.mp4':
  Metadata:
    major_brand     : mp42
    minor_version   : 0
    compatible_brands: mp42isomavc1
    creation_time   : 2014-04-06 12:43:53
    encoder         : HandBrake 0.9.9 2013051800
  Duration: 00:44:46.35, start: 0.000000, bitrate: 1103 kb/s
    Stream #0.0(und): Video: h264 (Main), yuv420p, 720x416 [PAR 1:1 DAR 45:26], 934 kb/s, 23.98 fps, 90k tbn, 180k tbc (default)
    Metadata:
      creation_time   : 2014-04-06 12:43:53
    Stream #0.1(und): Audio: aac, 48000 Hz, stereo, fltp, 163 kb/s (default)
    Metadata:
      creation_time   : 2014-04-06 12:43:53
[12:58:38] scan: audio 0x1: aac, rate=48000Hz, bitrate=163955 Unknown (AAC) (2.0 ch)
[12:58:39] scan: 10 previews, 720x416, 23.976 fps, autocrop = 0/0/0/0, aspect 1.73:1, PAR 1:1
[12:58:39] libhb: scan thread found 1 valid title(s)
[12:58:39] macgui: ScanDone state received from fHandle
[12:58:39] macgui: showNewScan: This is a new source item scan
[12:58:44] macgui: Queue reloaded
GUI ERROR dialog: avformatMux: track 1, av_interleaved_write_frame failed with error 'Operation not permitted'
[12:59:00] work: average encoding speed for job is 54.918365 fps
[12:59:00] sync: got 2864 frames, 86313 expected
[12:59:00] render: 1789 frames output, 1070 dropped and 0 duped for CFR/PFR
[12:59:00] render: lost time: 0 (0 frames)
[12:59:00] render: gained time: 0 (0 frames) (0 not accounted for)
[12:59:00] reader: done. 1 scr changes
[12:59:00] h264-decoder done: 2875 frames, 0 decoder errors, 0 drops
x264 [info]: frame I:77    Avg QP:21.41  size: 11666
x264 [info]: frame P:1339  Avg QP:25.06  size:  5397
x264 [info]: frame B:354   Avg QP:24.51  size:  1152
x264 [info]: consecutive B-frames: 68.0% 14.4%  4.7% 12.9%
x264 [info]: mb I  I16..4: 55.5%  0.0% 44.5%
x264 [info]: mb P  I16..4: 30.1%  0.0%  7.1%  P16..4: 24.8% 14.0%  6.0%  0.0%  0.0%    skip:18.1%
x264 [info]: mb B  I16..4:  1.8%  0.0%  0.3%  B16..8: 13.6%  5.3%  0.6%  direct: 5.5%  skip:73.0%  L0:31.5% L1:50.0% BI:18.5%
x264 [info]: coded y,uvDC,uvAC intra: 33.7% 34.6% 4.4% inter: 20.2% 13.3% 0.1%
x264 [info]: i16 v,h,dc,p: 33% 39% 18% 11%
x264 [info]: i4 v,h,dc,ddl,ddr,vr,hd,vl,hu: 19% 29% 20%  5%  5%  6%  5%  5%  5%
x264 [info]: i8c dc,h,v,p: 59% 24% 15%  3%
x264 [info]: Weighted P-Frames: Y:8.3% UV:4.6%
x264 [info]: kb/s:578.48
[12:59:01] aac-decoder done: 0 frames, 0 decoder errors, 0 drops
GUI ERROR dialog: avformatMux: track 1, av_interleaved_write_frame failed with error 'Operation not permitted'
GUI ERROR dialog: Last error repeated 8 times
GUI ERROR dialog: avformatMux: track 0, av_interleaved_write_frame failed with error 'Operation not permitted'
[12:59:01] mux: track 0, 1 frames, 946 bytes, 28.38 kbps, fifo 2048
[12:59:01] mux: track 1, 10 frames, 2332 bytes, 69.96 kbps, fifo 8192
[12:59:01] libhb: work result = 4
[12:59:01] macgui: getNextPendingQueueIndex next pending encode index is:1
[12:59:01] macgui: incrementQueueItemDone new pending items found: 1
[12:59:01] macgui: scanning specifically for title: 1
[12:59:01] CPU: Intel(R) Core(TM)2 Duo CPU     T9300  @ 2.50GHz
[12:59:01]  - logical processor count: 2
[12:59:01] OpenCL device #1: NVIDIA GeForce 8600M GT
[12:59:01]  - OpenCL version: 1.0 
[12:59:01]  - driver version: 8.24.16 310.90.9.05f01
[12:59:01]  - device type:    GPU
[12:59:01]  - supported:      no
[12:59:01] hb_scan: path=/Volumes/Data/TV SHOWS/The Sopranos - 1999-2007/1-Sopranos/The Sopranos Season 1 Episode 02 - 46 Long.mp4, title_index=1
libbluray/bdnav/index_parse.c:162: indx_parse(): error opening /Volumes/Data/TV SHOWS/The Sopranos - 1999-2007/1-Sopranos/The Sopranos Season 1 Episode 02 - 46 Long.mp4/BDMV/index.bdmv
libbluray/bdnav/index_parse.c:162: indx_parse(): error opening /Volumes/Data/TV SHOWS/The Sopranos - 1999-2007/1-Sopranos/The Sopranos Season 1 Episode 02 - 46 Long.mp4/BDMV/BACKUP/index.bdmv
libbluray/bluray.c:2182: nav_get_title_list(/Volumes/Data/TV SHOWS/The Sopranos - 1999-2007/1-Sopranos/The Sopranos Season 1 Episode 02 - 46 Long.mp4) failed
[12:59:01] bd: not a bd - trying as a stream/file instead
libdvdnav: Using dvdnav version 5.0.1
libdvdread: Encrypted DVD support unavailable.
libdvdread:DVDOpenFileUDF:UDFFindFile /VIDEO_TS/VIDEO_TS.IFO failed
libdvdread:DVDOpenFileUDF:UDFFindFile /VIDEO_TS/VIDEO_TS.BUP failed
libdvdread: Can't open file VIDEO_TS.IFO.
libdvdnav: vm: failed to read VIDEO_TS.IFO
[12:59:01] dvd: not a dvd - trying as a stream/file instead
Input #0, mov,mp4,m4a,3gp,3g2,mj2, from '/Volumes/Data/TV SHOWS/The Sopranos - 1999-2007/1-Sopranos/The Sopranos Season 1 Episode 02 - 46 Long.mp4':
  Metadata:
    major_brand     : mp42
    minor_version   : 0
    compatible_brands: mp42isomavc1
    creation_time   : 2014-04-06 21:51:28
    encoder         : HandBrake 0.9.9 2013051800
  Duration: 00:49:42.48, start: 0.000000, bitrate: 1293 kb/s
    Stream #0.0(und): Video: h264 (Main), yuv420p, 720x416 [PAR 1:1 DAR 45:26], 1123 kb/s, 23.98 fps, 90k tbn, 180k tbc (default)
    Metadata:
      creation_time   : 2014-04-06 21:51:28
    Stream #0.1(und): Audio: aac, 48000 Hz, stereo, fltp, 164 kb/s (default)
    Metadata:
      creation_time   : 2014-04-06 21:51:28
[12:59:02] scan: decoding previews for title 1
Input #0, mov,mp4,m4a,3gp,3g2,mj2, from '/Volumes/Data/TV SHOWS/The Sopranos - 1999-2007/1-Sopranos/The Sopranos Season 1 Episode 02 - 46 Long.mp4':
  Metadata:
    major_brand     : mp42
    minor_version   : 0
    compatible_brands: mp42isomavc1
    creation_time   : 2014-04-06 21:51:28
    encoder         : HandBrake 0.9.9 2013051800
  Duration: 00:49:42.48, start: 0.000000, bitrate: 1293 kb/s
    Stream #0.0(und): Video: h264 (Main), yuv420p, 720x416 [PAR 1:1 DAR 45:26], 1123 kb/s, 23.98 fps, 90k tbn, 180k tbc (default)
    Metadata:
      creation_time   : 2014-04-06 21:51:28
    Stream #0.1(und): Audio: aac, 48000 Hz, stereo, fltp, 164 kb/s (default)
    Metadata:
      creation_time   : 2014-04-06 21:51:28
[12:59:02] scan: audio 0x1: aac, rate=48000Hz, bitrate=164276 Unknown (AAC) (2.0 ch)
[12:59:03] scan: 10 previews, 720x416, 23.976 fps, autocrop = 0/0/0/0, aspect 1.73:1, PAR 1:1
[12:59:03] libhb: scan thread found 1 valid title(s)
[12:59:03] macgui: ScanDone state received from fQueueEncodeLibhb
[12:59:03] macgui: Preset: EBS-Settings
[12:59:03] macgui: processNewQueueEncode number of passes expected is: 1
[12:59:03] macgui: Start / Stop set to chapters
[12:59:03] macgui: prepareJob exiting
[12:59:03] 1 job(s) to process
[12:59:03] starting job
[12:59:03] sync: expecting 71508 video frames
[12:59:03] job configuration:
[12:59:03]  * source
[12:59:03]    + /Volumes/Data/TV SHOWS/The Sopranos - 1999-2007/1-Sopranos/The Sopranos Season 1 Episode 02 - 46 Long.mp4
[12:59:03]    + title 1, chapter(s) 1 to 1
[12:59:03]    + container: mov,mp4,m4a,3gp,3g2,mj2
[12:59:03]    + data rate: 1293 kbps
[12:59:03]  * destination
[12:59:03]    + /Volumes/Data/The Sopranos Season 1 Episode 02 - 46 Long.mp4
[12:59:03]    + container: MPEG-4 (libavformat)
[12:59:03]      + optimized for HTTP streaming (fast start)
[12:59:03]  * video track
[12:59:03]    + decoder: h264
[12:59:03]      + bitrate 1123 kbps
[12:59:03]    + filters
[12:59:03]      + Framerate Shaper (2:27000000:1800000)
[12:59:03]        + frame rate: 23.976 fps -> peak rate limited to 15.000 fps
[12:59:03]      + Crop and Scale (640:368:0:0:0:0)
[12:59:03]        + source: 720 * 416, crop (0/0/0/0): 720 * 416, scale: 640 * 368
[12:59:03]    + dimensions: 640 * 368, mod 16
[12:59:03]    + encoder: H.264 (libx264)
[12:59:03]      + preset:  veryfast
[12:59:03]      + profile: main
[12:59:03]      + level:   4.0
[12:59:03]      + quality: 25.00 (RF)
[12:59:03]  * audio track 1
[12:59:03]    + decoder: Unknown (AAC) (2.0 ch) (track 1, id 0x1)
[12:59:03]      + bitrate: 164 kbps, samplerate: 48000 Hz
[12:59:03]    + mixdown: Stereo
[12:59:03]    + encoder: AAC (Apple AudioToolbox)
[12:59:03]      + bitrate: 128 kbps, samplerate: 48000 Hz
[12:59:03] reader: first SCR 0 id 0x1 DTS 0
[12:59:03] encx264: min-keyint: 15, keyint: 150
[12:59:03] encx264: encoding at constant RF 25.000000
[12:59:03] encx264: unparsed options: level=4.0:ref=1:8x8dct=0:weightp=1:subme=2:mixed-refs=0:trellis=0:vbv-bufsize=25000:vbv-maxrate=20000:rc-lookahead=10
x264 [info]: using cpu capabilities: MMX2 SSE2Fast SSSE3 SSE4.1 Cache64
x264 [info]: profile Main, level 4.0
[12:59:05] macgui: Queue reloaded
GUI ERROR dialog: avformatMux: track 1, av_interleaved_write_frame failed with error 'Operation not permitted'
[13:00:26] reader: done. 1 scr changes
[13:00:26] work: average encoding speed for job is 60.400803 fps
[13:00:26] sync: got 5002 frames, 71508 expected
[13:00:26] render: 3126 frames output, 1871 dropped and 0 duped for CFR/PFR
[13:00:26] render: lost time: 0 (0 frames)
[13:00:26] render: gained time: 0 (0 frames) (0 not accounted for)
[13:00:26] h264-decoder done: 5013 frames, 0 decoder errors, 0 drops
x264 [info]: frame I:67    Avg QP:19.45  size: 17951
x264 [info]: frame P:1165  Avg QP:23.13  size:  4112
x264 [info]: frame B:1874  Avg QP:25.77  size:   615
x264 [info]: consecutive B-frames: 11.6% 15.6% 24.9% 47.9%
x264 [info]: mb I  I16..4: 44.7%  0.0% 55.3%
x264 [info]: mb P  I16..4: 12.4%  0.0%  3.1%  P16..4: 23.9% 11.6%  7.0%  0.0%  0.0%    skip:42.0%
x264 [info]: mb B  I16..4:  0.4%  0.0%  0.1%  B16..8:  7.5%  3.6%  0.5%  direct: 2.7%  skip:85.2%  L0:29.8% L1:47.7% BI:22.5%
x264 [info]: coded y,uvDC,uvAC intra: 40.6% 45.6% 14.3% inter: 7.2% 4.9% 0.1%
x264 [info]: i16 v,h,dc,p: 46% 27% 20%  7%
x264 [info]: i4 v,h,dc,ddl,ddr,vr,hd,vl,hu: 22% 20% 17%  7%  7%  8%  6%  7%  6%
x264 [info]: i8c dc,h,v,p: 58% 20% 19%  3%
x264 [info]: Weighted P-Frames: Y:2.8% UV:2.1%
x264 [info]: kb/s:276.06
[13:00:27] aac-decoder done: 0 frames, 0 decoder errors, 0 drops
GUI ERROR dialog: avformatMux: track 1, av_interleaved_write_frame failed with error 'Operation not permitted'
GUI ERROR dialog: Last error repeated 2 times
GUI ERROR dialog: avformatMux: track 0, av_interleaved_write_frame failed with error 'Operation not permitted'
[13:00:27] mux: track 0, 1 frames, 948 bytes, 56.88 kbps, fifo 4096
[13:00:27] mux: track 1, 4 frames, 24 bytes, 1.44 kbps, fifo 16384
[13:00:27] libhb: work result = 4
[13:00:27] macgui: getNextPendingQueueIndex next pending encode index is:2
[13:00:27] macgui: incrementQueueItemDone new pending items found: 2
[13:00:27] macgui: scanning specifically for title: 1
[13:00:27] CPU: Intel(R) Core(TM)2 Duo CPU     T9300  @ 2.50GHz
[13:00:27]  - logical processor count: 2
[13:00:27] OpenCL device #1: NVIDIA GeForce 8600M GT
[13:00:27]  - OpenCL version: 1.0 
[13:00:27]  - driver version: 8.24.16 310.90.9.05f01
[13:00:27]  - device type:    GPU
[13:00:27]  - supported:      no
[13:00:27] hb_scan: path=/Volumes/Data/TV SHOWS/The Sopranos - 1999-2007/1-Sopranos/The Sopranos Season 1 Episode 03 - Denial, Anger, Acceptance.mp4, title_index=1
libbluray/bdnav/index_parse.c:162: indx_parse(): error opening /Volumes/Data/TV SHOWS/The Sopranos - 1999-2007/1-Sopranos/The Sopranos Season 1 Episode 03 - Denial, Anger, Acceptance.mp4/BDMV/index.bdmv
libbluray/bdnav/index_parse.c:162: indx_parse(): error opening /Volumes/Data/TV SHOWS/The Sopranos - 1999-2007/1-Sopranos/The Sopranos Season 1 Episode 03 - Denial, Anger, Acceptance.mp4/BDMV/BACKUP/index.bdmv
libbluray/bluray.c:2182: nav_get_title_list(/Volumes/Data/TV SHOWS/The Sopranos - 1999-2007/1-Sopranos/The Sopranos Season 1 Episode 03 - Denial, Anger, Acceptance.mp4) failed
[13:00:27] bd: not a bd - trying as a stream/file instead
libdvdnav: Using dvdnav version 5.0.1
libdvdread: Encrypted DVD support unavailable.
libdvdread:DVDOpenFileUDF:UDFFindFile /VIDEO_TS/VIDEO_TS.IFO failed
libdvdread:DVDOpenFileUDF:UDFFindFile /VIDEO_TS/VIDEO_TS.BUP failed
libdvdread: Can't open file VIDEO_TS.IFO.
libdvdnav: vm: failed to read VIDEO_TS.IFO
[13:00:27] dvd: not a dvd - trying as a stream/file instead
Input #0, mov,mp4,m4a,3gp,3g2,mj2, from '/Volumes/Data/TV SHOWS/The Sopranos - 1999-2007/1-Sopranos/The Sopranos Season 1 Episode 03 - Denial, Anger, Acceptance.mp4':
  Metadata:
    major_brand     : mp42
    minor_version   : 0
    compatible_brands: mp42isomavc1
    creation_time   : 2014-04-06 12:43:53
    encoder         : HandBrake 0.9.9 2013051800
  Duration: 00:44:46.35, start: 0.000000, bitrate: 1103 kb/s
    Stream #0.0(und): Video: h264 (Main), yuv420p, 720x416 [PAR 1:1 DAR 45:26], 934 kb/s, 23.98 fps, 90k tbn, 180k tbc (default)
    Metadata:
      creation_time   : 2014-04-06 12:43:53
    Stream #0.1(und): Audio: aac, 48000 Hz, stereo, fltp, 163 kb/s (default)
    Metadata:
      creation_time   : 2014-04-06 12:43:53
[13:00:28] scan: decoding previews for title 1
Input #0, mov,mp4,m4a,3gp,3g2,mj2, from '/Volumes/Data/TV SHOWS/The Sopranos - 1999-2007/1-Sopranos/The Sopranos Season 1 Episode 03 - Denial, Anger, Acceptance.mp4':
  Metadata:
    major_brand     : mp42
    minor_version   : 0
    compatible_brands: mp42isomavc1
    creation_time   : 2014-04-06 12:43:53
    encoder         : HandBrake 0.9.9 2013051800
  Duration: 00:44:46.35, start: 0.000000, bitrate: 1103 kb/s
    Stream #0.0(und): Video: h264 (Main), yuv420p, 720x416 [PAR 1:1 DAR 45:26], 934 kb/s, 23.98 fps, 90k tbn, 180k tbc (default)
    Metadata:
      creation_time   : 2014-04-06 12:43:53
    Stream #0.1(und): Audio: aac, 48000 Hz, stereo, fltp, 163 kb/s (default)
    Metadata:
      creation_time   : 2014-04-06 12:43:53
[13:00:28] scan: audio 0x1: aac, rate=48000Hz, bitrate=163955 Unknown (AAC) (2.0 ch)
[13:00:29] macgui: Queue reloaded
[13:00:30] scan: 10 previews, 720x416, 23.976 fps, autocrop = 0/0/0/0, aspect 1.73:1, PAR 1:1
[13:00:30] libhb: scan thread found 1 valid title(s)
[13:00:31] macgui: ScanDone state received from fQueueEncodeLibhb
[13:00:31] macgui: Preset: EBS-Settings
[13:00:31] macgui: processNewQueueEncode number of passes expected is: 1
[13:00:31] macgui: Start / Stop set to chapters
[13:00:31] macgui: prepareJob exiting
[13:00:31] 1 job(s) to process
[13:00:31] starting job
[13:00:31] sync: expecting 64408 video frames
[13:00:31] job configuration:
[13:00:31]  * source
[13:00:31]    + /Volumes/Data/TV SHOWS/The Sopranos - 1999-2007/1-Sopranos/The Sopranos Season 1 Episode 03 - Denial, Anger, Acceptance.mp4
[13:00:31]    + title 1, chapter(s) 1 to 1
[13:00:31]    + container: mov,mp4,m4a,3gp,3g2,mj2
[13:00:31]    + data rate: 1103 kbps
[13:00:31]  * destination
[13:00:31]    + /Volumes/Data/The Sopranos Season 1 Episode 03 - Denial, Anger, Acceptance.mp4
[13:00:31]    + container: MPEG-4 (libavformat)
[13:00:31]      + optimized for HTTP streaming (fast start)
[13:00:31]  * video track
[13:00:31]    + decoder: h264
[13:00:31]      + bitrate 934 kbps
[13:00:31]    + filters
[13:00:31]      + Framerate Shaper (2:27000000:1800000)
[13:00:31]        + frame rate: 23.976 fps -> peak rate limited to 15.000 fps
[13:00:31]      + Crop and Scale (640:368:0:0:0:0)
[13:00:31]        + source: 720 * 416, crop (0/0/0/0): 720 * 416, scale: 640 * 368
[13:00:31]    + dimensions: 640 * 368, mod 16
[13:00:31]    + encoder: H.264 (libx264)
[13:00:31]      + preset:  veryfast
[13:00:31]      + profile: main
[13:00:31]      + level:   4.0
[13:00:31]      + quality: 25.00 (RF)
[13:00:31]  * audio track 1
[13:00:31]    + decoder: Unknown (AAC) (2.0 ch) (track 1, id 0x1)
[13:00:31]      + bitrate: 163 kbps, samplerate: 48000 Hz
[13:00:31]    + mixdown: Stereo
[13:00:31]    + encoder: AAC (Apple AudioToolbox)
[13:00:31]      + bitrate: 128 kbps, samplerate: 48000 Hz
[13:00:31] reader: first SCR 0 id 0x1 DTS 0
[13:00:31] encx264: min-keyint: 15, keyint: 150
[13:00:31] encx264: encoding at constant RF 25.000000
[13:00:31] encx264: unparsed options: level=4.0:ref=1:8x8dct=0:weightp=1:subme=2:mixed-refs=0:trellis=0:vbv-bufsize=25000:vbv-maxrate=20000:rc-lookahead=10
x264 [info]: using cpu capabilities: MMX2 SSE2Fast SSSE3 SSE4.1 Cache64
x264 [info]: profile Main, level 4.0
[13:00:32] macgui: Queue reloaded
GUI ERROR dialog: avformatMux: track 1, av_interleaved_write_frame failed with error 'Operation not permitted'
GUI ERROR dialog: avformatMux: track 1, av_interleaved_write_frame failed with error 'Operation not permitted'
GUI ERROR dialog: Last error repeated 11 times
GUI ERROR dialog: avformatMux: track 0, av_interleaved_write_frame failed with error 'Operation not permitted'
GUI ERROR dialog: avformatMux: track 0, av_interleaved_write_frame failed with error 'Operation not permitted'
GUI ERROR dialog: Last error repeated 2 times
GUI ERROR dialog: avformatMux: track 1, av_interleaved_write_frame failed with error 'Operation not permitted'
GUI ERROR dialog: avformatMux: track 1, av_interleaved_write_frame failed with error 'Operation not permitted'
GUI ERROR dialog: Last error repeated 1 times
GUI ERROR dialog: avformatMux: track 0, av_interleaved_write_frame failed with error 'Operation not permitted'
GUI ERROR dialog: avformatMux: track 1, av_interleaved_write_frame failed with error 'Operation not permitted'
[13:01:31] work: average encoding speed for job is 48.050632 fps
[13:01:31] sync: got 2862 frames, 64408 expected
[13:01:31] render: 1786 frames output, 1068 dropped and 0 duped for CFR/PFR
[13:01:31] render: lost time: 0 (0 frames)
[13:01:31] render: gained time: 0 (0 frames) (0 not accounted for)
[13:01:31] reader: done. 1 scr changes
[13:01:31] h264-decoder done: 2873 frames, 0 decoder errors, 0 drops
x264 [info]: frame I:82    Avg QP:21.66  size: 10521
x264 [info]: frame P:1371  Avg QP:24.94  size:  5293
x264 [info]: frame B:310   Avg QP:24.83  size:  1430
x264 [info]: consecutive B-frames: 68.8% 22.1%  3.2%  5.9%
x264 [info]: mb I  I16..4: 57.2%  0.0% 42.8%
x264 [info]: mb P  I16..4: 29.8%  0.0%  7.0%  P16..4: 24.4% 14.1%  6.0%  0.0%  0.0%    skip:18.8%
x264 [info]: mb B  I16..4:  2.1%  0.0%  0.3%  B16..8: 16.7%  6.9%  0.8%  direct: 6.2%  skip:67.1%  L0:33.3% L1:49.8% BI:16.9%
x264 [info]: coded y,uvDC,uvAC intra: 33.8% 34.4% 4.5% inter: 20.5% 13.7% 0.1%
x264 [info]: i16 v,h,dc,p: 33% 39% 18% 11%
x264 [info]: i4 v,h,dc,ddl,ddr,vr,hd,vl,hu: 20% 29% 20%  5%  5%  6%  5%  5%  5%
x264 [info]: i8c dc,h,v,p: 59% 24% 15%  3%
x264 [info]: Weighted P-Frames: Y:10.4% UV:5.3%
x264 [info]: kb/s:582.84
[13:01:32] aac-decoder done: 0 frames, 0 decoder errors, 0 drops
GUI ERROR dialog: avformatMux: track 1, av_interleaved_write_frame failed with error 'Operation not permitted'
GUI ERROR dialog: Last error repeated 1 times
GUI ERROR dialog: avformatMux: track 0, av_interleaved_write_frame failed with error 'Operation not permitted'
[13:01:32] mux: track 0, 6 frames, 3197 bytes, 54.81 kbps, fifo 2048
[13:01:32] mux: track 1, 19 frames, 4822 bytes, 82.66 kbps, fifo 8192
[13:01:32] libhb: work result = 4
[13:01:32] macgui: incrementQueueItemDone there are no more pending encodes
[13:01:38] macgui: Queue reloaded
Last edited by Rodeo on Mon Mar 30, 2015 8:09 pm, edited 1 time in total.
Reason: Logs must be placed between [code][/code] blocks
mduell
Veteran User
Posts: 7373
Joined: Sat Apr 21, 2007 8:54 pm

Re: Handbrake stopped compressing MP4's last night. It's reducing MP4 files to 0 bytes.

Post by mduell »

Code: Select all

GUI ERROR dialog: avformatMux: track 1, av_interleaved_write_frame failed with error 'Operation not permitted'
Is usually you're out of disk space.

Also upgrade to a newer nightly, you're 500+ commits behind.
Woodstock
Veteran User
Posts: 4026
Joined: Tue Aug 27, 2013 6:39 am

Re: Handbrake stopped compressing MP4's last night. It's reducing MP4 files to 0 bytes.

Post by Woodstock »

The other probable cause is that the user that handbrake is running as does not have permission to write to that directory.
User avatar
Rodeo
HandBrake Team
Posts: 12726
Joined: Tue Mar 03, 2009 8:55 pm

Re: Handbrake stopped compressing MP4's last night. It's reducing MP4 files to 0 bytes.

Post by Rodeo »

Yeah, though I'd expect an error when trying to create the file (avio_open) rather than when muxing actual packets (av_interleaved_write_frame), so mduell's suggestion makes more sense to me. It's probably one or the other anyway though…
magentawave
Posts: 19
Joined: Sun Jun 15, 2014 1:57 am

Re: Handbrake stopped compressing MP4's last night. It's reducing MP4 files to 0 bytes.

Post by magentawave »

I was out of disk space! DUH. :wink: Thanks for replying!
mduell wrote:

Code: Select all

GUI ERROR dialog: avformatMux: track 1, av_interleaved_write_frame failed with error 'Operation not permitted'
Is usually you're out of disk space.

Also upgrade to a newer nightly, you're 500+ commits behind.
Post Reply