Converted file in slow motion & over double video length.

HandBrake for Mac support
Forum rules
An Activity Log is required for support requests. Please read How-to get an activity log? for details on how and why this should be provided.
Locked
wnorth

Converted file in slow motion & over double video length.

Post by wnorth » Mon Jun 30, 2014 6:50 pm

I've been converting a lot of videos recently and had this issue with about 4 of the videos so far. I am converting avi's to mp4's through Handbrake. On these few files, when they come out they are way over double the length of the actual video and when I play them, the video plays through fine but the audio is in slow motion. I have left Handbrake on the default settings, I haven't changed a thing for any of the videos at all, just some of them seem to mess up.

Anyone know why this might be and able to help me fix it please?

Here's my Activity Window text - http://pastebin.com/3BJ3CnAG

Thank you in advance! :)

mduell
Veteran User
Posts: 6678
Joined: Sat Apr 21, 2007 8:54 pm

Re: Converted file in slow motion & over double video length

Post by mduell » Mon Jun 30, 2014 8:28 pm

Code: Select all

Input #0, avi, from '/Users/Will/Downloads/Yu-Gi-Oh! Duel Monsters Season 2/Yu-Gi-Oh - 2x31 - Lights, Camera, Duel.avi':
  Metadata:
    encoder         : VirtualDubMod 1.5.10.1 (build 2366/release)
  Duration: 00:18:48.33, start: 0.000000, bitrate: 1115 kb/s
    Stream #0.0: Video: mpeg4, yuv420p, 640x480 [PAR 1:1 DAR 4:3], 23.98 fps, 23.98 tbr, 23.98 tbn, 30k tbc
    Stream #0.1: Audio: mp3, 48000 Hz, 2 channels, s16p, 128 kb/s
Rule 3

dynaflash
Veteran User
Posts: 3820
Joined: Thu Nov 02, 2006 8:19 pm

Re: Converted file in slow motion & over double video length

Post by dynaflash » Mon Jun 30, 2014 8:35 pm

Rule 3 Locked.

Locked