Mismapped channels under Lion (10.7)

HandBrake for Mac support
Forum rules
Activity Log is required for support requests. See Must Read: How To Get Questions Answered on These Forums for details
DJRumpy
Posts: 8
Joined: Wed Jul 13, 2011 11:31 am

Mismapped channels under Lion (10.7)

Postby DJRumpy » Wed Jul 13, 2011 3:11 pm

Verified with 0.9.4, 0.9.5, and two nightly builds (4083 and 4103). The center channel is being output in the RF channel. Reverting to Snow Leopard using these same versions give the expected channel outputs.


Code: Select all

HandBrake Activity Log for Session (Cleared): 2011-07-12 14:06:38 -0500

[14:06:38] hb_init: starting libhb thread
[14:06:38] macgui: Handbrake Version: 4103svn x86_64 (2011071201)
[14:06:38] hb_init: starting libhb thread
[14:06:38] hb_init: starting libhb thread
[14:06:39] macgui: hbInstances path to this instance: /Applications/Video Tools/HandBrake.app
[14:06:39] macgui: hbInstance found instance pidnum:8792 at path: /Applications/Video Tools/HandBrake.app
[14:06:39] macgui: hbInstance MATCH FOUND, our pidnum is:8792
[14:06:39] macgui: Pid for this instance:8792
[14:06:39] macgui: HBQueueController : My Pidnum is 8792
[14:10:06] macgui: trying to open video_ts folder (parent directory chosen)
[14:10:06] macgui: Preview: Disabling HUD Controls
[14:10:06] macgui: Minimum length of title for scan: 900000
[14:10:06] hb_scan: path=/Volumes/Snow Leopard/Users/ron/Movies/Let_Me_In/Let Me In.mkv, title_index=0
libbluray/bdnav/index_parse.c:157: indx_parse(): error opening /Volumes/Snow Leopard/Users/ron/Movies/Let_Me_In/Let Me In.mkv/BDMV/index.bdmv
libbluray/bluray.c:1471: nav_get_title_list(/Volumes/Snow Leopard/Users/ron/Movies/Let_Me_In/Let Me In.mkv) failed (0x103065c00)
[14:10:06] bd: not a bd - trying as a stream/file instead
libdvdnav: Using dvdnav version 4.1.3
libdvdread: Using libdvdcss version 1.2.10 for DVD access
libdvdnav:DVDOpenFileUDF:UDFFindFile /VIDEO_TS/VIDEO_TS.IFO failed
libdvdnav:DVDOpenFileUDF:UDFFindFile /VIDEO_TS/VIDEO_TS.BUP failed
libdvdread: Can't open file VIDEO_TS.IFO.
libdvdnav: vm: failed to read VIDEO_TS.IFO
[14:10:06] dvd: not a dvd - trying as a stream/file instead
Input #0, matroska,webm, from '/Volumes/Snow Leopard/Users/ron/Movies/Let_Me_In/Let Me In.mkv':
  Duration: 01:55:47.94, start: 0.000000, bitrate: 640 kb/s
    Chapter #0.0: start 0.000000, end 490.198022
    Metadata:
      title           : Chapter 00
    Chapter #0.1: start 490.198022, end 854.645444
    Metadata:
      title           : Chapter 01
    Chapter #0.2: start 854.645444, end 1208.207000
    Metadata:
      title           : Chapter 02
    Chapter #0.3: start 1208.207000, end 1564.229333
    Metadata:
      title           : Chapter 03
    Chapter #0.4: start 1564.229333, end 2025.398356
    Metadata:
      title           : Chapter 04
    Chapter #0.5: start 2025.398356, end 2525.689822
    Metadata:
      title           : Chapter 05
    Chapter #0.6: start 2525.689822, end 2997.202533
    Metadata:
      title           : Chapter 06
    Chapter #0.7: start 2997.202533, end 3353.933911
    Metadata:
      title           : Chapter 07
    Chapter #0.8: start 3353.933911, end 3663.660000
    Metadata:
      title           : Chapter 08
    Chapter #0.9: start 3663.660000, end 3897.143244
    Metadata:
      title           : Chapter 09
    Chapter #0.10: start 3897.143244, end 4295.916622
    Metadata:
      title           : Chapter 10
    Chapter #0.11: start 4295.916622, end 4662.240911
    Metadata:
      title           : Chapter 11
    Chapter #0.12: start 4662.240911, end 4972.509200
    Metadata:
      title           : Chapter 12
    Chapter #0.13: start 4972.509200, end 5129.624489
    Metadata:
      title           : Chapter 13
    Chapter #0.14: start 5129.624489, end 5439.517400
    Metadata:
      title           : Chapter 14
    Chapter #0.15: start 5439.517400, end 5898.642733
    Metadata:
      title           : Chapter 15
    Chapter #0.16: start 5898.642733, end 6061.638911
    Metadata:
      title           : Chapter 16
    Chapter #0.17: start 6061.638911, end 6420.580822
    Metadata:
      title           : Chapter 17
    Chapter #0.18: start 6420.580822, end 6516.510000
    Metadata:
      title           : Chapter 18
    Chapter #0.19: start 6516.510000, end 6947.941000
    Metadata:
      title           : Chapter 19
    Stream #0.0(eng): Video: h264 (High), yuv420p, 1920x1080 [PAR 1:1 DAR 16:9], 23.98 fps, 23.98 tbr, 1k tbn, 47.95 tbc (default)
    Stream #0.1(eng): Audio: ac3, 48000 Hz, 5.1, s16, 640 kb/s (default)
    Metadata:
      title           : 3/2+1
[14:10:06] scan: decoding previews for title 1
[14:10:06] scan: audio 0x1: AC-3, rate=48000Hz, bitrate=640000 English (AC3) (5.1 ch)
[14:10:07] scan: 10 previews, 1920x1080, 23.976 fps, autocrop = 140/140/44/0, aspect 16:9, PAR 1:1
[14:10:07] scan: title (0) job->width:1872, job->height:800
[14:10:07] libhb: scan thread found 1 valid title(s)
[14:10:07] macgui: showNewScan: This is a new source item scan
[14:10:08] macgui: Preview: Enabling HUD Controls
[14:10:52] macgui: createQueueFileItem: Getting Audio from prepareAudioForQueueFileJob ...
[14:10:52] macgui: createQueueFileItem: Returned getting audio from prepareAudioForQueueFileJob
[14:11:00] macgui: Rip: Pending queue count is 1
[14:11:00] macgui: getNextPendingQueueIndex next pending encode index is:0
[14:11:00] macgui: scanning specifically for title: 1
[14:11:00] hb_scan: path=/Volumes/Snow Leopard/Users/ron/Movies/Let_Me_In/Let Me In.mkv, title_index=1
libbluray/bdnav/index_parse.c:157: indx_parse(): error opening /Volumes/Snow Leopard/Users/ron/Movies/Let_Me_In/Let Me In.mkv/BDMV/index.bdmv
libbluray/bluray.c:1471: nav_get_title_list(/Volumes/Snow Leopard/Users/ron/Movies/Let_Me_In/Let Me In.mkv) failed (0x102913e00)
[14:11:00] bd: not a bd - trying as a stream/file instead
libdvdnav: Using dvdnav version 4.1.3
libdvdread: Using libdvdcss version 1.2.10 for DVD access
libdvdnav:DVDOpenFileUDF:UDFFindFile /VIDEO_TS/VIDEO_TS.IFO failed
libdvdnav:DVDOpenFileUDF:UDFFindFile /VIDEO_TS/VIDEO_TS.BUP failed
libdvdread: Can't open file VIDEO_TS.IFO.
libdvdnav: vm: failed to read VIDEO_TS.IFO
[14:11:00] dvd: not a dvd - trying as a stream/file instead
Input #0, matroska,webm, from '/Volumes/Snow Leopard/Users/ron/Movies/Let_Me_In/Let Me In.mkv':
  Duration: 01:55:47.94, start: 0.000000, bitrate: 640 kb/s
    Chapter #0.0: start 0.000000, end 490.198022
    Metadata:
      title           : Chapter 00
    Chapter #0.1: start 490.198022, end 854.645444
    Metadata:
      title           : Chapter 01
    Chapter #0.2: start 854.645444, end 1208.207000
    Metadata:
      title           : Chapter 02
    Chapter #0.3: start 1208.207000, end 1564.229333
    Metadata:
      title           : Chapter 03
    Chapter #0.4: start 1564.229333, end 2025.398356
    Metadata:
      title           : Chapter 04
    Chapter #0.5: start 2025.398356, end 2525.689822
    Metadata:
      title           : Chapter 05
    Chapter #0.6: start 2525.689822, end 2997.202533
    Metadata:
      title           : Chapter 06
    Chapter #0.7: start 2997.202533, end 3353.933911
    Metadata:
      title           : Chapter 07
    Chapter #0.8: start 3353.933911, end 3663.660000
    Metadata:
      title           : Chapter 08
    Chapter #0.9: start 3663.660000, end 3897.143244
    Metadata:
      title           : Chapter 09
    Chapter #0.10: start 3897.143244, end 4295.916622
    Metadata:
      title           : Chapter 10
    Chapter #0.11: start 4295.916622, end 4662.240911
    Metadata:
      title           : Chapter 11
    Chapter #0.12: start 4662.240911, end 4972.509200
    Metadata:
      title           : Chapter 12
    Chapter #0.13: start 4972.509200, end 5129.624489
    Metadata:
      title           : Chapter 13
    Chapter #0.14: start 5129.624489, end 5439.517400
    Metadata:
      title           : Chapter 14
    Chapter #0.15: start 5439.517400, end 5898.642733
    Metadata:
      title           : Chapter 15
    Chapter #0.16: start 5898.642733, end 6061.638911
    Metadata:
      title           : Chapter 16
    Chapter #0.17: start 6061.638911, end 6420.580822
    Metadata:
      title           : Chapter 17
    Chapter #0.18: start 6420.580822, end 6516.510000
    Metadata:
      title           : Chapter 18
    Chapter #0.19: start 6516.510000, end 6947.941000
    Metadata:
      title           : Chapter 19
    Stream #0.0(eng): Video: h264 (High), yuv420p, 1920x1080 [PAR 1:1 DAR 16:9], 23.98 fps, 23.98 tbr, 1k tbn, 47.95 tbc (default)
    Stream #0.1(eng): Audio: ac3, 48000 Hz, 5.1, s16, 640 kb/s (default)
    Metadata:
      title           : 3/2+1
[14:11:00] scan: decoding previews for title 1
[14:11:00] scan: audio 0x1: AC-3, rate=48000Hz, bitrate=640000 English (AC3) (5.1 ch)
[14:11:01] scan: 10 previews, 1920x1080, 23.976 fps, autocrop = 140/140/44/0, aspect 16:9, PAR 1:1
[14:11:01] scan: title (0) job->width:1872, job->height:800
[14:11:01] libhb: scan thread found 1 valid title(s)
[14:11:01] macgui: ScanDone state received from fQueueEncodeLibhb
[14:11:01] macgui: Preset: Custom
[14:11:01] macgui: processNewQueueEncode number of passes expected is: 2
[14:11:01] macgui: Start / Stop set to chapters
[14:11:01] macgui: prepareJob exiting
[14:11:01] 2 job(s) to process
[14:11:01] starting job
[14:11:01] sync: expecting 12018 video frames
[14:11:01] job configuration:
[14:11:01]  * source
[14:11:01]    + /Volumes/Snow Leopard/Users/ron/Movies/Let_Me_In/Let Me In.mkv
[14:11:01]    + title 1, chapter(s) 6 to 6
[14:11:01]    + container: matroska,webm
[14:11:01]    + data rate: 640 kbps
[14:11:01]  * destination
[14:11:01]    + /Volumes/Snow Leopard/Users/ron/Movies/Let Me In.m4v
[14:11:01]    + container: MPEG-4 (.mp4 and .m4v)
[14:11:01]      + 64-bit formatting
[14:11:01]  * video track
[14:11:01]    + decoder: h264
[14:11:01]    + frame rate: 23.976 fps -> constant 23.976 fps
[14:11:01]    + loose anamorphic
[14:11:01]      + storage dimensions: 1920 * 1080 -> 1280 * 544, crop 140/140/44/0, mod 16
[14:11:01]      + pixel aspect ratio: 7973 / 8000
[14:11:01]      + display dimensions: 1275 * 544
[14:11:01]    + encoder: x264
[14:11:01]      + options: me=umh:b-adapt=2:ref=1:subme=2:me=dia:analyse=none:trellis=0:no-fast-pskip=0:8x8dct=0:weightb=0
[14:11:01]      + bitrate: 2000 kbps, pass: 1
[14:11:01]  * audio track 0
[14:11:01]    + decoder: English (AC3) (5.1 ch) (track 1, id 0x1)
[14:11:01]      + bitrate: 640 kbps, samplerate: 48000 Hz
[14:11:01]    + mixdown: 6-channel discrete
[14:11:01]    + encoder: ca_haac
[14:11:01]      + bitrate: 192 kbps, samplerate: 48000 Hz
[14:11:01] encx264: min-keyint: 24, keyint: 240
[14:11:01] encx264: encoding with stored aspect 7973/8000
x264 [warning]: --psnr used with psy on: results will be invalid!
x264 [warning]: --tune psnr should be used if attempting to benchmark psnr!
x264 [info]: using SAR=7973/8000
x264 [info]: using cpu capabilities: MMX2 SSE2Fast SSSE3 FastShuffle SSE4.2
x264 [info]: profile Main, level 3.1
No accelerated IMDCT transform found
[14:11:02] reader: first SCR 182435940 id 0x0 DTS 182435940
[14:11:02] sync: adding 70 ms of silence to audio 0x1  start 6300, next 0
[14:11:02] CoreAudio: no data to use in inInputDataProc
[14:11:02] CoreAudio: Not enough data
[14:14:30] reader: end of chapter 6 (media 6) reached at media chapter 7
[14:14:30] reader: done. 1 scr changes
[14:14:31] work: average encoding speed for job is 57.221401 fps
[14:14:31] sync: got 11956 frames, 12018 expected
[14:14:31] h264-decoder done: 11956 frames, 0 decoder errors, 0 drops
[14:14:31] render: 11957 frames output, 0 dropped and 1 duped for CFR/PFR
[14:14:31] render: lost time: 0 (0 frames)
[14:14:31] render: gained time: 0 (0 frames) (0 not accounted for)
x264 [info]: frame I:104   Avg QP:12.53  size: 92617  PSNR Mean Y:49.60 U:50.95 V:51.01 Avg:50.00 Global:49.68
x264 [info]: frame P:3160  Avg QP:15.55  size: 20956  PSNR Mean Y:46.96 U:49.39 V:49.46 Avg:47.62 Global:47.27
x264 [info]: frame B:8693  Avg QP:17.19  size:  5611  PSNR Mean Y:46.32 U:49.12 V:49.35 Avg:47.08 Global:46.70
x264 [info]: consecutive B-frames:  1.2%  3.5%  6.2% 89.1%
x264 [info]: mb I  I16..4: 43.7%  0.0% 56.3%
x264 [info]: mb P  I16..4: 25.5%  0.0%  0.0%  P16..4: 59.4%  0.0%  0.0%  0.0%  0.0%    skip:15.1%
x264 [info]: mb B  I16..4:  5.1%  0.0%  0.0%  B16..8: 28.2%  0.0%  0.0%  direct:16.9%  skip:49.8%  L0:36.3% L1:43.8% BI:20.0%
x264 [info]: final ratefactor: 16.28
x264 [info]: coded y,uvDC,uvAC intra: 56.6% 46.7% 22.4% inter: 16.3% 16.0% 1.4%
x264 [info]: i16 v,h,dc,p: 40% 18% 30% 12%
x264 [info]: i4 v,h,dc,ddl,ddr,vr,hd,vl,hu: 16% 15% 24%  4% 11%  7%  7%  7%  9%
x264 [info]: i8c dc,h,v,p: 60% 17% 18%  4%
x264 [info]: Weighted P-Frames: Y:2.4% UV:1.7%
x264 [info]: SSIM Mean Y:0.9828877 (17.667db)
x264 [info]: PSNR Mean Y:46.522 U:49.207 V:49.391 Avg:47.246 Global:46.865 kb/s:1999.24
[14:14:31] starting job
[14:14:31] sync: expecting 11956 video frames
[14:14:31] job configuration:
[14:14:31]  * source
[14:14:31]    + /Volumes/Snow Leopard/Users/ron/Movies/Let_Me_In/Let Me In.mkv
[14:14:31]    + title 1, chapter(s) 6 to 6
[14:14:31]    + container: matroska,webm
[14:14:31]    + data rate: 640 kbps
[14:14:31]  * destination
[14:14:31]    + /Volumes/Snow Leopard/Users/ron/Movies/Let Me In.m4v
[14:14:31]    + container: MPEG-4 (.mp4 and .m4v)
[14:14:31]      + 64-bit formatting
[14:14:31]  * video track
[14:14:31]    + decoder: h264
[14:14:31]    + frame rate: 23.976 fps -> constant 23.976 fps
[14:14:31]    + loose anamorphic
[14:14:31]      + storage dimensions: 1920 * 1080 -> 1280 * 544, crop 140/140/44/0, mod 16
[14:14:31]      + pixel aspect ratio: 7973 / 8000
[14:14:31]      + display dimensions: 1275 * 544
[14:14:31]    + encoder: x264
[14:14:31]      + options: me=umh:b-adapt=2
[14:14:31]      + bitrate: 2000 kbps, pass: 2
[14:14:31]  * audio track 0
[14:14:31]    + decoder: English (AC3) (5.1 ch) (track 1, id 0x1)
[14:14:31]      + bitrate: 640 kbps, samplerate: 48000 Hz
[14:14:31]    + mixdown: 6-channel discrete
[14:14:31]    + encoder: ca_haac
[14:14:31]      + bitrate: 192 kbps, samplerate: 48000 Hz
[14:14:31] encx264: min-keyint: 24, keyint: 240
[14:14:31] encx264: encoding with stored aspect 7973/8000
x264 [warning]: --psnr used with psy on: results will be invalid!
x264 [warning]: --tune psnr should be used if attempting to benchmark psnr!
x264 [info]: using SAR=7973/8000
x264 [info]: using cpu capabilities: MMX2 SSE2Fast SSSE3 FastShuffle SSE4.2
[14:14:31] reader: first SCR 182435940 id 0x0 DTS 182435940
x264 [info]: profile High, level 3.1
No accelerated IMDCT transform found
[14:14:32] sync: adding 70 ms of silence to audio 0x1  start 6300, next 0
[14:14:32] CoreAudio: no data to use in inInputDataProc
[14:14:32] CoreAudio: Not enough data
[14:21:06] reader: end of chapter 6 (media 6) reached at media chapter 7
[14:21:06] reader: done. 1 scr changes
[14:21:09] work: average encoding speed for job is 30.191238 fps
[14:21:09] sync: got 11956 frames, 11956 expected
[14:21:09] h264-decoder done: 11956 frames, 0 decoder errors, 0 drops
[14:21:09] render: 11957 frames output, 0 dropped and 1 duped for CFR/PFR
[14:21:09] render: lost time: 0 (0 frames)
[14:21:09] render: gained time: 0 (0 frames) (0 not accounted for)
x264 [info]: frame I:104   Avg QP:13.56  size: 80028  PSNR Mean Y:49.12 U:51.30 V:51.38 Avg:49.73 Global:49.52
x264 [info]: frame P:3160  Avg QP:15.97  size: 20035  PSNR Mean Y:47.09 U:50.00 V:50.13 Avg:47.86 Global:47.65
x264 [info]: frame B:8693  Avg QP:17.74  size:  6106  PSNR Mean Y:46.46 U:49.60 V:49.91 Avg:47.29 Global:47.06
x264 [info]: consecutive B-frames:  1.2%  3.5%  6.2% 89.1%
x264 [info]: mb I  I16..4:  9.8% 77.0% 13.2%
x264 [info]: mb P  I16..4:  0.4%  2.3%  0.4%  P16..4: 43.8% 26.2% 16.2%  0.0%  0.0%    skip:10.7%
x264 [info]: mb B  I16..4:  0.0%  0.2%  0.0%  B16..8: 53.0%  7.1%  1.2%  direct: 1.6%  skip:36.8%  L0:45.9% L1:50.4% BI: 3.7%
x264 [info]: 8x8 transform intra:76.3% inter:75.9%
x264 [info]: coded y,uvDC,uvAC intra: 82.3% 83.1% 63.7% inter: 23.5% 19.3% 2.8%
x264 [info]: i16 v,h,dc,p: 42% 11%  7% 41%
x264 [info]: i8 v,h,dc,ddl,ddr,vr,hd,vl,hu: 15% 12% 30%  6%  8%  7%  7%  7%  8%
x264 [info]: i4 v,h,dc,ddl,ddr,vr,hd,vl,hu: 18% 14% 19%  7% 11%  9%  9%  7%  6%
x264 [info]: i8c dc,h,v,p: 52% 18% 19% 10%
x264 [info]: Weighted P-Frames: Y:2.4% UV:1.7%
x264 [info]: ref P L0: 54.4%  6.9% 25.3% 13.1%  0.2%
x264 [info]: ref B L0: 77.2% 17.8%  5.0%
x264 [info]: ref B L1: 89.5% 10.5%
x264 [info]: SSIM Mean Y:0.9825345 (17.578db)
x264 [info]: PSNR Mean Y:46.646 U:49.718 V:49.978 Avg:47.463 Global:47.227 kb/s:2000.54
[14:21:09] mux: track 0, 11957 frames, 124705770 bytes, 1999.97 kbps, fifo 8
[14:21:09] mux: track 1, 11692 frames, 12316647 bytes, 197.53 kbps, fifo 128
[14:21:09] libhb: work result = 0
[14:21:10] macgui: incrementQueueItemDone there are no more pending encodes
[14:27:15] macgui: createQueueFileItem: Getting Audio from prepareAudioForQueueFileJob ...
[14:27:15] macgui: createQueueFileItem: Returned getting audio from prepareAudioForQueueFileJob
[14:27:16] macgui: Rip: Pending queue count is 1
[14:27:16] macgui: getNextPendingQueueIndex next pending encode index is:1
[14:27:16] macgui: scanning specifically for title: 1
[14:27:16] hb_scan: path=/Volumes/Snow Leopard/Users/ron/Movies/Let_Me_In/Let Me In.mkv, title_index=1
libbluray/bdnav/index_parse.c:157: indx_parse(): error opening /Volumes/Snow Leopard/Users/ron/Movies/Let_Me_In/Let Me In.mkv/BDMV/index.bdmv
libbluray/bluray.c:1471: nav_get_title_list(/Volumes/Snow Leopard/Users/ron/Movies/Let_Me_In/Let Me In.mkv) failed (0x130004000)
[14:27:16] bd: not a bd - trying as a stream/file instead
libdvdnav: Using dvdnav version 4.1.3
libdvdread: Using libdvdcss version 1.2.10 for DVD access
libdvdnav:DVDOpenFileUDF:UDFFindFile /VIDEO_TS/VIDEO_TS.IFO failed
libdvdnav:DVDOpenFileUDF:UDFFindFile /VIDEO_TS/VIDEO_TS.BUP failed
libdvdread: Can't open file VIDEO_TS.IFO.
libdvdnav: vm: failed to read VIDEO_TS.IFO
[14:27:16] dvd: not a dvd - trying as a stream/file instead
Input #0, matroska,webm, from '/Volumes/Snow Leopard/Users/ron/Movies/Let_Me_In/Let Me In.mkv':
  Duration: 01:55:47.94, start: 0.000000, bitrate: 640 kb/s
    Chapter #0.0: start 0.000000, end 490.198022
    Metadata:
      title           : Chapter 00
    Chapter #0.1: start 490.198022, end 854.645444
    Metadata:
      title           : Chapter 01
    Chapter #0.2: start 854.645444, end 1208.207000
    Metadata:
      title           : Chapter 02
    Chapter #0.3: start 1208.207000, end 1564.229333
    Metadata:
      title           : Chapter 03
    Chapter #0.4: start 1564.229333, end 2025.398356
    Metadata:
      title           : Chapter 04
    Chapter #0.5: start 2025.398356, end 2525.689822
    Metadata:
      title           : Chapter 05
    Chapter #0.6: start 2525.689822, end 2997.202533
    Metadata:
      title           : Chapter 06
    Chapter #0.7: start 2997.202533, end 3353.933911
    Metadata:
      title           : Chapter 07
    Chapter #0.8: start 3353.933911, end 3663.660000
    Metadata:
      title           : Chapter 08
    Chapter #0.9: start 3663.660000, end 3897.143244
    Metadata:
      title           : Chapter 09
    Chapter #0.10: start 3897.143244, end 4295.916622
    Metadata:
      title           : Chapter 10
    Chapter #0.11: start 4295.916622, end 4662.240911
    Metadata:
      title           : Chapter 11
    Chapter #0.12: start 4662.240911, end 4972.509200
    Metadata:
      title           : Chapter 12
    Chapter #0.13: start 4972.509200, end 5129.624489
    Metadata:
      title           : Chapter 13
    Chapter #0.14: start 5129.624489, end 5439.517400
    Metadata:
      title           : Chapter 14
    Chapter #0.15: start 5439.517400, end 5898.642733
    Metadata:
      title           : Chapter 15
    Chapter #0.16: start 5898.642733, end 6061.638911
    Metadata:
      title           : Chapter 16
    Chapter #0.17: start 6061.638911, end 6420.580822
    Metadata:
      title           : Chapter 17
    Chapter #0.18: start 6420.580822, end 6516.510000
    Metadata:
      title           : Chapter 18
    Chapter #0.19: start 6516.510000, end 6947.941000
    Metadata:
      title           : Chapter 19
    Stream #0.0(eng): Video: h264 (High), yuv420p, 1920x1080 [PAR 1:1 DAR 16:9], 23.98 fps, 23.98 tbr, 1k tbn, 47.95 tbc (default)
    Stream #0.1(eng): Audio: ac3, 48000 Hz, 5.1, s16, 640 kb/s (default)
    Metadata:
      title           : 3/2+1
[14:27:16] scan: decoding previews for title 1
[14:27:16] scan: audio 0x1: AC-3, rate=48000Hz, bitrate=640000 English (AC3) (5.1 ch)
[14:27:18] scan: 10 previews, 1920x1080, 23.976 fps, autocrop = 140/140/44/0, aspect 16:9, PAR 1:1
[14:27:18] scan: title (0) job->width:1872, job->height:800
[14:27:18] libhb: scan thread found 1 valid title(s)
[14:27:18] macgui: ScanDone state received from fQueueEncodeLibhb
[14:27:18] macgui: Preset: Custom
[14:27:18] macgui: processNewQueueEncode number of passes expected is: 2
[14:27:18] macgui: Start / Stop set to chapters
[14:27:18] macgui: prepareJob exiting
[14:27:18] 2 job(s) to process
[14:27:18] starting job
[14:27:18] sync: expecting 12018 video frames
[14:27:18] job configuration:
[14:27:18]  * source
[14:27:18]    + /Volumes/Snow Leopard/Users/ron/Movies/Let_Me_In/Let Me In.mkv
[14:27:18]    + title 1, chapter(s) 6 to 6
[14:27:18]    + container: matroska,webm
[14:27:18]    + data rate: 640 kbps
[14:27:18]  * destination
[14:27:18]    + /Volumes/Snow Leopard/Users/ron/Movies/Let Me In.m4v
[14:27:18]    + container: MPEG-4 (.mp4 and .m4v)
[14:27:18]      + 64-bit formatting
[14:27:18]  * video track
[14:27:18]    + decoder: h264
[14:27:18]    + frame rate: 23.976 fps -> constant 23.976 fps
[14:27:18]    + loose anamorphic
[14:27:18]      + storage dimensions: 1920 * 1080 -> 1280 * 544, crop 140/140/44/0, mod 16
[14:27:18]      + pixel aspect ratio: 7973 / 8000
[14:27:18]      + display dimensions: 1275 * 544
[14:27:18]    + encoder: x264
[14:27:18]      + options: me=umh:b-adapt=2:ref=1:subme=2:me=dia:analyse=none:trellis=0:no-fast-pskip=0:8x8dct=0:weightb=0
[14:27:18]      + bitrate: 2000 kbps, pass: 1
[14:27:18]  * audio track 0
[14:27:18]    + decoder: English (AC3) (5.1 ch) (track 1, id 0x1)
[14:27:18]      + bitrate: 640 kbps, samplerate: 48000 Hz
[14:27:18]    + mixdown: 6-channel discrete
[14:27:18]    + encoder: ffaac
[14:27:18]      + bitrate: 448 kbps, samplerate: 48000 Hz
[14:27:18] encx264: min-keyint: 24, keyint: 240
[14:27:18] encx264: encoding with stored aspect 7973/8000
x264 [warning]: --psnr used with psy on: results will be invalid!
x264 [warning]: --tune psnr should be used if attempting to benchmark psnr!
x264 [info]: using SAR=7973/8000
x264 [info]: using cpu capabilities: MMX2 SSE2Fast SSSE3 FastShuffle SSE4.2
x264 [info]: profile Main, level 3.1
No accelerated IMDCT transform found
[14:27:18] reader: first SCR 182435940 id 0x0 DTS 182435940
[14:27:18] sync: adding 70 ms of silence to audio 0x1  start 6300, next 0
[14:30:50] reader: end of chapter 6 (media 6) reached at media chapter 7
[14:30:50] reader: done. 1 scr changes
[14:30:51] work: average encoding speed for job is 56.198463 fps
[14:30:51] sync: got 11956 frames, 12018 expected
[14:30:51] h264-decoder done: 11956 frames, 0 decoder errors, 0 drops
[14:30:52] render: 11957 frames output, 0 dropped and 1 duped for CFR/PFR
[14:30:52] render: lost time: 0 (0 frames)
[14:30:52] render: gained time: 0 (0 frames) (0 not accounted for)
x264 [info]: frame I:104   Avg QP:12.53  size: 92617  PSNR Mean Y:49.60 U:50.95 V:51.01 Avg:50.00 Global:49.68
x264 [info]: frame P:3160  Avg QP:15.55  size: 20956  PSNR Mean Y:46.96 U:49.39 V:49.46 Avg:47.62 Global:47.27
x264 [info]: frame B:8693  Avg QP:17.19  size:  5611  PSNR Mean Y:46.32 U:49.12 V:49.35 Avg:47.08 Global:46.70
x264 [info]: consecutive B-frames:  1.2%  3.5%  6.2% 89.1%
x264 [info]: mb I  I16..4: 43.7%  0.0% 56.3%
x264 [info]: mb P  I16..4: 25.5%  0.0%  0.0%  P16..4: 59.4%  0.0%  0.0%  0.0%  0.0%    skip:15.1%
x264 [info]: mb B  I16..4:  5.1%  0.0%  0.0%  B16..8: 28.2%  0.0%  0.0%  direct:16.9%  skip:49.8%  L0:36.3% L1:43.8% BI:20.0%
x264 [info]: final ratefactor: 16.28
x264 [info]: coded y,uvDC,uvAC intra: 56.6% 46.7% 22.4% inter: 16.3% 16.0% 1.4%
x264 [info]: i16 v,h,dc,p: 40% 18% 30% 12%
x264 [info]: i4 v,h,dc,ddl,ddr,vr,hd,vl,hu: 16% 15% 24%  4% 11%  7%  7%  7%  9%
x264 [info]: i8c dc,h,v,p: 60% 17% 18%  4%
x264 [info]: Weighted P-Frames: Y:2.4% UV:1.7%
x264 [info]: SSIM Mean Y:0.9828877 (17.667db)
x264 [info]: PSNR Mean Y:46.522 U:49.207 V:49.391 Avg:47.246 Global:46.865 kb/s:1999.24
[14:30:52] starting job
[14:30:52] sync: expecting 11956 video frames
[14:30:52] job configuration:
[14:30:52]  * source
[14:30:52]    + /Volumes/Snow Leopard/Users/ron/Movies/Let_Me_In/Let Me In.mkv
[14:30:52]    + title 1, chapter(s) 6 to 6
[14:30:52]    + container: matroska,webm
[14:30:52]    + data rate: 640 kbps
[14:30:52]  * destination
[14:30:52]    + /Volumes/Snow Leopard/Users/ron/Movies/Let Me In.m4v
[14:30:52]    + container: MPEG-4 (.mp4 and .m4v)
[14:30:52]      + 64-bit formatting
[14:30:52]  * video track
[14:30:52]    + decoder: h264
[14:30:52]    + frame rate: 23.976 fps -> constant 23.976 fps
[14:30:52]    + loose anamorphic
[14:30:52]      + storage dimensions: 1920 * 1080 -> 1280 * 544, crop 140/140/44/0, mod 16
[14:30:52]      + pixel aspect ratio: 7973 / 8000
[14:30:52]      + display dimensions: 1275 * 544
[14:30:52]    + encoder: x264
[14:30:52]      + options: me=umh:b-adapt=2
[14:30:52]      + bitrate: 2000 kbps, pass: 2
[14:30:52]  * audio track 0
[14:30:52]    + decoder: English (AC3) (5.1 ch) (track 1, id 0x1)
[14:30:52]      + bitrate: 640 kbps, samplerate: 48000 Hz
[14:30:52]    + mixdown: 6-channel discrete
[14:30:52]    + encoder: ffaac
[14:30:52]      + bitrate: 448 kbps, samplerate: 48000 Hz
[14:30:52] encx264: min-keyint: 24, keyint: 240
[14:30:52] encx264: encoding with stored aspect 7973/8000
x264 [warning]: --psnr used with psy on: results will be invalid!
x264 [warning]: --tune psnr should be used if attempting to benchmark psnr!
x264 [info]: using SAR=7973/8000
x264 [info]: using cpu capabilities: MMX2 SSE2Fast SSSE3 FastShuffle SSE4.2
[14:30:52] reader: first SCR 182435940 id 0x0 DTS 182435940
x264 [info]: profile High, level 3.1
No accelerated IMDCT transform found
[14:30:52] sync: adding 70 ms of silence to audio 0x1  start 6300, next 0
[14:42:55] reader: end of chapter 6 (media 6) reached at media chapter 7
[14:42:55] reader: done. 1 scr changes
[14:42:58] work: average encoding speed for job is 30.463802 fps
[14:42:58] sync: got 11956 frames, 11956 expected
[14:42:58] h264-decoder done: 11956 frames, 0 decoder errors, 0 drops
[14:42:58] render: 11957 frames output, 0 dropped and 1 duped for CFR/PFR
[14:42:58] render: lost time: 0 (0 frames)
[14:42:58] render: gained time: 0 (0 frames) (0 not accounted for)
x264 [info]: frame I:104   Avg QP:13.56  size: 80028  PSNR Mean Y:49.12 U:51.30 V:51.38 Avg:49.73 Global:49.52
x264 [info]: frame P:3160  Avg QP:15.97  size: 20035  PSNR Mean Y:47.09 U:50.00 V:50.13 Avg:47.86 Global:47.65
x264 [info]: frame B:8693  Avg QP:17.74  size:  6106  PSNR Mean Y:46.46 U:49.60 V:49.91 Avg:47.29 Global:47.06
x264 [info]: consecutive B-frames:  1.2%  3.5%  6.2% 89.1%
x264 [info]: mb I  I16..4:  9.8% 77.0% 13.2%
x264 [info]: mb P  I16..4:  0.4%  2.3%  0.4%  P16..4: 43.8% 26.2% 16.2%  0.0%  0.0%    skip:10.7%
x264 [info]: mb B  I16..4:  0.0%  0.2%  0.0%  B16..8: 53.0%  7.1%  1.2%  direct: 1.6%  skip:36.8%  L0:45.9% L1:50.4% BI: 3.7%
x264 [info]: 8x8 transform intra:76.3% inter:75.9%
x264 [info]: coded y,uvDC,uvAC intra: 82.3% 83.1% 63.7% inter: 23.5% 19.3% 2.8%
x264 [info]: i16 v,h,dc,p: 42% 11%  7% 41%
x264 [info]: i8 v,h,dc,ddl,ddr,vr,hd,vl,hu: 15% 12% 30%  6%  8%  7%  7%  7%  8%
x264 [info]: i4 v,h,dc,ddl,ddr,vr,hd,vl,hu: 18% 14% 19%  7% 11%  9%  9%  7%  6%
x264 [info]: i8c dc,h,v,p: 52% 18% 19% 10%
x264 [info]: Weighted P-Frames: Y:2.4% UV:1.7%
x264 [info]: ref P L0: 54.4%  6.9% 25.3% 13.1%  0.2%
x264 [info]: ref B L0: 77.2% 17.8%  5.0%
x264 [info]: ref B L1: 89.5% 10.5%
x264 [info]: SSIM Mean Y:0.9825345 (17.578db)
x264 [info]: PSNR Mean Y:46.646 U:49.718 V:49.978 Avg:47.463 Global:47.227 kb/s:2000.54
[14:42:58] mux: track 0, 11957 frames, 124705770 bytes, 1999.80 kbps, fifo 8
[14:42:58] mux: track 1, 23384 frames, 23664976 bytes, 379.49 kbps, fifo 256
[14:42:58] libhb: work result = 0
[14:42:59] macgui: incrementQueueItemDone there are no more pending encodes
Last edited by Rodeo on Wed Jul 13, 2011 5:31 pm, edited 1 time in total.
Reason: Activity Logs should be enclosed in [code] blocks

User avatar
Rodeo
HandBrake Team
Posts: 11114
Joined: Tue Mar 03, 2009 8:55 pm

Re: Mismapped channels under Lion (10.7)

Postby Rodeo » Wed Jul 13, 2011 5:32 pm

Does it also happen with Core Audio AAC?

Edit: another question - what are you using for playback? Did you try encoding under Lion, and playing the output under Snow Leopard?

DJRumpy
Posts: 8
Joined: Wed Jul 13, 2011 11:31 am

Re: Mismapped channels under Lion (10.7)

Postby DJRumpy » Mon Jul 18, 2011 12:19 pm

Let me do a quick test on the AAC (CoreAudio) and see. I'm fairly certain I tried both AAC and HE-AAC and saw the same issue but I want to verify that as it's been a few days. I'll have to wait for a current BD encode to finish so it may be a few hours. For playback, I tried two Mac's and an Apple TV 2. The macs were an iMac 27" and a Mac Mini (2009). The iMac was using the stock built in speaker setup (iMac 27") and for the other mac, I played it back using a Mac Mini using the SPDIF optical out to a 5.1 tuner and Plex. Both machines exhibited the RF channel audio issue. When played via Apple TV (which dumbs it down to Stereo since the audio was AAC), it also exhibited the same issue with almost all of the audio going out of the right speaker.

I encode the same movie on both SL and Lion with the same versions and the problem only appears when the movie is encoded on Lion. Encodes on Lion that were later played back in SL also exhibited the issue. I also tried grabbing an DTS instead of a 5.1 source from a few BD's and also saw the same issues, seemingly regardless of the type of source. I've since gone back and re-encoded all of these under SL using 4103 and they are fine in all of the above configurations. This definitely appears to be specific to Lion for some reason.

Let me know if you need anything else.

User avatar
Rodeo
HandBrake Team
Posts: 11114
Joined: Tue Mar 03, 2009 8:55 pm

Re: Mismapped channels under Lion (10.7)

Postby Rodeo » Mon Jul 18, 2011 1:23 pm

It appears to be a bug in Apple's channel remapping functions under Lion. There's a patch that replaces them with HandBrake's built-in remapping - hasn't been committed yet as it needs a bit of testing.

DJRumpy
Posts: 8
Joined: Wed Jul 13, 2011 11:31 am

Re: Mismapped channels under Lion (10.7)

Postby DJRumpy » Mon Jul 18, 2011 1:31 pm

So at this point I don't need to do any more testing? Just let me know and thanks!

User avatar
Rodeo
HandBrake Team
Posts: 11114
Joined: Tue Mar 03, 2009 8:55 pm

Re: Mismapped channels under Lion (10.7)

Postby Rodeo » Mon Jul 18, 2011 1:41 pm

Well, at least one dev has been able to reproduce the issue, so we shouldn't need your help at this point. The fix might not land in the nightlies for Lion's release, but it should be available shortly after.

DJRumpy
Posts: 8
Joined: Wed Jul 13, 2011 11:31 am

Re: Mismapped channels under Lion (10.7)

Postby DJRumpy » Mon Jul 18, 2011 1:48 pm

Excellent ;)

DJRumpy
Posts: 8
Joined: Wed Jul 13, 2011 11:31 am

Re: Mismapped channels under Lion (10.7)

Postby DJRumpy » Wed Jul 20, 2011 1:25 am

Is there an RSS feed for the nightly builds? About the only thing holding me back from using Lion as my primary at this point is this bug so I want to keep an eye out for the fix when it happens.

Thanks

User avatar
Rodeo
HandBrake Team
Posts: 11114
Joined: Tue Mar 03, 2009 8:55 pm

Re: Mismapped channels under Lion (10.7)

Postby Rodeo » Wed Jul 20, 2011 1:56 am


DJRumpy
Posts: 8
Joined: Wed Jul 13, 2011 11:31 am

Re: Mismapped channels under Lion (10.7)

Postby DJRumpy » Wed Jul 20, 2011 2:00 am

lol...always a step ahead!

DJRumpy
Posts: 8
Joined: Wed Jul 13, 2011 11:31 am

Re: Mismapped channels under Lion (10.7)

Postby DJRumpy » Sun Jul 24, 2011 4:41 pm

Looks like you guys just put in a patch for this?

Changeset 4132? Did that update make it into Build 533?

Thanks mucho for addressing this so quickly man ;)

User avatar
Rodeo
HandBrake Team
Posts: 11114
Joined: Tue Mar 03, 2009 8:55 pm

Re: Mismapped channels under Lion (10.7)

Postby Rodeo » Sun Jul 24, 2011 4:43 pm

The svn revision is part of the disk image's name. 4128 < 4132, so no. You'll have to wait until tomorrow's nightly.


Return to “Mac”