SVN3697 Crash

HandBrake for Mac support
Forum rules
An Activity Log is required for support requests. Please read How-to get an activity log? for details on how and why this should be provided.
Post Reply
ddf200
Posts: 20
Joined: Fri Feb 05, 2010 9:38 pm

SVN3697 Crash

Post by ddf200 » Fri Dec 03, 2010 4:39 am

I used latest MakeMKV to create MKV files from Bluray disc. Then used 3697 and it crashed almost immediately. Anyone know what I may be doing wrong?

OSX 10.6.5 in 64bit mode
Mac Pro

Activity log and encode log below.

Code: Select all

HandBrake Activity Log for Session (Cleared): 2010-12-02 19:15:50 -0800

[19:15:50] hb_init: checking cpu count
[19:15:50] hb_init: starting libhb thread
[19:15:50] macgui: Handbrake Version: svn3697 x86_64 (2010120201)
[19:15:50] hb_init: checking cpu count
[19:15:50] hb_init: starting libhb thread
[19:15:50] hb_init: checking cpu count
[19:15:50] hb_init: starting libhb thread
[19:15:52] macgui: hbInstances path to this instance: /Applications/Handbrake Nightly/HandBrake.app
[19:15:52] macgui: hbInstance found instance pidnum:49148 at path: /Applications/Handbrake Nightly/HandBrake.app
[19:15:52] macgui: hbInstance MATCH FOUND, our pidnum is:49148
[19:15:52] macgui: Pid for this instance:49148
[19:15:52] macgui: HBQueueController : My Pidnum is 49148
[19:16:01] macgui: didDimissReloadQueue number of hb instances:1
[19:16:01] macgui: didDimissReloadQueue First Button Chosen
[19:16:28] macgui: Rip: Pending queue count is 2
[19:16:28] macgui: getNextPendingQueueIndex next pending encode index is:0
[19:16:28] macgui: scanning specifically for title: 1
[19:16:28] hb_scan: path=/Volumes/Video 1 External/Movies/The Pacif1c/Disc 2/title04.mkv, title_index=1
libbluray/bdnav/index_parse.c:157: indx_parse(): error opening /Volumes/Video 1 External/Movies/The Pacif1c/Disc 2/title04.mkv/BDMV/index.bdmv
libbluray/bluray.c:960: nav_get_title_list(/Volumes/Video 1 External/Movies/The Pacif1c/Disc 2/title04.mkv) failed (0x10d020c00)
[19:16:28] bd: not a bd - trying as a stream/file instead
libdvdnav: Using dvdnav version 4.1.3
libdvdread: Using libdvdcss version 1.2.10 for DVD access
libdvdnav:DVDOpenFileUDF:UDFFindFile /VIDEO_TS/VIDEO_TS.IFO failed
libdvdnav:DVDOpenFileUDF:UDFFindFile /VIDEO_TS/VIDEO_TS.BUP failed
libdvdread: Can't open file VIDEO_TS.IFO.
libdvdnav: vm: failed to read VIDEO_TS.IFO
[19:16:28] dvd: not a dvd - trying as a stream/file instead
[dca @ 0x10281d400] Not a valid DCA frame
[dca @ 0x10281d400] Not a valid DCA frame
[dca @ 0x10281d400] Not a valid DCA frame
[dca @ 0x10281d400] Not a valid DCA frame
[dca @ 0x10281d400] Not a valid DCA frame
[dca @ 0x10281d400] Not a valid DCA frame
[dca @ 0x10281d400] Not a valid DCA frame
[dca @ 0x10281d400] Not a valid DCA frame
[dca @ 0x10281d400] Not a valid DCA frame
[dca @ 0x10281d400] Not a valid DCA frame
[dca @ 0x10281d400] Not a valid DCA frame
[dca @ 0x10281d400] Not a valid DCA frame
[dca @ 0x10281d400] Not a valid DCA frame
[dca @ 0x10281d400] Not a valid DCA frame
[dca @ 0x10281d400] Not a valid DCA frame
[dca @ 0x10281d400] Not a valid DCA frame
[dca @ 0x10281d400] Not a valid DCA frame
[dca @ 0x10281d400] Not a valid DCA frame
[dca @ 0x10281d400] Not a valid DCA frame
[dca @ 0x10281d400] Not a valid DCA frame
[dca @ 0x10281d400] Not a valid DCA frame
[dca @ 0x10281d400] Not a valid DCA frame
[dca @ 0x10281d400] Not a valid DCA frame
[dca @ 0x10281d400] Not a valid DCA frame
[dca @ 0x10281d400] Not a valid DCA frame
[dca @ 0x10281d400] Not a valid DCA frame
[dca @ 0x10281d400] Not a valid DCA frame
[dca @ 0x10281d400] Not a valid DCA frame
[dca @ 0x10281d400] Not a valid DCA frame
[dca @ 0x10281d400] Not a valid DCA frame
Input #0, matroska,webm, from '/Volumes/Video 1 External/Movies/The Pacif1c/Disc 2/title04.mkv':
  Duration: 00:56:18.94, start: 0.000000, bitrate: 3072 kb/s
    Stream #0.0(eng): Video: h264, yuv420p, 1920x1080 [PAR 1:1 DAR 16:9], 23.98 fps, 23.98 tbr, 1k tbn, 47.95 tbc
    Stream #0.1(eng): Audio: dca, 48000 Hz, 5.1, s16, 1536 kb/s
    Metadata:
      title           : Losless
    Stream #0.2(eng): Audio: dca, 48000 Hz, 5.1, s16, 1536 kb/s
    Metadata:
      title           : 3/2+1
    Stream #0.3(eng): Audio: dca, 48000 Hz, 0 channels, s16
    Metadata:
      title           : Express
    Stream #0.4(eng): Subtitle: pgssub
    Stream #0.5(eng): Subtitle: pgssub
    Stream #0.6(eng): Subtitle: pgssub
    Stream #0.7(eng): Subtitle: pgssub
    Stream #0.8(eng): Subtitle: pgssub
[19:16:28] Channels reported by ffmpeg (0) != computed layout channels (2).
[19:16:28] Unsupported number of audio channels (0).

[19:16:28] add_ffmpeg_subtitle: unknown subtitle stream type: 0x17006
[19:16:28] add_ffmpeg_subtitle: unknown subtitle stream type: 0x17006
[19:16:28] add_ffmpeg_subtitle: unknown subtitle stream type: 0x17006
[19:16:28] add_ffmpeg_subtitle: unknown subtitle stream type: 0x17006
[19:16:28] add_ffmpeg_subtitle: unknown subtitle stream type: 0x17006
[19:16:28] scan: decoding previews for title 1
[19:16:28] scan: audio 0x1: DCA, rate=48000Hz, bitrate=1536000 English (DTS) (5.1 ch)
[19:16:28] scan: audio 0x2: DCA, rate=48000Hz, bitrate=1536000 English (DTS) (5.1 ch)
[19:16:30] scan: 10 previews, 1920x1080, 23.976 fps, autocrop = 0/0/0/0, aspect 16:9, PAR 1:1
[19:16:30] scan: title (0) job->width:1920, job->height:1072
[19:16:30] libhb: scan thread found 1 valid title(s)
[19:16:30] macgui: ScanDone state received from fQueueEncodeLibhb
[19:16:30] macgui: Preset: Blu-Ray3
[19:16:30] macgui: processNewQueueEncode number of passes expected is: 2
[19:16:30] macgui: Start / Stop set to chapters
[19:16:30] macgui: prepareJob exiting
[19:16:30] 2 job(s) to process
[19:16:30] starting job
[19:16:30] sync: expecting 81037 video frames
[19:16:30] job configuration:
[19:16:30]  * source
[19:16:30]    + /Volumes/Video 1 External/Movies/The Pacif1c/Disc 2/title04.mkv
[19:16:30]    + title 1, chapter(s) 1 to 1
[19:16:30]    + container: matroska,webm
[19:16:30]    + data rate: 3072 kbps
[19:16:30]  * destination
[19:16:30]    + /Volumes/Mac Data/Movies/Needs Titles/1/The Pacif1c/Disc 1/title04.m4v
[19:16:30]    + container: MPEG-4 (.mp4 and .m4v)
[19:16:30]      + 64-bit formatting
[19:16:30]  * video track
[19:16:30]    + decoder: h264
[19:16:30]    + frame rate: same as source (around 23.976 fps)
[19:16:30]    + loose anamorphic
[19:16:30]      + storage dimensions: 1920 * 1080 -> 1280 * 720, crop 0/0/0/0, mod 16
[19:16:30]      + pixel aspect ratio: 1 / 1
[19:16:30]      + display dimensions: 1280 * 720
[19:16:30]    + encoder: x264
[19:16:30]      + options: cabac=0:ref=2:me=umh:b-pyramid=none:b-adapt=2:weightb=0:trellis=0:weightp=0:vbv-maxrate=9500:vbv-bufsize=9500:rc-lookahead=50:ref=1:subme=2:me=dia:analyse=none:trellis=0:no-fast-pskip=0:8x8dct=0:weightb=0
[19:16:30]      + bitrate: 4800 kbps, pass: 1
[19:16:30]  * audio track 0
[19:16:30]    + decoder: English (DTS) (5.1 ch) (track 1, id 1)
[19:16:30]      + bitrate: 1536 kbps, samplerate: 48000 Hz
[19:16:30]    + mixdown: Dolby Pro Logic II
[19:16:30]    + encoder: ca_aac
[19:16:30]      + bitrate: 192 kbps, samplerate: 48000 Hz
[19:16:30]  * audio track 1
[19:16:30]    + decoder: English (DTS) (5.1 ch) (track 1, id 1)
[19:16:30]      + bitrate: 1536 kbps, samplerate: 48000 Hz
[19:16:30]    + mixdown: 6-channel discrete
[19:16:30]    + encoder: ffac3
[19:16:30]      + bitrate: 640 kbps, samplerate: 48000 Hz
[19:16:30] encx264: min-keyint: auto (23), keyint: 240
[19:16:30] encx264: encoding with stored aspect 1/1
x264 [info]: using SAR=1/1
x264 [info]: using cpu capabilities: MMX2 SSE2Fast SSSE3 FastShuffle SSE4.2
[dca @ 0x10d07dc00] Not a valid DCA frame
[dca @ 0x10d07dc00] Not a valid DCA frame
x264 [info]: profile Main, level 3.1
[dca @ 0x10d07dc00] Not a valid DCA frame
[dca @ 0x10d07dc00] Not a valid DCA frame
[dca @ 0x10d07dc00] Not a valid DCA frame
[dca @ 0x10d07dc00] Not a valid DCA frame
[dca @ 0x10d07dc00] Not a valid DCA frame
[dca @ 0x10d07dc00] Not a valid DCA frame
[dca @ 0x10d07dc00] Not a valid DCA frame
[dca @ 0x10d07dc00] Not a valid DCA frame
[dca @ 0x10d07dc00] Not a valid DCA frame
[dca @ 0x10d07dc00] Not a valid DCA frame
[dca @ 0x10d07dc00] Not a valid DCA frame
[dca @ 0x10d07dc00] Not a valid DCA frame
[dca @ 0x10d07dc00] Not a valid DCA frame
[dca @ 0x10d07dc00] Not a valid DCA frame
[dca @ 0x10d07dc00] Not a valid DCA frame
[dca @ 0x10d07dc00] Not a valid DCA frame
[dca @ 0x10d07dc00] Not a valid DCA frame
[dca @ 0x10d07dc00] Not a valid DCA frame
[dca @ 0x10d07dc00] Not a valid DCA frame
[dca @ 0x10d07dc00] Not a valid DCA frame
[dca @ 0x10d07dc00] Not a valid DCA frame
[dca @ 0x10d07dc00] Not a valid DCA frame
[dca @ 0x10d07dc00] Not a valid DCA frame
[dca @ 0x10d07dc00] Not a valid DCA frame
[dca @ 0x10d07dc00] Not a valid DCA frame
[dca @ 0x10d07dc00] Not a valid DCA frame
[dca @ 0x10d07dc00] Not a valid DCA frame
[dca @ 0x10d07dc00] Not a valid DCA frame
[19:16:30] reader: first SCR 0 id 1 DTS 0
Stream with high frequencies VQ coding
[19:16:30] dca_syncinfo failed
[19:16:30] dca_syncinfo ok
[19:16:30] dca_syncinfo failed
[19:16:30] dca_syncinfo ok
[19:16:30] dca_syncinfo failed
[19:16:30] dca_syncinfo ok
[19:16:30] dca_syncinfo failed
[19:16:30] dca_syncinfo ok
[19:16:30] dca_syncinfo failed
[19:16:30] dca_syncinfo ok
[19:16:30] dca_syncinfo failed
[19:16:30] dca_syncinfo ok
[19:16:30] dca_syncinfo failed
[19:16:30] dca_syncinfo ok
[19:16:30] dca_syncinfo failed
[19:16:30] dca_syncinfo ok
[19:16:30] dca_syncinfo failed
[19:16:30] dca_syncinfo ok
[19:16:30] dca_syncinfo failed
[19:16:30] dca_syncinfo ok
[19:16:30] dca_syncinfo failed
[19:16:30] dca_syncinfo ok
[19:16:30] dca_syncinfo failed
[19:16:30] dca_syncinfo ok
[19:16:30] dca_syncinfo failed
[19:16:30] dca_syncinfo ok
[19:16:30] dca_syncinfo failed
[19:16:30] dca_syncinfo ok
[19:16:30] dca_syncinfo failed
[19:16:30] dca_syncinfo ok
[19:16:30] dca_syncinfo failed
[19:16:30] dca_syncinfo ok
[19:16:30] dca_syncinfo failed
[19:16:30] dca_syncinfo ok
[19:16:30] dca_syncinfo failed
[19:16:30] dca_syncinfo ok
[19:16:30] dca_syncinfo failed
[19:16:30] dca_syncinfo ok
[19:16:30] dca_syncinfo failed
[19:16:30] dca_syncinfo ok
[19:16:30] dca_syncinfo failed
[19:16:30] dca_syncinfo ok
[19:16:30] dca_syncinfo failed
[19:16:30] dca_syncinfo ok
[19:16:30] dca_syncinfo failed
[19:16:30] dca_syncinfo ok
[19:16:30] dca_syncinfo failed
[19:16:30] dca_syncinfo ok
[19:16:30] dca_syncinfo failed
[19:16:30] dca_syncinfo ok
[19:16:30] dca_syncinfo failed
[19:16:30] dca_syncinfo ok
[19:16:30] dca_syncinfo failed
[19:16:30] dca_syncinfo ok
[19:16:30] dca_syncinfo failed
[19:16:30] dca_syncinfo ok
[19:16:30] dca_syncinfo failed
[19:16:30] dca_syncinfo ok
[19:16:30] dca_syncinfo failed
[19:16:30] dca_syncinfo ok
[19:16:30] dca_syncinfo failed
[19:16:30] dca_syncinfo ok
[19:16:30] dca_syncinfo failed
Stream with high frequencies VQ coding
[19:16:30] dca_syncinfo failed
[19:16:30] dca_syncinfo ok
[19:16:30] dca_syncinfo failed
[19:16:30] dca_syncinfo ok
[19:16:30] dca_syncinfo failed
[19:16:30] dca_syncinfo ok
[19:16:30] dca_syncinfo failed
[19:16:30] dca_syncinfo ok
[19:16:30] dca_syncinfo failed
[19:16:30] dca_syncinfo ok
[19:16:30] dca_syncinfo failed
[19:16:30] dca_syncinfo ok
[19:16:30] dca_syncinfo failed
[19:16:30] dca_syncinfo ok
[19:16:30] dca_syncinfo failed
[19:16:30] dca_syncinfo ok
[19:16:30] dca_syncinfo failed
[19:16:30] dca_syncinfo ok
[19:16:30] dca_syncinfo failed
[19:16:30] dca_syncinfo ok
[19:16:30] dca_syncinfo failed
[19:16:30] dca_syncinfo ok
[19:16:30] dca_syncinfo failed
[19:16:30] dca_syncinfo ok
[19:16:30] dca_syncinfo failed
[19:16:30] dca_syncinfo ok
[19:16:30] dca_syncinfo failed
[19:16:30] dca_syncinfo ok
[19:16:30] dca_syncinfo failed
[19:16:30] dca_syncinfo ok
[19:16:30] dca_syncinfo failed
[19:16:30] dca_syncinfo ok
[19:16:30] dca_syncinfo ok
[19:16:30] dca_syncinfo failed
[19:16:30] dca_syncinfo failed
[19:16:30] dca_syncinfo ok
[19:16:30] dca_syncinfo ok
[19:16:30] dca_syncinfo failed
[19:16:30] dca_syncinfo failed
[19:16:30] dca_syncinfo ok
[19:16:30] dca_syncinfo ok
[19:16:30] dca_syncinfo failed
[19:16:30] dca_syncinfo failed
[19:16:30] dca_syncinfo ok
[19:16:30] dca_syncinfo ok
[19:16:30] dca_syncinfo failed
[19:16:30] dca_syncinfo failed
[19:16:30] dca_syncinfo ok
[19:16:30] dca_syncinfo ok
[19:16:30] dca_syncinfo failed
[19:16:30] dca_syncinfo failed
[19:16:30] dca_syncinfo ok
[19:16:30] dca_syncinfo ok
[19:16:30] dca_syncinfo failed
[19:16:30] dca_syncinfo failed
[19:16:30] dca_syncinfo ok
[19:16:30] dca_syncinfo ok
[19:16:30] dca_syncinfo failed
[19:16:30] dca_syncinfo failed
[19:16:30] dca_syncinfo ok
[19:16:30] dca_syncinfo ok
[19:16:30] dca_syncinfo failed
[19:16:30] dca_syncinfo failed
[19:16:30] dca_syncinfo ok
[19:16:30] dca_syncinfo ok
[19:16:30] dca_syncinfo failed
[19:16:30] dca_syncinfo failed
[19:16:30] dca_syncinfo ok
[19:16:30] dca_syncinfo ok
[19:16:30] dca_syncinfo failed
[19:16:30] dca_syncinfo failed
[19:16:30] dca_syncinfo ok
[19:16:30] dca_syncinfo ok
[19:16:30] dca_syncinfo failed
[19:16:30] dca_syncinfo failed
[19:16:30] dca_syncinfo ok
[19:16:30] dca_syncinfo ok
[19:16:30] dca_syncinfo failed
[19:16:30] dca_syncinfo failed
[19:16:30] dca_syncinfo ok
[19:16:30] dca_syncinfo ok
[19:16:30] dca_syncinfo failed
[19:16:30] dca_syncinfo failed
[19:16:30] dca_syncinfo ok
[19:16:30] dca_syncinfo ok
[19:16:30] dca_syncinfo failed
[19:16:30] dca_syncinfo failed
[19:16:30] dca_syncinfo ok
[19:16:30] dca_syncinfo ok
[19:16:30] dca_syncinfo failed
[19:16:30] dca_syncinfo ok
[19:16:30] dca_syncinfo failed
[19:16:30] dca_syncinfo failed
[19:16:30] dca_syncinfo ok
[19:16:30] dca_syncinfo ok
[19:16:30] dca_syncinfo failed
[19:16:30] dca_syncinfo ok
[19:16:30] dca_syncinfo failed
[19:16:30] dca_syncinfo failed
[19:16:30] dca_syncinfo ok
[19:16:30] dca_syncinfo ok
[19:16:30] dca_syncinfo failed
[19:16:30] dca_syncinfo failed
[19:16:30] dca_syncinfo ok
[19:16:30] dca_syncinfo ok
[19:16:30] dca_syncinfo failed
[19:16:30] dca_syncinfo failed
[19:16:30] dca_syncinfo ok
[19:16:30] dca_syncinfo ok
[19:16:30] dca_syncinfo failed
[19:16:30] dca_syncinfo failed
[19:16:30] dca_syncinfo ok
[19:16:30] dca_syncinfo ok
[19:16:30] dca_syncinfo failed
[19:16:30] dca_syncinfo failed
[19:16:30] dca_syncinfo ok
[19:16:30] dca_syncinfo ok
[19:16:30] dca_syncinfo failed
[19:16:30] dca_syncinfo failed
[19:16:30] dca_syncinfo ok
[19:16:30] dca_syncinfo ok
[19:16:30] dca_syncinfo failed
[19:16:30] dca_syncinfo failed
[19:16:30] dca_syncinfo ok
[19:16:30] dca_syncinfo ok
[19:16:30] dca_syncinfo failed
[19:16:30] dca_syncinfo failed
[19:16:30] dca_syncinfo ok
[19:16:30] dca_syncinfo ok
[19:16:30] dca_syncinfo failed
[19:16:30] dca_syncinfo failed
[19:16:30] dca_syncinfo ok
[19:16:30] dca_syncinfo ok
[19:16:30] dca_syncinfo failed
[19:16:30] dca_syncinfo failed
[19:16:30] dca_syncinfo ok
[19:16:30] dca_syncinfo ok
[19:16:30] dca_syncinfo failed
[19:16:30] dca_syncinfo failed
[19:16:30] dca_syncinfo ok
[19:16:30] dca_syncinfo ok
[19:16:30] dca_syncinfo failed
[19:16:30] dca_syncinfo failed
[19:16:30] dca_syncinfo ok
[19:16:30] dca_syncinfo ok
[19:16:30] dca_syncinfo failed
[19:16:30] dca_syncinfo failed
[19:16:30] dca_syncinfo ok
[19:16:30] dca_syncinfo ok
[19:16:30] dca_syncinfo failed
[19:16:30] dca_syncinfo ok
[19:16:30] dca_syncinfo failed
[19:16:30] dca_syncinfo ok
[19:16:30] dca_syncinfo failed
[19:16:30] dca_syncinfo failed
[19:16:30] dca_syncinfo ok
[19:16:30] dca_syncinfo failed
[19:16:30] dca_syncinfo ok
[19:16:30] dca_syncinfo failed
[19:16:30] dca_syncinfo ok
[19:16:30] dca_syncinfo ok
[19:16:30] dca_syncinfo failed
[19:16:30] dca_syncinfo ok
[19:16:30] dca_syncinfo failed
[19:16:30] dca_syncinfo ok
[19:16:30] dca_syncinfo failed
[19:16:30] dca_syncinfo ok
[19:16:30] dca_syncinfo failed
[19:16:30] dca_syncinfo ok
[19:16:30] dca_syncinfo failed
[19:16:30] dca_syncinfo ok
[19:16:30] dca_syncinfo failed
[19:16:30] dca_syncinfo ok
[19:16:30] dca_syncinfo failed
[19:16:30] dca_syncinfo ok
[19:16:30] dca_syncinfo failed
[19:16:30] dca_syncinfo ok
[19:16:30] dca_syncinfo failed
[19:16:30] dca_syncinfo failed
[19:16:30] dca_syncinfo ok
[19:16:30] dca_syncinfo ok
[19:16:30] dca_syncinfo failed
[19:16:30] dca_syncinfo ok
[19:16:30] dca_syncinfo failed
[19:16:30] dca_syncinfo ok
[19:16:30] dca_syncinfo failed
[19:16:30] dca_syncinfo ok
[19:16:30] dca_syncinfo failed
[19:16:30] dca_syncinfo ok
[19:16:30] dca_syncinfo failed
[19:16:30] dca_syncinfo ok
[19:16:30] dca_syncinfo failed
[19:16:30] dca_syncinfo failed
[19:16:30] dca_syncinfo ok
[19:16:30] dca_syncinfo ok
[19:16:30] dca_syncinfo failed
[19:16:30] dca_syncinfo failed
[19:16:30] dca_syncinfo ok
[19:16:30] dca_syncinfo ok
[19:16:30] dca_syncinfo failed
[19:16:30] dca_syncinfo failed
[19:16:30] dca_syncinfo ok
[19:16:30] dca_syncinfo ok
[19:16:30] dca_syncinfo failed
[19:16:30] dca_syncinfo failed
[19:16:30] dca_syncinfo ok
[19:16:30] dca_syncinfo ok
[19:16:30] dca_syncinfo failed
[19:16:30] dca_syncinfo failed
[19:16:30] dca_syncinfo ok
[19:16:30] dca_syncinfo ok
[19:16:30] dca_syncinfo failed
[19:16:30] dca_syncinfo failed
[19:16:30] dca_syncinfo ok
[19:16:30] dca_syncinfo ok
[19:16:30] dca_syncinfo failed
[19:16:30] dca_syncinfo failed
[19:16:30] dca_syncinfo ok
[19:16:30] dca_syncinfo ok
[19:16:30] dca_syncinfo failed
[19:16:30] dca_syncinfo failed
[19:16:30] dca_syncinfo ok
[19:16:30] dca_syncinfo failed
[19:16:30] dca_syncinfo ok
[19:16:30] dca_syncinfo failed
[19:16:30] dca_syncinfo ok
[19:16:30] dca_syncinfo failed
[19:16:30] dca_syncinfo ok
[19:16:30] dca_syncinfo failed
[19:16:30] dca_syncinfo ok
[19:16:30] dca_syncinfo failed
[19:16:30] dca_syncinfo ok
[19:16:30] dca_syncinfo ok
[19:16:30] dca_syncinfo failed
[19:16:30] dca_syncinfo ok
[19:16:30] dca_syncinfo failed
[19:16:30] dca_syncinfo ok
[19:16:30] dca_syncinfo failed
[19:16:30] dca_syncinfo ok
[19:16:30] dca_syncinfo failed
[19:16:30] dca_syncinfo failed
[19:16:30] dca_syncinfo ok
[19:16:30] dca_syncinfo ok
[19:16:30] dca_syncinfo failed
[19:16:30] dca_syncinfo failed
[19:16:30] dca_syncinfo ok
[19:16:30] dca_syncinfo ok
[19:16:30] dca_syncinfo failed
[19:16:30] dca_syncinfo ok
[19:16:30] dca_syncinfo failed
[19:16:30] dca_syncinfo failed
[19:16:30] dca_syncinfo ok
[19:16:30] dca_syncinfo ok
[19:16:30] dca_syncinfo failed
[19:16:30] dca_syncinfo failed
[19:16:30] dca_syncinfo ok
[19:16:30] dca_syncinfo ok
[19:16:30] dca_syncinfo failed
[19:16:30] dca_syncinfo failed
[19:16:30] dca_syncinfo ok
[19:16:30] dca_syncinfo ok
[19:16:30] dca_syncinfo failed
[19:16:30] dca_syncinfo ok
[19:16:30] dca_syncinfo failed
[19:16:30] dca_syncinfo ok
[19:16:30] dca_syncinfo failed
[19:16:30] dca_syncinfo ok
[19:16:30] dca_syncinfo failed
[19:16:30] dca_syncinfo failed
[19:16:30] dca_syncinfo ok
[19:16:30] dca_syncinfo ok
[19:16:30] dca_syncinfo failed
[19:16:30] dca_syncinfo ok
[19:16:30] dca_syncinfo failed
[19:16:30] dca_syncinfo ok
[19:16:30] dca_syncinfo failed
[19:16:30] dca_syncinfo ok
[19:16:30] dca_syncinfo failed
[19:16:30] dca_syncinfo failed
[19:16:30] dca_syncinfo ok
[19:16:30] dca_syncinfo ok
[19:16:30] dca_syncinfo failed
[19:16:30] dca_syncinfo ok
[19:16:30] dca_syncinfo failed
[19:16:30] dca_syncinfo ok
[19:16:30] dca_syncinfo failed
[19:16:30] dca_syncinfo ok
[19:16:30] dca_syncinfo failed
[19:16:30] dca_syncinfo ok
[19:16:30] dca_syncinfo failed
[19:16:30] dca_syncinfo ok
[19:16:30] dca_syncinfo failed
[19:16:30] dca_syncinfo ok
[19:16:30] dca_syncinfo failed
[19:16:30] dca_syncinfo failed
[19:16:30] dca_syncinfo ok
[19:16:30] dca_syncinfo ok
[19:16:30] dca_syncinfo failed
[19:16:30] dca_syncinfo failed
[19:16:30] dca_syncinfo ok
[19:16:30] dca_syncinfo ok
[19:16:30] dca_syncinfo failed
[19:16:30] dca_syncinfo failed
[19:16:30] dca_syncinfo ok
[19:16:30] dca_syncinfo ok
[19:16:30] dca_syncinfo failed
[19:16:30] dca_syncinfo failed
[19:16:30] dca_syncinfo ok
[19:16:30] dca_syncinfo ok
[19:16:30] dca_syncinfo failed
[19:16:30] dca_syncinfo failed
[19:16:30] dca_syncinfo ok
[19:16:30] dca_syncinfo ok
[19:16:30] dca_syncinfo failed
[19:16:30] dca_syncinfo failed
[19:16:30] dca_syncinfo ok
[19:16:30] dca_syncinfo ok
[19:16:30] dca_syncinfo failed
[19:16:30] dca_syncinfo failed
[19:16:30] dca_syncinfo ok
[19:16:30] dca_syncinfo ok
[19:16:30] dca_syncinfo failed
[19:16:30] dca_syncinfo ok
[19:16:30] dca_syncinfo failed
[19:16:30] dca_syncinfo ok
[19:16:30] dca_syncinfo failed
[19:16:30] dca_syncinfo ok
[19:16:30] dca_syncinfo failed
[19:16:30] dca_syncinfo failed
[19:16:30] dca_syncinfo ok
[19:16:30] dca_syncinfo ok
[19:16:30] dca_syncinfo failed
[19:16:30] dca_syncinfo ok
[19:16:30] dca_syncinfo failed
[19:16:30] dca_syncinfo failed
[19:16:30] dca_syncinfo ok
[19:16:30] sync: adding 106 ms of silence to audio 1  start 107460, next 97920
[19:16:30] dca_syncinfo ok
[19:16:30] dca_syncinfo failed
[19:16:30] dca_syncinfo ok
[19:16:30] dca_syncinfo failed
[19:16:30] dca_syncinfo failed
[19:16:30] dca_syncinfo ok
[19:16:30] dca_syncinfo ok
[19:16:30] dca_syncinfo failed
[19:16:30] dca_syncinfo failed
[19:16:30] dca_syncinfo ok
[19:16:30] dca_syncinfo ok
[19:16:30] dca_syncinfo failed
[19:16:30] dca_syncinfo failed
[19:16:30] dca_syncinfo ok
[19:16:30] dca_syncinfo ok
[19:16:30] dca_syncinfo failed
[19:16:30] dca_syncinfo ok
[19:16:30] dca_syncinfo failed
[19:16:30] dca_syncinfo failed
[19:16:30] dca_syncinfo ok
[19:16:30] dca_syncinfo ok
[19:16:30] dca_syncinfo failed
[19:16:30] dca_syncinfo failed
[19:16:30] dca_syncinfo ok
[19:16:30] dca_syncinfo ok
[19:16:30] dca_syncinfo failed
[19:16:30] dca_syncinfo ok
[19:16:30] dca_syncinfo failed
[19:16:30] dca_syncinfo failed
[19:16:30] dca_syncinfo ok
[19:16:30] dca_syncinfo ok
[19:16:30] dca_syncinfo failed
[19:16:30] dca_syncinfo failed
[19:16:30] dca_syncinfo ok
[19:16:30] dca_syncinfo ok
[19:16:30] dca_syncinfo failed
[19:16:30] dca_syncinfo failed
[19:16:30] dca_syncinfo ok
[19:16:30] dca_syncinfo ok
[19:16:30] dca_syncinfo failed
[19:16:30] dca_syncinfo ok
[19:16:30] dca_syncinfo failed
[19:16:30] dca_syncinfo failed
[19:16:30] dca_syncinfo ok
[19:16:30] dca_syncinfo ok
[19:16:30] dca_syncinfo failed
[19:16:30] dca_syncinfo ok
[19:16:30] dca_syncinfo failed
[19:16:30] dca_syncinfo ok
[19:16:30] sync: audio 1 time went backwards 0 ms, dropped 5 frames (next 114240, current 114240)
[19:16:30] dca_syncinfo failed
[19:16:30] dca_syncinfo failed
[19:16:30] dca_syncinfo ok
[19:16:30] dca_syncinfo ok
[19:16:30] dca_syncinfo failed
[19:16:30] dca_syncinfo failed
[19:16:30] dca_syncinfo ok
[19:16:30] sync: adding 106 ms of silence to audio 1  start 107460, next 97920
[19:16:30] dca_syncinfo ok
[19:16:30] dca_syncinfo failed
[19:16:30] dca_syncinfo failed
[19:16:30] dca_syncinfo ok
[19:16:30] dca_syncinfo ok
[19:16:30] dca_syncinfo failed
[19:16:30] dca_syncinfo ok
[19:16:30] dca_syncinfo failed
[19:16:30] dca_syncinfo ok
[19:16:30] dca_syncinfo failed
[19:16:30] dca_syncinfo ok
[19:16:30] dca_syncinfo failed
[19:16:30] dca_syncinfo failed
[19:16:30] dca_syncinfo ok
[19:16:30] dca_syncinfo ok
[19:16:30] dca_syncinfo failed
[19:16:30] dca_syncinfo failed
[19:16:30] dca_syncinfo ok
[19:16:30] dca_syncinfo ok
[19:16:30] dca_syncinfo failed
[19:16:30] dca_syncinfo ok
[19:16:30] dca_syncinfo failed
[19:16:30] dca_syncinfo failed
[19:16:30] dca_syncinfo ok
[19:16:30] dca_syncinfo ok
[19:16:30] dca_syncinfo failed
[19:16:30] dca_syncinfo ok
[19:16:30] dca_syncinfo failed
[19:16:30] dca_syncinfo failed
[19:16:30] dca_syncinfo ok
[19:16:30] dca_syncinfo ok
[19:16:30] dca_syncinfo failed
[19:16:30] dca_syncinfo failed
[19:16:30] dca_syncinfo ok
[19:16:30] dca_syncinfo failed
[19:16:30] dca_syncinfo ok
[19:16:30] dca_syncinfo failed
[19:16:30] dca_syncinfo ok
[19:16:30] dca_syncinfo failed
[19:16:30] dca_syncinfo ok
[19:16:30] dca_syncinfo failed
[19:16:30] dca_syncinfo ok
[19:16:30] dca_syncinfo ok
[19:16:30] dca_syncinfo failed
[19:16:30] dca_syncinfo failed
[19:16:30] dca_syncinfo ok
[19:16:30] dca_syncinfo ok
[19:16:30] dca_syncinfo failed
[19:16:30] dca_syncinfo ok
[19:16:30] dca_syncinfo failed
[19:16:30] sync: audio 1 time went backwards 0 ms, dropped 5 frames (next 114240, current 114240)
[19:16:30] dca_syncinfo ok
[19:16:30] dca_syncinfo failed
[19:16:30] dca_syncinfo failed
[19:16:30] dca_syncinfo ok
[19:16:30] dca_syncinfo ok
[19:16:30] sync: adding 125 ms of silence to audio 1  start 135090, next 123840
[19:16:30] dca_syncinfo failed
[19:16:30] dca_syncinfo failed
[19:16:30] dca_syncinfo ok
[19:16:30] dca_syncinfo ok
[19:16:30] dca_syncinfo failed
[19:16:30] dca_syncinfo ok
[19:16:30] dca_syncinfo failed
[19:16:30] dca_syncinfo ok
[19:16:30] dca_syncinfo failed
[19:16:30] dca_syncinfo ok
[19:16:30] dca_syncinfo failed
[19:16:30] dca_syncinfo failed
[19:16:30] dca_syncinfo ok
[19:16:30] dca_syncinfo ok
[19:16:30] dca_syncinfo failed
[19:16:30] dca_syncinfo failed
[19:16:30] dca_syncinfo ok
[19:16:30] dca_syncinfo ok
[19:16:30] dca_syncinfo failed
[19:16:30] dca_syncinfo failed
[19:16:30] dca_syncinfo ok
[19:16:30] dca_syncinfo ok
[19:16:30] dca_syncinfo failed
[19:16:30] dca_syncinfo failed
[19:16:30] dca_syncinfo ok
[19:16:30] dca_syncinfo ok
[19:16:30] dca_syncinfo failed
[19:16:30] dca_syncinfo failed
[19:16:30] dca_syncinfo ok
[19:16:30] dca_syncinfo ok
[19:16:30] dca_syncinfo failed
[19:16:30] dca_syncinfo failed
[19:16:30] dca_syncinfo ok
[19:16:30] dca_syncinfo ok
[19:16:30] dca_syncinfo failed
[19:16:30] dca_syncinfo ok
[19:16:30] dca_syncinfo failed
[19:16:30] dca_syncinfo ok
[19:16:30] dca_syncinfo failed
[19:16:30] dca_syncinfo ok
[19:16:30] dca_syncinfo failed
[19:16:30] dca_syncinfo failed
[19:16:30] dca_syncinfo ok
[19:16:30] dca_syncinfo ok
[19:16:30] dca_syncinfo failed
[19:16:30] dca_syncinfo failed
[19:16:30] dca_syncinfo ok
[19:16:30] dca_syncinfo ok
[19:16:30] dca_syncinfo failed
[19:16:30] dca_syncinfo failed
[19:16:30] dca_syncinfo ok
[19:16:30] sync: adding 125 ms of silence to audio 1  start 135090, next 123840
[19:16:30] dca_syncinfo ok
[19:16:30] dca_syncinfo failed
[19:16:30] dca_syncinfo failed
[19:16:30] dca_syncinfo ok
[19:16:30] dca_syncinfo ok
[19:16:30] dca_syncinfo failed
[19:16:30] dca_syncinfo failed
[19:16:30] dca_syncinfo ok
[19:16:30] dca_syncinfo ok
[19:16:30] dca_syncinfo failed
[19:16:30] dca_syncinfo failed
[19:16:30] dca_syncinfo ok
[19:16:30] dca_syncinfo ok
[19:16:30] sync: audio 1 time went backwards 0 ms, dropped 10 frames (next 138240, current 138240)
[19:16:30] sync: adding 105 ms of silence to audio 1  start 152550, next 143040
[19:16:30] dca_syncinfo failed
[19:16:30] dca_syncinfo failed
[19:16:30] dca_syncinfo ok
[19:16:30] dca_syncinfo ok
[19:16:30] dca_syncinfo failed
[19:16:30] dca_syncinfo ok
[19:16:30] dca_syncinfo failed
[19:16:30] dca_syncinfo failed
[19:16:30] dca_syncinfo ok
[19:16:30] dca_syncinfo ok
[19:16:30] dca_syncinfo failed
[19:16:30] dca_syncinfo ok
[19:16:30] dca_syncinfo failed
[19:16:30] dca_syncinfo failed
[19:16:30] dca_syncinfo ok
[19:16:30] dca_syncinfo ok
[19:16:30] dca_syncinfo failed
[19:16:30] dca_syncinfo failed
[19:16:30] dca_syncinfo ok
[19:16:30] dca_syncinfo ok
[19:16:30] dca_syncinfo failed
[19:16:30] dca_syncinfo ok
[19:16:30] dca_syncinfo failed
[19:16:30] dca_syncinfo failed
[19:16:30] dca_syncinfo ok
[19:16:30] dca_syncinfo ok
[19:16:30] dca_syncinfo failed
[19:16:30] dca_syncinfo ok
[19:16:30] dca_syncinfo failed
[19:16:30] dca_syncinfo ok
[19:16:30] dca_syncinfo failed
[19:16:30] dca_syncinfo failed
[19:16:30] dca_syncinfo ok
[19:16:30] dca_syncinfo failed
[19:16:30] dca_syncinfo ok
[19:16:30] dca_syncinfo failed
[19:16:30] dca_syncinfo ok
[19:16:30] dca_syncinfo failed
[19:16:30] dca_syncinfo ok
[19:16:30] dca_syncinfo failed
[19:16:30] dca_syncinfo ok
[19:16:30] dca_syncinfo failed
[19:16:30] dca_syncinfo ok
[19:16:30] sync: audio 1 time went backwards 0 ms, dropped 10 frames (next 138240, current 138240)
[19:16:30] dca_syncinfo failed
[19:16:30] sync: audio 1 time went backwards 0 ms, dropped 10 frames (next 154560, current 154560)
[19:16:30] dca_syncinfo ok
[19:16:30] dca_syncinfo ok
[19:16:30] dca_syncinfo failed
[19:16:30] dca_syncinfo ok
[19:16:30] dca_syncinfo failed
[19:16:30] dca_syncinfo failed
[19:16:30] dca_syncinfo ok
[19:16:30] dca_syncinfo ok
[19:16:30] dca_syncinfo failed
[19:16:30] dca_syncinfo failed
[19:16:30] dca_syncinfo ok
[19:16:30] dca_syncinfo failed
[19:16:30] dca_syncinfo ok
[19:16:30] dca_syncinfo failed
[19:16:30] dca_syncinfo ok
[19:16:30] dca_syncinfo failed
[19:16:30] dca_syncinfo ok
[19:16:30] dca_syncinfo failed
[19:16:30] dca_syncinfo ok
[19:16:30] dca_syncinfo failed
[19:16:30] dca_syncinfo ok
[19:16:30] dca_syncinfo failed
[19:16:30] dca_syncinfo ok
[19:16:30] dca_syncinfo failed
[19:16:30] sync: adding 105 ms of silence to audio 1  start 152550, next 143040
[19:16:30] sync: audio 1 time went backwards 0 ms, dropped 10 frames (next 154560, current 154560)
[19:16:30] dca_syncinfo ok
[19:16:30] dca_syncinfo failed
[19:16:30] dca_syncinfo ok
[19:16:30] dca_syncinfo failed
[19:16:30] dca_syncinfo ok
[19:16:30] dca_syncinfo failed
[19:16:30] dca_syncinfo ok
[19:16:30] dca_syncinfo failed
[19:16:30] dca_syncinfo ok
[19:16:30] dca_syncinfo failed
[19:16:30] dca_syncinfo ok
[19:16:30] dca_syncinfo failed
[19:16:31] dca_syncinfo ok
[19:16:31] dca_syncinfo ok
[19:16:31] dca_syncinfo failed
[19:16:31] dca_syncinfo failed
[19:16:31] dca_syncinfo ok
[19:16:31] dca_syncinfo ok
[19:16:31] dca_syncinfo failed
[19:16:31] dca_syncinfo failed
[19:16:31] dca_syncinfo ok
[19:16:31] dca_syncinfo ok
[19:16:31] dca_syncinfo failed
[19:16:31] dca_syncinfo failed
[19:16:31] dca_syncinfo ok
[19:16:31] dca_syncinfo ok
[19:16:31] dca_syncinfo failed
[19:16:31] dca_syncinfo failed
[19:16:31] dca_syncinfo ok
[19:16:31] dca_syncinfo ok
[19:16:31] dca_syncinfo failed
[19:16:31] dca_syncinfo ok
[19:16:31] dca_syncinfo failed
[19:16:31] dca_syncinfo ok
[19:16:31] dca_syncinfo failed
[19:16:31] dca_syncinfo ok
[19:16:31] dca_syncinfo failed
[19:16:31] dca_syncinfo failed
[19:16:31] dca_syncinfo ok
[19:16:31] dca_syncinfo ok
[19:16:31] dca_syncinfo failed
[19:16:31] dca_syncinfo failed
[19:16:31] dca_syncinfo ok
[19:16:31] dca_syncinfo ok
[19:16:31] dca_syncinfo failed
[19:16:31] dca_syncinfo ok
[19:16:31] dca_syncinfo failed
[19:16:31] dca_syncinfo ok
[19:16:31] dca_syncinfo failed
[19:16:31] dca_syncinfo ok
[19:16:31] dca_syncinfo failed
[19:16:31] dca_syncinfo failed
[19:16:31] dca_syncinfo ok
[19:16:31] sync: adding 116 ms of silence to audio 1  start 169830, next 159360
[19:16:31] sync: audio 1 time went backwards 0 ms, dropped 10 frames (next 173760, current 173760)
[19:16:31] dca_syncinfo ok
[19:16:31] sync: adding 116 ms of silence to audio 1  start 169830, next 159360
[19:16:31] dca_syncinfo failed
[19:16:31] dca_syncinfo ok
[19:16:31] dca_syncinfo failed
[19:16:31] dca_syncinfo ok
[19:16:31] dca_syncinfo failed
[19:16:31] dca_syncinfo ok
[19:16:31] dca_syncinfo failed
[19:16:31] dca_syncinfo failed
[19:16:31] dca_syncinfo ok
[19:16:31] dca_syncinfo ok
[19:16:31] dca_syncinfo failed
[19:16:31] dca_syncinfo ok
[19:16:31] dca_syncinfo failed
[19:16:31] dca_syncinfo ok
[19:16:31] dca_syncinfo failed
[19:16:31] dca_syncinfo ok
[19:16:31] dca_syncinfo failed
[19:16:31] dca_syncinfo ok
[19:16:31] dca_syncinfo failed
[19:16:31] dca_syncinfo ok
[19:16:31] dca_syncinfo failed
[19:16:31] dca_syncinfo ok
[19:16:31] dca_syncinfo failed
[19:16:31] dca_syncinfo failed
[19:16:31] dca_syncinfo ok
[19:16:31] dca_syncinfo failed
[19:16:31] dca_syncinfo ok
[19:16:31] dca_syncinfo failed
[19:16:31] dca_syncinfo ok
[19:16:31] dca_syncinfo failed
[19:16:31] dca_syncinfo ok
[19:16:31] dca_syncinfo failed
[19:16:31] dca_syncinfo ok
[19:16:31] dca_syncinfo failed
[19:16:31] dca_syncinfo ok
[19:16:31] dca_syncinfo failed
[19:16:31] dca_syncinfo ok
[19:16:31] dca_syncinfo failed
[19:16:31] dca_syncinfo ok
[19:16:31] dca_syncinfo failed
[19:16:31] dca_syncinfo ok
[19:16:31] sync: adding 100 ms of silence to audio 1  start 187560, next 178560
[19:16:31] dca_syncinfo failed
[19:16:31] dca_syncinfo ok
[19:16:31] dca_syncinfo failed
[19:16:31] dca_syncinfo ok
[19:16:31] dca_syncinfo failed
[19:16:31] dca_syncinfo ok
[19:16:31] dca_syncinfo failed
[19:16:31] dca_syncinfo ok
[19:16:31] dca_syncinfo failed
[19:16:31] dca_syncinfo ok
[19:16:31] dca_syncinfo failed
[19:16:31] dca_syncinfo ok
[19:16:31] sync: audio 1 time went backwards 0 ms, dropped 10 frames (next 173760, current 173760)
[19:16:31] dca_syncinfo ok
[19:16:31] dca_syncinfo failed
[19:16:31] dca_syncinfo failed
[19:16:31] dca_syncinfo ok
[19:16:31] dca_syncinfo ok
[19:16:31] dca_syncinfo failed
[19:16:31] dca_syncinfo failed
[19:16:31] dca_syncinfo ok
[19:16:31] dca_syncinfo failed


Encode Log

Code: Select all

HandBrake Activity Log for /Volumes/Mac Data/Movies/Needs Titles/1/The pacif1c/Disc 1/title04.m4v: 2010-12-02 19:16:28 -0800
Handbrake Version: svn3697 x86_64 (2010120201)

[19:16:28] macgui: Rip: Pending queue count is 2
[19:16:28] macgui: getNextPendingQueueIndex next pending encode index is:0
[19:16:28] macgui: scanning specifically for title: 1
[19:16:28] hb_scan: path=/Volumes/Video 1 External/Movies/The pacif1c/Disc 2/title04.mkv, title_index=1
libbluray/bdnav/index_parse.c:157: indx_parse(): error opening /Volumes/Video 1 External/Movies/The pacif1c/Disc 2/title04.mkv/BDMV/index.bdmv
libbluray/bluray.c:960: nav_get_title_list(/Volumes/Video 1 External/Movies/The pacif1c/Disc 2/title04.mkv) failed (0x10d020c00)
[19:16:28] bd: not a bd - trying as a stream/file instead
libdvdnav: Using dvdnav version 4.1.3
libdvdread: Using libdvdcss version 1.2.10 for DVD access
libdvdnav:DVDOpenFileUDF:UDFFindFile /VIDEO_TS/VIDEO_TS.IFO failed
libdvdnav:DVDOpenFileUDF:UDFFindFile /VIDEO_TS/VIDEO_TS.BUP failed
libdvdread: Can't open file VIDEO_TS.IFO.
libdvdnav: vm: failed to read VIDEO_TS.IFO
[19:16:28] dvd: not a dvd - trying as a stream/file instead
[dca @ 0x10281d400] Not a valid DCA frame
[dca @ 0x10281d400] Not a valid DCA frame
[dca @ 0x10281d400] Not a valid DCA frame
[dca @ 0x10281d400] Not a valid DCA frame
[dca @ 0x10281d400] Not a valid DCA frame
[dca @ 0x10281d400] Not a valid DCA frame
[dca @ 0x10281d400] Not a valid DCA frame
[dca @ 0x10281d400] Not a valid DCA frame
[dca @ 0x10281d400] Not a valid DCA frame
[dca @ 0x10281d400] Not a valid DCA frame
[dca @ 0x10281d400] Not a valid DCA frame
[dca @ 0x10281d400] Not a valid DCA frame
[dca @ 0x10281d400] Not a valid DCA frame
[dca @ 0x10281d400] Not a valid DCA frame
[dca @ 0x10281d400] Not a valid DCA frame
[dca @ 0x10281d400] Not a valid DCA frame
[dca @ 0x10281d400] Not a valid DCA frame
[dca @ 0x10281d400] Not a valid DCA frame
[dca @ 0x10281d400] Not a valid DCA frame
[dca @ 0x10281d400] Not a valid DCA frame
[dca @ 0x10281d400] Not a valid DCA frame
[dca @ 0x10281d400] Not a valid DCA frame
[dca @ 0x10281d400] Not a valid DCA frame
[dca @ 0x10281d400] Not a valid DCA frame
[dca @ 0x10281d400] Not a valid DCA frame
[dca @ 0x10281d400] Not a valid DCA frame
[dca @ 0x10281d400] Not a valid DCA frame
[dca @ 0x10281d400] Not a valid DCA frame
[dca @ 0x10281d400] Not a valid DCA frame
[dca @ 0x10281d400] Not a valid DCA frame
Input #0, matroska,webm, from '/Volumes/Video 1 External/Movies/The pacif1c/Disc 2/title04.mkv':
  Duration: 00:56:18.94, start: 0.000000, bitrate: 3072 kb/s
    Stream #0.0(eng): Video: h264, yuv420p, 1920x1080 [PAR 1:1 DAR 16:9], 23.98 fps, 23.98 tbr, 1k tbn, 47.95 tbc
    Stream #0.1(eng): Audio: dca, 48000 Hz, 5.1, s16, 1536 kb/s
    Metadata:
      title           : Losless
    Stream #0.2(eng): Audio: dca, 48000 Hz, 5.1, s16, 1536 kb/s
    Metadata:
      title           : 3/2+1
    Stream #0.3(eng): Audio: dca, 48000 Hz, 0 channels, s16
    Metadata:
      title           : Express
    Stream #0.4(eng): Subtitle: pgssub
    Stream #0.5(eng): Subtitle: pgssub
    Stream #0.6(eng): Subtitle: pgssub
    Stream #0.7(eng): Subtitle: pgssub
    Stream #0.8(eng): Subtitle: pgssub
[19:16:28] Channels reported by ffmpeg (0) != computed layout channels (2).
[19:16:28] Unsupported number of audio channels (0).

[19:16:28] add_ffmpeg_subtitle: unknown subtitle stream type: 0x17006
[19:16:28] add_ffmpeg_subtitle: unknown subtitle stream type: 0x17006
[19:16:28] add_ffmpeg_subtitle: unknown subtitle stream type: 0x17006
[19:16:28] add_ffmpeg_subtitle: unknown subtitle stream type: 0x17006
[19:16:28] add_ffmpeg_subtitle: unknown subtitle stream type: 0x17006
[19:16:28] scan: decoding previews for title 1
[19:16:28] scan: audio 0x1: DCA, rate=48000Hz, bitrate=1536000 English (DTS) (5.1 ch)
[19:16:28] scan: audio 0x2: DCA, rate=48000Hz, bitrate=1536000 English (DTS) (5.1 ch)
[19:16:30] scan: 10 previews, 1920x1080, 23.976 fps, autocrop = 0/0/0/0, aspect 16:9, PAR 1:1
[19:16:30] scan: title (0) job->width:1920, job->height:1072
[19:16:30] libhb: scan thread found 1 valid title(s)
[19:16:30] macgui: ScanDone state received from fQueueEncodeLibhb
[19:16:30] macgui: Preset: Blu-Ray3
[19:16:30] macgui: processNewQueueEncode number of passes expected is: 2
[19:16:30] macgui: Start / Stop set to chapters
[19:16:30] macgui: prepareJob exiting
[19:16:30] 2 job(s) to process
[19:16:30] starting job
[19:16:30] sync: expecting 81037 video frames
[19:16:30] job configuration:
[19:16:30]  * source
[19:16:30]    + /Volumes/Video 1 External/Movies/The pacif1c/Disc 2/title04.mkv
[19:16:30]    + title 1, chapter(s) 1 to 1
[19:16:30]    + container: matroska,webm
[19:16:30]    + data rate: 3072 kbps
[19:16:30]  * destination
[19:16:30]    + /Volumes/Mac Data/Movies/Needs Titles/1/The pacif1c/Disc 1/title04.m4v
[19:16:30]    + container: MPEG-4 (.mp4 and .m4v)
[19:16:30]      + 64-bit formatting
[19:16:30]  * video track
[19:16:30]    + decoder: h264
[19:16:30]    + frame rate: same as source (around 23.976 fps)
[19:16:30]    + loose anamorphic
[19:16:30]      + storage dimensions: 1920 * 1080 -> 1280 * 720, crop 0/0/0/0, mod 16
[19:16:30]      + pixel aspect ratio: 1 / 1
[19:16:30]      + display dimensions: 1280 * 720
[19:16:30]    + encoder: x264
[19:16:30]      + options: cabac=0:ref=2:me=umh:b-pyramid=none:b-adapt=2:weightb=0:trellis=0:weightp=0:vbv-maxrate=9500:vbv-bufsize=9500:rc-lookahead=50:ref=1:subme=2:me=dia:analyse=none:trellis=0:no-fast-pskip=0:8x8dct=0:weightb=0
[19:16:30]      + bitrate: 4800 kbps, pass: 1
[19:16:30]  * audio track 0
[19:16:30]    + decoder: English (DTS) (5.1 ch) (track 1, id 1)
[19:16:30]      + bitrate: 1536 kbps, samplerate: 48000 Hz
[19:16:30]    + mixdown: Dolby Pro Logic II
[19:16:30]    + encoder: ca_aac
[19:16:30]      + bitrate: 192 kbps, samplerate: 48000 Hz
[19:16:30]  * audio track 1
[19:16:30]    + decoder: English (DTS) (5.1 ch) (track 1, id 1)
[19:16:30]      + bitrate: 1536 kbps, samplerate: 48000 Hz
[19:16:30]    + mixdown: 6-channel discrete
[19:16:30]    + encoder: ffac3
[19:16:30]      + bitrate: 640 kbps, samplerate: 48000 Hz
[19:16:30] encx264: min-keyint: auto (23), keyint: 240
[19:16:30] encx264: encoding with stored aspect 1/1
x264 [info]: using SAR=1/1
x264 [info]: using cpu capabilities: MMX2 SSE2Fast SSSE3 FastShuffle SSE4.2
[dca @ 0x10d07dc00] Not a valid DCA frame
[dca @ 0x10d07dc00] Not a valid DCA frame
x264 [info]: profile Main, level 3.1
[dca @ 0x10d07dc00] Not a valid DCA frame
[dca @ 0x10d07dc00] Not a valid DCA frame
[dca @ 0x10d07dc00] Not a valid DCA frame
[dca @ 0x10d07dc00] Not a valid DCA frame
[dca @ 0x10d07dc00] Not a valid DCA frame
[dca @ 0x10d07dc00] Not a valid DCA frame
[dca @ 0x10d07dc00] Not a valid DCA frame
[dca @ 0x10d07dc00] Not a valid DCA frame
[dca @ 0x10d07dc00] Not a valid DCA frame
[dca @ 0x10d07dc00] Not a valid DCA frame
[dca @ 0x10d07dc00] Not a valid DCA frame
[dca @ 0x10d07dc00] Not a valid DCA frame
[dca @ 0x10d07dc00] Not a valid DCA frame
[dca @ 0x10d07dc00] Not a valid DCA frame
[dca @ 0x10d07dc00] Not a valid DCA frame
[dca @ 0x10d07dc00] Not a valid DCA frame
[dca @ 0x10d07dc00] Not a valid DCA frame
[dca @ 0x10d07dc00] Not a valid DCA frame
[dca @ 0x10d07dc00] Not a valid DCA frame
[dca @ 0x10d07dc00] Not a valid DCA frame
[dca @ 0x10d07dc00] Not a valid DCA frame
[dca @ 0x10d07dc00] Not a valid DCA frame
[dca @ 0x10d07dc00] Not a valid DCA frame
[dca @ 0x10d07dc00] Not a valid DCA frame
[dca @ 0x10d07dc00] Not a valid DCA frame
[dca @ 0x10d07dc00] Not a valid DCA frame
[dca @ 0x10d07dc00] Not a valid DCA frame
[dca @ 0x10d07dc00] Not a valid DCA frame
[19:16:30] reader: first SCR 0 id 1 DTS 0
Stream with high frequencies VQ coding
[19:16:30] dca_syncinfo failed
[19:16:30] dca_syncinfo ok
[19:16:30] dca_syncinfo failed
[19:16:30] dca_syncinfo ok
[19:16:30] dca_syncinfo failed
[19:16:30] dca_syncinfo ok
[19:16:30] dca_syncinfo failed
[19:16:30] dca_syncinfo ok
[19:16:30] dca_syncinfo failed
[19:16:30] dca_syncinfo ok
[19:16:30] dca_syncinfo failed
[19:16:30] dca_syncinfo ok
[19:16:30] dca_syncinfo failed
[19:16:30] dca_syncinfo ok
[19:16:30] dca_syncinfo failed
[19:16:30] dca_syncinfo ok
[19:16:30] dca_syncinfo failed
[19:16:30] dca_syncinfo ok
[19:16:30] dca_syncinfo failed
[19:16:30] dca_syncinfo ok
[19:16:30] dca_syncinfo failed
[19:16:30] dca_syncinfo ok
[19:16:30] dca_syncinfo failed
[19:16:30] dca_syncinfo ok
[19:16:30] dca_syncinfo failed
[19:16:30] dca_syncinfo ok
[19:16:30] dca_syncinfo failed
[19:16:30] dca_syncinfo ok
[19:16:30] dca_syncinfo failed
[19:16:30] dca_syncinfo ok
[19:16:30] dca_syncinfo failed
[19:16:30] dca_syncinfo ok
[19:16:30] dca_syncinfo failed
[19:16:30] dca_syncinfo ok
[19:16:30] dca_syncinfo failed
[19:16:30] dca_syncinfo ok
[19:16:30] dca_syncinfo failed
[19:16:30] dca_syncinfo ok
[19:16:30] dca_syncinfo failed
[19:16:30] dca_syncinfo ok
[19:16:30] dca_syncinfo failed
[19:16:30] dca_syncinfo ok
[19:16:30] dca_syncinfo failed
[19:16:30] dca_syncinfo ok
[19:16:30] dca_syncinfo failed
[19:16:30] dca_syncinfo ok
[19:16:30] dca_syncinfo failed
[19:16:30] dca_syncinfo ok
[19:16:30] dca_syncinfo failed
[19:16:30] dca_syncinfo ok
[19:16:30] dca_syncinfo failed
[19:16:30] dca_syncinfo ok
[19:16:30] dca_syncinfo failed
[19:16:30] dca_syncinfo ok
[19:16:30] dca_syncinfo failed
[19:16:30] dca_syncinfo ok
[19:16:30] dca_syncinfo failed
[19:16:30] dca_syncinfo ok
[19:16:30] dca_syncinfo failed
[19:16:30] dca_syncinfo ok
[19:16:30] dca_syncinfo failed
[19:16:30] dca_syncinfo ok
[19:16:30] dca_syncinfo failed
Stream with high frequencies VQ coding
[19:16:30] dca_syncinfo failed
[19:16:30] dca_syncinfo ok
[19:16:30] dca_syncinfo failed
[19:16:30] dca_syncinfo ok
[19:16:30] dca_syncinfo failed
[19:16:30] dca_syncinfo ok
[19:16:30] dca_syncinfo failed
[19:16:30] dca_syncinfo ok
[19:16:30] dca_syncinfo failed
[19:16:30] dca_syncinfo ok
[19:16:30] dca_syncinfo failed
[19:16:30] dca_syncinfo ok
[19:16:30] dca_syncinfo failed
[19:16:30] dca_syncinfo ok
[19:16:30] dca_syncinfo failed
[19:16:30] dca_syncinfo ok
[19:16:30] dca_syncinfo failed
[19:16:30] dca_syncinfo ok
[19:16:30] dca_syncinfo failed
[19:16:30] dca_syncinfo ok
[19:16:30] dca_syncinfo failed
[19:16:30] dca_syncinfo ok
[19:16:30] dca_syncinfo failed
[19:16:30] dca_syncinfo ok
[19:16:30] dca_syncinfo failed
[19:16:30] dca_syncinfo ok
[19:16:30] dca_syncinfo failed
[19:16:30] dca_syncinfo ok
[19:16:30] dca_syncinfo failed
[19:16:30] dca_syncinfo ok
[19:16:30] dca_syncinfo failed
[19:16:30] dca_syncinfo ok
[19:16:30] dca_syncinfo ok
[19:16:30] dca_syncinfo failed
[19:16:30] dca_syncinfo failed
[19:16:30] dca_syncinfo ok
[19:16:30] dca_syncinfo ok
[19:16:30] dca_syncinfo failed
[19:16:30] dca_syncinfo failed
[19:16:30] dca_syncinfo ok
[19:16:30] dca_syncinfo ok
[19:16:30] dca_syncinfo failed
[19:16:30] dca_syncinfo failed
[19:16:30] dca_syncinfo ok
[19:16:30] dca_syncinfo ok
[19:16:30] dca_syncinfo failed
[19:16:30] dca_syncinfo failed
[19:16:30] dca_syncinfo ok
[19:16:30] dca_syncinfo ok
[19:16:30] dca_syncinfo failed
[19:16:30] dca_syncinfo failed
[19:16:30] dca_syncinfo ok
[19:16:30] dca_syncinfo ok
[19:16:30] dca_syncinfo failed
[19:16:30] dca_syncinfo failed
[19:16:30] dca_syncinfo ok
[19:16:30] dca_syncinfo ok
[19:16:30] dca_syncinfo failed
[19:16:30] dca_syncinfo failed
[19:16:30] dca_syncinfo ok
[19:16:30] dca_syncinfo ok
[19:16:30] dca_syncinfo failed
[19:16:30] dca_syncinfo failed
[19:16:30] dca_syncinfo ok
[19:16:30] dca_syncinfo ok
[19:16:30] dca_syncinfo failed
[19:16:30] dca_syncinfo failed
[19:16:30] dca_syncinfo ok
[19:16:30] dca_syncinfo ok
[19:16:30] dca_syncinfo failed
[19:16:30] dca_syncinfo failed
[19:16:30] dca_syncinfo ok
[19:16:30] dca_syncinfo ok
[19:16:30] dca_syncinfo failed
[19:16:30] dca_syncinfo failed
[19:16:30] dca_syncinfo ok
[19:16:30] dca_syncinfo ok
[19:16:30] dca_syncinfo failed
[19:16:30] dca_syncinfo failed
[19:16:30] dca_syncinfo ok
[19:16:30] dca_syncinfo ok
[19:16:30] dca_syncinfo failed
[19:16:30] dca_syncinfo failed
[19:16:30] dca_syncinfo ok
[19:16:30] dca_syncinfo ok
[19:16:30] dca_syncinfo failed
[19:16:30] dca_syncinfo failed
[19:16:30] dca_syncinfo ok
[19:16:30] dca_syncinfo ok
[19:16:30] dca_syncinfo failed
[19:16:30] dca_syncinfo ok
[19:16:30] dca_syncinfo failed
[19:16:30] dca_syncinfo failed
[19:16:30] dca_syncinfo ok
[19:16:30] dca_syncinfo ok
[19:16:30] dca_syncinfo failed
[19:16:30] dca_syncinfo ok
[19:16:30] dca_syncinfo failed
[19:16:30] dca_syncinfo failed
[19:16:30] dca_syncinfo ok
[19:16:30] dca_syncinfo ok
[19:16:30] dca_syncinfo failed
[19:16:30] dca_syncinfo failed
[19:16:30] dca_syncinfo ok
[19:16:30] dca_syncinfo ok
[19:16:30] dca_syncinfo failed
[19:16:30] dca_syncinfo failed
[19:16:30] dca_syncinfo ok
[19:16:30] dca_syncinfo ok
[19:16:30] dca_syncinfo failed
[19:16:30] dca_syncinfo failed
[19:16:30] dca_syncinfo ok
[19:16:30] dca_syncinfo ok
[19:16:30] dca_syncinfo failed
[19:16:30] dca_syncinfo failed
[19:16:30] dca_syncinfo ok
[19:16:30] dca_syncinfo ok
[19:16:30] dca_syncinfo failed
[19:16:30] dca_syncinfo failed
[19:16:30] dca_syncinfo ok
[19:16:30] dca_syncinfo ok
[19:16:30] dca_syncinfo failed
[19:16:30] dca_syncinfo failed
[19:16:30] dca_syncinfo ok
[19:16:30] dca_syncinfo ok
[19:16:30] dca_syncinfo failed
[19:16:30] dca_syncinfo failed
[19:16:30] dca_syncinfo ok
[19:16:30] dca_syncinfo ok
[19:16:30] dca_syncinfo failed
[19:16:30] dca_syncinfo failed
[19:16:30] dca_syncinfo ok
[19:16:30] dca_syncinfo ok
[19:16:30] dca_syncinfo failed
[19:16:30] dca_syncinfo failed
[19:16:30] dca_syncinfo ok
[19:16:30] dca_syncinfo ok
[19:16:30] dca_syncinfo failed
[19:16:30] dca_syncinfo failed
[19:16:30] dca_syncinfo ok
[19:16:30] dca_syncinfo ok
[19:16:30] dca_syncinfo failed
[19:16:30] dca_syncinfo failed
[19:16:30] dca_syncinfo ok
[19:16:30] dca_syncinfo ok
[19:16:30] dca_syncinfo failed
[19:16:30] dca_syncinfo failed
[19:16:30] dca_syncinfo ok
[19:16:30] dca_syncinfo ok
[19:16:30] dca_syncinfo failed
[19:16:30] dca_syncinfo ok
[19:16:30] dca_syncinfo failed
[19:16:30] dca_syncinfo ok
[19:16:30] dca_syncinfo failed
[19:16:30] dca_syncinfo failed
[19:16:30] dca_syncinfo ok
[19:16:30] dca_syncinfo failed
[19:16:30] dca_syncinfo ok
[19:16:30] dca_syncinfo failed
[19:16:30] dca_syncinfo ok
[19:16:30] dca_syncinfo ok
[19:16:30] dca_syncinfo failed
[19:16:30] dca_syncinfo ok
[19:16:30] dca_syncinfo failed
[19:16:30] dca_syncinfo ok
[19:16:30] dca_syncinfo failed
[19:16:30] dca_syncinfo ok
[19:16:30] dca_syncinfo failed
[19:16:30] dca_syncinfo ok
[19:16:30] dca_syncinfo failed
[19:16:30] dca_syncinfo ok
[19:16:30] dca_syncinfo failed
[19:16:30] dca_syncinfo ok
[19:16:30] dca_syncinfo failed
[19:16:30] dca_syncinfo ok
[19:16:30] dca_syncinfo failed
[19:16:30] dca_syncinfo ok
[19:16:30] dca_syncinfo failed
[19:16:30] dca_syncinfo failed
[19:16:30] dca_syncinfo ok
[19:16:30] dca_syncinfo ok
[19:16:30] dca_syncinfo failed
[19:16:30] dca_syncinfo ok
[19:16:30] dca_syncinfo failed
[19:16:30] dca_syncinfo ok
[19:16:30] dca_syncinfo failed
[19:16:30] dca_syncinfo ok
[19:16:30] dca_syncinfo failed
[19:16:30] dca_syncinfo ok
[19:16:30] dca_syncinfo failed
[19:16:30] dca_syncinfo ok
[19:16:30] dca_syncinfo failed
[19:16:30] dca_syncinfo failed
[19:16:30] dca_syncinfo ok
[19:16:30] dca_syncinfo ok
[19:16:30] dca_syncinfo failed
[19:16:30] dca_syncinfo failed
[19:16:30] dca_syncinfo ok
[19:16:30] dca_syncinfo ok
[19:16:30] dca_syncinfo failed
[19:16:30] dca_syncinfo failed
[19:16:30] dca_syncinfo ok
[19:16:30] dca_syncinfo ok
[19:16:30] dca_syncinfo failed
[19:16:30] dca_syncinfo failed
[19:16:30] dca_syncinfo ok
[19:16:30] dca_syncinfo ok
[19:16:30] dca_syncinfo failed
[19:16:30] dca_syncinfo failed
[19:16:30] dca_syncinfo ok
[19:16:30] dca_syncinfo ok
[19:16:30] dca_syncinfo failed
[19:16:30] dca_syncinfo failed
[19:16:30] dca_syncinfo ok
[19:16:30] dca_syncinfo ok
[19:16:30] dca_syncinfo failed
[19:16:30] dca_syncinfo failed
[19:16:30] dca_syncinfo ok
[19:16:30] dca_syncinfo ok
[19:16:30] dca_syncinfo failed
[19:16:30] dca_syncinfo failed
[19:16:30] dca_syncinfo ok
[19:16:30] dca_syncinfo failed
[19:16:30] dca_syncinfo ok
[19:16:30] dca_syncinfo failed
[19:16:30] dca_syncinfo ok
[19:16:30] dca_syncinfo failed
[19:16:30] dca_syncinfo ok
[19:16:30] dca_syncinfo failed
[19:16:30] dca_syncinfo ok
[19:16:30] dca_syncinfo failed
[19:16:30] dca_syncinfo ok
[19:16:30] dca_syncinfo ok
[19:16:30] dca_syncinfo failed
[19:16:30] dca_syncinfo ok
[19:16:30] dca_syncinfo failed
[19:16:30] dca_syncinfo ok
[19:16:30] dca_syncinfo failed
[19:16:30] dca_syncinfo ok
[19:16:30] dca_syncinfo failed
[19:16:30] dca_syncinfo failed
[19:16:30] dca_syncinfo ok
[19:16:30] dca_syncinfo ok
[19:16:30] dca_syncinfo failed
[19:16:30] dca_syncinfo failed
[19:16:30] dca_syncinfo ok
[19:16:30] dca_syncinfo ok
[19:16:30] dca_syncinfo failed
[19:16:30] dca_syncinfo ok
[19:16:30] dca_syncinfo failed
[19:16:30] dca_syncinfo failed
[19:16:30] dca_syncinfo ok
[19:16:30] dca_syncinfo ok
[19:16:30] dca_syncinfo failed
[19:16:30] dca_syncinfo failed
[19:16:30] dca_syncinfo ok
[19:16:30] dca_syncinfo ok
[19:16:30] dca_syncinfo failed
[19:16:30] dca_syncinfo failed
[19:16:30] dca_syncinfo ok
[19:16:30] dca_syncinfo ok
[19:16:30] dca_syncinfo failed
[19:16:30] dca_syncinfo ok
[19:16:30] dca_syncinfo failed
[19:16:30] dca_syncinfo ok
[19:16:30] dca_syncinfo failed
[19:16:30] dca_syncinfo ok
[19:16:30] dca_syncinfo failed
[19:16:30] dca_syncinfo failed
[19:16:30] dca_syncinfo ok
[19:16:30] dca_syncinfo ok
[19:16:30] dca_syncinfo failed
[19:16:30] dca_syncinfo ok
[19:16:30] dca_syncinfo failed
[19:16:30] dca_syncinfo ok
[19:16:30] dca_syncinfo failed
[19:16:30] dca_syncinfo ok
[19:16:30] dca_syncinfo failed
[19:16:30] dca_syncinfo failed
[19:16:30] dca_syncinfo ok
[19:16:30] dca_syncinfo ok
[19:16:30] dca_syncinfo failed
[19:16:30] dca_syncinfo ok
[19:16:30] dca_syncinfo failed
[19:16:30] dca_syncinfo ok
[19:16:30] dca_syncinfo failed
[19:16:30] dca_syncinfo ok
[19:16:30] dca_syncinfo failed
[19:16:30] dca_syncinfo ok
[19:16:30] dca_syncinfo failed
[19:16:30] dca_syncinfo ok
[19:16:30] dca_syncinfo failed
[19:16:30] dca_syncinfo ok
[19:16:30] dca_syncinfo failed
[19:16:30] dca_syncinfo failed
[19:16:30] dca_syncinfo ok
[19:16:30] dca_syncinfo ok
[19:16:30] dca_syncinfo failed
[19:16:30] dca_syncinfo failed
[19:16:30] dca_syncinfo ok
[19:16:30] dca_syncinfo ok
[19:16:30] dca_syncinfo failed
[19:16:30] dca_syncinfo failed
[19:16:30] dca_syncinfo ok
[19:16:30] dca_syncinfo ok
[19:16:30] dca_syncinfo failed
[19:16:30] dca_syncinfo failed
[19:16:30] dca_syncinfo ok
[19:16:30] dca_syncinfo ok
[19:16:30] dca_syncinfo failed
[19:16:30] dca_syncinfo failed
[19:16:30] dca_syncinfo ok
[19:16:30] dca_syncinfo ok
[19:16:30] dca_syncinfo failed
[19:16:30] dca_syncinfo failed
[19:16:30] dca_syncinfo ok
[19:16:30] dca_syncinfo ok
[19:16:30] dca_syncinfo failed
[19:16:30] dca_syncinfo failed
[19:16:30] dca_syncinfo ok
[19:16:30] dca_syncinfo ok
[19:16:30] dca_syncinfo failed
[19:16:30] dca_syncinfo ok
[19:16:30] dca_syncinfo failed
[19:16:30] dca_syncinfo ok
[19:16:30] dca_syncinfo failed
[19:16:30] dca_syncinfo ok
[19:16:30] dca_syncinfo failed
[19:16:30] dca_syncinfo failed
[19:16:30] dca_syncinfo ok
[19:16:30] dca_syncinfo ok
[19:16:30] dca_syncinfo failed
[19:16:30] dca_syncinfo ok
[19:16:30] dca_syncinfo failed
[19:16:30] dca_syncinfo failed
[19:16:30] dca_syncinfo ok
[19:16:30] sync: adding 106 ms of silence to audio 1  start 107460, next 97920
[19:16:30] dca_syncinfo ok
[19:16:30] dca_syncinfo failed
[19:16:30] dca_syncinfo ok
[19:16:30] dca_syncinfo failed
[19:16:30] dca_syncinfo failed
[19:16:30] dca_syncinfo ok
[19:16:30] dca_syncinfo ok
[19:16:30] dca_syncinfo failed
[19:16:30] dca_syncinfo failed
[19:16:30] dca_syncinfo ok
[19:16:30] dca_syncinfo ok
[19:16:30] dca_syncinfo failed
[19:16:30] dca_syncinfo failed
[19:16:30] dca_syncinfo ok
[19:16:30] dca_syncinfo ok
[19:16:30] dca_syncinfo failed
[19:16:30] dca_syncinfo ok
[19:16:30] dca_syncinfo failed
[19:16:30] dca_syncinfo failed
[19:16:30] dca_syncinfo ok
[19:16:30] dca_syncinfo ok
[19:16:30] dca_syncinfo failed
[19:16:30] dca_syncinfo failed
[19:16:30] dca_syncinfo ok
[19:16:30] dca_syncinfo ok
[19:16:30] dca_syncinfo failed
[19:16:30] dca_syncinfo ok
[19:16:30] dca_syncinfo failed
[19:16:30] dca_syncinfo failed
[19:16:30] dca_syncinfo ok
[19:16:30] dca_syncinfo ok
[19:16:30] dca_syncinfo failed
[19:16:30] dca_syncinfo failed
[19:16:30] dca_syncinfo ok
[19:16:30] dca_syncinfo ok
[19:16:30] dca_syncinfo failed
[19:16:30] dca_syncinfo failed
[19:16:30] dca_syncinfo ok
[19:16:30] dca_syncinfo ok
[19:16:30] dca_syncinfo failed
[19:16:30] dca_syncinfo ok
[19:16:30] dca_syncinfo failed
[19:16:30] dca_syncinfo failed
[19:16:30] dca_syncinfo ok
[19:16:30] dca_syncinfo ok
[19:16:30] dca_syncinfo failed
[19:16:30] dca_syncinfo ok
[19:16:30] dca_syncinfo failed
[19:16:30] dca_syncinfo ok
[19:16:30] sync: audio 1 time went backwards 0 ms, dropped 5 frames (next 114240, current 114240)
[19:16:30] dca_syncinfo failed
[19:16:30] dca_syncinfo failed
[19:16:30] dca_syncinfo ok
[19:16:30] dca_syncinfo ok
[19:16:30] dca_syncinfo failed
[19:16:30] dca_syncinfo failed
[19:16:30] dca_syncinfo ok
[19:16:30] sync: adding 106 ms of silence to audio 1  start 107460, next 97920
[19:16:30] dca_syncinfo ok
[19:16:30] dca_syncinfo failed
[19:16:30] dca_syncinfo failed
[19:16:30] dca_syncinfo ok
[19:16:30] dca_syncinfo ok
[19:16:30] dca_syncinfo failed
[19:16:30] dca_syncinfo ok
[19:16:30] dca_syncinfo failed
[19:16:30] dca_syncinfo ok
[19:16:30] dca_syncinfo failed
[19:16:30] dca_syncinfo ok
[19:16:30] dca_syncinfo failed
[19:16:30] dca_syncinfo failed
[19:16:30] dca_syncinfo ok
[19:16:30] dca_syncinfo ok
[19:16:30] dca_syncinfo failed
[19:16:30] dca_syncinfo failed
[19:16:30] dca_syncinfo ok
[19:16:30] dca_syncinfo ok
[19:16:30] dca_syncinfo failed
[19:16:30] dca_syncinfo ok
[19:16:30] dca_syncinfo failed
[19:16:30] dca_syncinfo failed
[19:16:30] dca_syncinfo ok
[19:16:30] dca_syncinfo ok
[19:16:30] dca_syncinfo failed
[19:16:30] dca_syncinfo ok
[19:16:30] dca_syncinfo failed
[19:16:30] dca_syncinfo failed
[19:16:30] dca_syncinfo ok
[19:16:30] dca_syncinfo ok
[19:16:30] dca_syncinfo failed
[19:16:30] dca_syncinfo failed
[19:16:30] dca_syncinfo ok
[19:16:30] dca_syncinfo failed
[19:16:30] dca_syncinfo ok
[19:16:30] dca_syncinfo failed
[19:16:30] dca_syncinfo ok
[19:16:30] dca_syncinfo failed
[19:16:30] dca_syncinfo ok
[19:16:30] dca_syncinfo failed
[19:16:30] dca_syncinfo ok
[19:16:30] dca_syncinfo ok
[19:16:30] dca_syncinfo failed
[19:16:30] dca_syncinfo failed
[19:16:30] dca_syncinfo ok
[19:16:30] dca_syncinfo ok
[19:16:30] dca_syncinfo failed
[19:16:30] dca_syncinfo ok
[19:16:30] dca_syncinfo failed
[19:16:30] sync: audio 1 time went backwards 0 ms, dropped 5 frames (next 114240, current 114240)
[19:16:30] dca_syncinfo ok
[19:16:30] dca_syncinfo failed
[19:16:30] dca_syncinfo failed
[19:16:30] dca_syncinfo ok
[19:16:30] dca_syncinfo ok
[19:16:30] sync: adding 125 ms of silence to audio 1  start 135090, next 123840
[19:16:30] dca_syncinfo failed
[19:16:30] dca_syncinfo failed
[19:16:30] dca_syncinfo ok
[19:16:30] dca_syncinfo ok
[19:16:30] dca_syncinfo failed
[19:16:30] dca_syncinfo ok
[19:16:30] dca_syncinfo failed
[19:16:30] dca_syncinfo ok
[19:16:30] dca_syncinfo failed
[19:16:30] dca_syncinfo ok
[19:16:30] dca_syncinfo failed
[19:16:30] dca_syncinfo failed
[19:16:30] dca_syncinfo ok
[19:16:30] dca_syncinfo ok
[19:16:30] dca_syncinfo failed
[19:16:30] dca_syncinfo failed
[19:16:30] dca_syncinfo ok
[19:16:30] dca_syncinfo ok
[19:16:30] dca_syncinfo failed
[19:16:30] dca_syncinfo failed
[19:16:30] dca_syncinfo ok
[19:16:30] dca_syncinfo ok
[19:16:30] dca_syncinfo failed
[19:16:30] dca_syncinfo failed
[19:16:30] dca_syncinfo ok
[19:16:30] dca_syncinfo ok
[19:16:30] dca_syncinfo failed
[19:16:30] dca_syncinfo failed
[19:16:30] dca_syncinfo ok
[19:16:30] dca_syncinfo ok
[19:16:30] dca_syncinfo failed
[19:16:30] dca_syncinfo failed
[19:16:30] dca_syncinfo ok
[19:16:30] dca_syncinfo ok
[19:16:30] dca_syncinfo failed
[19:16:30] dca_syncinfo ok
[19:16:30] dca_syncinfo failed
[19:16:30] dca_syncinfo ok
[19:16:30] dca_syncinfo failed
[19:16:30] dca_syncinfo ok
[19:16:30] dca_syncinfo failed
[19:16:30] dca_syncinfo failed
[19:16:30] dca_syncinfo ok
[19:16:30] dca_syncinfo ok
[19:16:30] dca_syncinfo failed
[19:16:30] dca_syncinfo failed
[19:16:30] dca_syncinfo ok
[19:16:30] dca_syncinfo ok
[19:16:30] dca_syncinfo failed
[19:16:30] dca_syncinfo failed
[19:16:30] dca_syncinfo ok
[19:16:30] sync: adding 125 ms of silence to audio 1  start 135090, next 123840
[19:16:30] dca_syncinfo ok
[19:16:30] dca_syncinfo failed
[19:16:30] dca_syncinfo failed
[19:16:30] dca_syncinfo ok
[19:16:30] dca_syncinfo ok
[19:16:30] dca_syncinfo failed
[19:16:30] dca_syncinfo failed
[19:16:30] dca_syncinfo ok
[19:16:30] dca_syncinfo ok
[19:16:30] dca_syncinfo failed
[19:16:30] dca_syncinfo failed
[19:16:30] dca_syncinfo ok
[19:16:30] dca_syncinfo ok
[19:16:30] sync: audio 1 time went backwards 0 ms, dropped 10 frames (next 138240, current 138240)
[19:16:30] sync: adding 105 ms of silence to audio 1  start 152550, next 143040
[19:16:30] dca_syncinfo failed
[19:16:30] dca_syncinfo failed
[19:16:30] dca_syncinfo ok
[19:16:30] dca_syncinfo ok
[19:16:30] dca_syncinfo failed
[19:16:30] dca_syncinfo ok
[19:16:30] dca_syncinfo failed
[19:16:30] dca_syncinfo failed
[19:16:30] dca_syncinfo ok
[19:16:30] dca_syncinfo ok
[19:16:30] dca_syncinfo failed
[19:16:30] dca_syncinfo ok
[19:16:30] dca_syncinfo failed
[19:16:30] dca_syncinfo failed
[19:16:30] dca_syncinfo ok
[19:16:30] dca_syncinfo ok
[19:16:30] dca_syncinfo failed
[19:16:30] dca_syncinfo failed
[19:16:30] dca_syncinfo ok
[19:16:30] dca_syncinfo ok
[19:16:30] dca_syncinfo failed
[19:16:30] dca_syncinfo ok
[19:16:30] dca_syncinfo failed
[19:16:30] dca_syncinfo failed
[19:16:30] dca_syncinfo ok
[19:16:30] dca_syncinfo ok
[19:16:30] dca_syncinfo failed
[19:16:30] dca_syncinfo ok
[19:16:30] dca_syncinfo failed
[19:16:30] dca_syncinfo ok
[19:16:30] dca_syncinfo failed
[19:16:30] dca_syncinfo failed
[19:16:30] dca_syncinfo ok
[19:16:30] dca_syncinfo failed
[19:16:30] dca_syncinfo ok
[19:16:30] dca_syncinfo failed
[19:16:30] dca_syncinfo ok
[19:16:30] dca_syncinfo failed
[19:16:30] dca_syncinfo ok
[19:16:30] dca_syncinfo failed
[19:16:30] dca_syncinfo ok
[19:16:30] dca_syncinfo failed
[19:16:30] dca_syncinfo ok
[19:16:30] sync: audio 1 time went backwards 0 ms, dropped 10 frames (next 138240, current 138240)
[19:16:30] dca_syncinfo failed
[19:16:30] sync: audio 1 time went backwards 0 ms, dropped 10 frames (next 154560, current 154560)
[19:16:30] dca_syncinfo ok
[19:16:30] dca_syncinfo ok
[19:16:30] dca_syncinfo failed
[19:16:30] dca_syncinfo ok
[19:16:30] dca_syncinfo failed
[19:16:30] dca_syncinfo failed
[19:16:30] dca_syncinfo ok
[19:16:30] dca_syncinfo ok
[19:16:30] dca_syncinfo failed
[19:16:30] dca_syncinfo failed
[19:16:30] dca_syncinfo ok
[19:16:30] dca_syncinfo failed
[19:16:30] dca_syncinfo ok
[19:16:30] dca_syncinfo failed
[19:16:30] dca_syncinfo ok
[19:16:30] dca_syncinfo failed
[19:16:30] dca_syncinfo ok
[19:16:30] dca_syncinfo failed
[19:16:30] dca_syncinfo ok
[19:16:30] dca_syncinfo failed
[19:16:30] dca_syncinfo ok
[19:16:30] dca_syncinfo failed
[19:16:30] dca_syncinfo ok
[19:16:30] dca_syncinfo failed
[19:16:30] sync: adding 105 ms of silence to audio 1  start 152550, next 143040
[19:16:30] sync: audio 1 time went backwards 0 ms, dropped 10 frames (next 154560, current 154560)
[19:16:30] dca_syncinfo ok
[19:16:30] dca_syncinfo failed
[19:16:30] dca_syncinfo ok
[19:16:30] dca_syncinfo failed
[19:16:30] dca_syncinfo ok
[19:16:30] dca_syncinfo failed
[19:16:30] dca_syncinfo ok
[19:16:30] dca_syncinfo failed
[19:16:30] dca_syncinfo ok
[19:16:30] dca_syncinfo failed
[19:16:30] dca_syncinfo ok
[19:16:30] dca_syncinfo failed
[19:16:31] dca_syncinfo ok
[19:16:31] dca_syncinfo ok
[19:16:31] dca_syncinfo failed
[19:16:31] dca_syncinfo failed
[19:16:31] dca_syncinfo ok
[19:16:31] dca_syncinfo ok
[19:16:31] dca_syncinfo failed
[19:16:31] dca_syncinfo failed
[19:16:31] dca_syncinfo ok
[19:16:31] dca_syncinfo ok
[19:16:31] dca_syncinfo failed
[19:16:31] dca_syncinfo failed
[19:16:31] dca_syncinfo ok
[19:16:31] dca_syncinfo ok
[19:16:31] dca_syncinfo failed
[19:16:31] dca_syncinfo failed
[19:16:31] dca_syncinfo ok
[19:16:31] dca_syncinfo ok
[19:16:31] dca_syncinfo failed
[19:16:31] dca_syncinfo ok
[19:16:31] dca_syncinfo failed
[19:16:31] dca_syncinfo ok
[19:16:31] dca_syncinfo failed
[19:16:31] dca_syncinfo ok
[19:16:31] dca_syncinfo failed
[19:16:31] dca_syncinfo failed
[19:16:31] dca_syncinfo ok
[19:16:31] dca_syncinfo ok
[19:16:31] dca_syncinfo failed
[19:16:31] dca_syncinfo failed
[19:16:31] dca_syncinfo ok
[19:16:31] dca_syncinfo ok
[19:16:31] dca_syncinfo failed
[19:16:31] dca_syncinfo ok
[19:16:31] dca_syncinfo failed
[19:16:31] dca_syncinfo ok
[19:16:31] dca_syncinfo failed
[19:16:31] dca_syncinfo ok
[19:16:31] dca_syncinfo failed
[19:16:31] dca_syncinfo failed
[19:16:31] dca_syncinfo ok
[19:16:31] sync: adding 116 ms of silence to audio 1  start 169830, next 159360
[19:16:31] sync: audio 1 time went backwards 0 ms, dropped 10 frames (next 173760, current 173760)
[19:16:31] dca_syncinfo ok
[19:16:31] sync: adding 116 ms of silence to audio 1  start 169830, next 159360
[19:16:31] dca_syncinfo failed
[19:16:31] dca_syncinfo ok
[19:16:31] dca_syncinfo failed
[19:16:31] dca_syncinfo ok
[19:16:31] dca_syncinfo failed
[19:16:31] dca_syncinfo ok
[19:16:31] dca_syncinfo failed
[19:16:31] dca_syncinfo failed
[19:16:31] dca_syncinfo ok
[19:16:31] dca_syncinfo ok
[19:16:31] dca_syncinfo failed
[19:16:31] dca_syncinfo ok
[19:16:31] dca_syncinfo failed
[19:16:31] dca_syncinfo ok
[19:16:31] dca_syncinfo failed
[19:16:31] dca_syncinfo ok
[19:16:31] dca_syncinfo failed
[19:16:31] dca_syncinfo ok
[19:16:31] dca_syncinfo failed
[19:16:31] dca_syncinfo ok
[19:16:31] dca_syncinfo failed
[19:16:31] dca_syncinfo ok
[19:16:31] dca_syncinfo failed
[19:16:31] dca_syncinfo failed
[19:16:31] dca_syncinfo ok
[19:16:31] dca_syncinfo failed
[19:16:31] dca_syncinfo ok
[19:16:31] dca_syncinfo failed
[19:16:31] dca_syncinfo ok
[19:16:31] dca_syncinfo failed
[19:16:31] dca_syncinfo ok
[19:16:31] dca_syncinfo failed
[19:16:31] dca_syncinfo ok
[19:16:31] dca_syncinfo failed
[19:16:31] dca_syncinfo ok
[19:16:31] dca_syncinfo failed
[19:16:31] dca_syncinfo ok
[19:16:31] dca_syncinfo failed
[19:16:31] dca_syncinfo ok
[19:16:31] dca_syncinfo failed
[19:16:31] dca_syncinfo ok
[19:16:31] sync: adding 100 ms of silence to audio 1  start 187560, next 178560
[19:16:31] dca_syncinfo failed
[19:16:31] dca_syncinfo ok
[19:16:31] dca_syncinfo failed
[19:16:31] dca_syncinfo ok
[19:16:31] dca_syncinfo failed
[19:16:31] dca_syncinfo ok
[19:16:31] dca_syncinfo failed
[19:16:31] dca_syncinfo ok
[19:16:31] dca_syncinfo failed
[19:16:31] dca_syncinfo ok
[19:16:31] dca_syncinfo failed
[19:16:31] dca_syncinfo ok
[19:16:31] sync: audio 1 time went backwards 0 ms, dropped 10 frames (next 173760, current 173760)
[19:16:31] dca_syncinfo ok
[19:16:31] dca_syncinfo failed
[19:16:31] dca_syncinfo failed
[19:16:31] dca_syncinfo ok
[19:16:31] dca_syncinfo ok
[19:16:31] dca_syncinfo failed
[19:16:31] dca_syncinfo failed
[19:16:31] dca_syncinfo ok
[19:16:31] dca_syncinfo failed
[19:16:31] dca_syncinfo ok
[19:16:31] dca_syncinfo failed
[19:16:31] dca_syncinfo ok
[19:16:31] dca_syncinfo failed
[19:16:31] dca_syncinfo ok
[19:16:31] dca_syncinfo failed
[19:16:31] dca_syncinfo ok
[19:16:31] dca_syncinfo failed
[19:16:31] dca_syncinfo ok
[19:16:31] dca_syncinfo failed
[19:16:31] dca_syncinfo ok
[19:16:31] dca_syncinfo failed
[19:16:31] dca_syncinfo ok
[19:16:31] dca_syncinfo failed
[19:16:31] dca_syncinfo ok
[19:16:31] dca_syncinfo failed
[19:16:31] dca_syncinfo ok
[19:16:31] dca_syncinfo failed
[19:16:31] dca_syncinfo ok
[19:16:31] dca_syncinfo failed
[19:16:31] dca_syncinfo ok
[19:16:31] dca_syncinfo failed
[19:16:31] dca_syncinfo ok
[19:16:31] sync: adding 100 ms of silence to audio 1  start 187560, next 178560
[19:16:31] sync: audio 1 time went backwards 0 ms, dropped 10 frames (next 190080, current 190080)
[19:16:31] dca_syncinfo ok
[19:16:31] dca_syncinfo failed
[19:16:31] dca_syncinfo ok
[19:16:31] dca_syncinfo failed
[19:16:31] dca_syncinfo ok
[19:16:31] dca_syncinfo failed
[19:16:31] dca_syncinfo ok


Bling2Ming
Regular User
Posts: 104
Joined: Mon Dec 29, 2008 10:03 pm

Re: SVN3697 Crash

Post by Bling2Ming » Fri Dec 03, 2010 8:53 am

I think HandBrake is choking on decoding of the DTS lossless audio track. Try ripping again with makemkv leaving out the dts lossless audio.

Code: Select all

Stream #0.1(eng): Audio: dca, 48000 Hz, 5.1, s16, 1536 kb/s
    Metadata:
      title           : Losless

Code: Select all

[19:16:30] reader: first SCR 0 id 1 DTS 0
Stream with high frequencies VQ coding
[19:16:30] dca_syncinfo failed
[19:16:30] dca_syncinfo ok
[19:16:30] dca_syncinfo failed
[19:16:30] dca_syncinfo ok
[19:16:30] dca_syncinfo failed
[19:16:30] dca_syncinfo ok
[19:16:30] dca_syncinfo failed

Makemkv forum thread on this very issue http://www.makemkv.com/forum2/viewtopic ... udio#p8155

ddf200
Posts: 20
Joined: Fri Feb 05, 2010 9:38 pm

Re: SVN3697 Crash

Post by ddf200 » Sat Dec 04, 2010 8:12 pm

That was it. MakeMKV generates two DTS tracks (if you have them checked) of which the first one is lossless. HB doesn't like it even though it defaults to that Audio track. I chose the second DTS track and it worked. Thanks for the quick response.

Post Reply