Matroska Presets - No Surround

Support for HandBrake on Linux, Solaris, and other Unix-like platforms
Forum rules
An Activity Log is required for support requests. Please read How-to get an activity log? for details on how and why this should be provided.
Post Reply
t3kg33k
Posts: 6
Joined: Thu Mar 02, 2017 1:49 am

Matroska Presets - No Surround

Post by t3kg33k »

Description of problem or question:

Does the Matroska presets not include Surround Sound?
In order to get the AC3, 5.1 Channels I normally have to select either HQ 1080p Surround or Super HQ 1080p30 Surround presets.


Steps to reproduce the problem (If Applicable):

Select any H.265 or H.264 presets and AC3, 5.1 Channels are not included.


HandBrake version (e.g., 1.0.0):

1.3.1


Operating system and version (e.g., Ubuntu 16.04 LTS, macOS 10.13 High Sierra, Windows 10 Creators Update):

Fedora 31


HandBrake Activity Log ***required*** (see How-to get an activity log)

Code: Select all

07:09:32] gtkgui: HandBrake 1.3.1 (2020020500) - Linux x86_64 - https://handbrake.fr
[07:09:32] Nvenc version 9.1

[07:09:32] hb_init: starting libhb thread
[07:09:32] hb_init: starting libhb thread
[07:09:32] hb_init: starting libhb thread
[07:09:41] CPU: Intel(R) Core(TM) i5-4690K CPU @ 3.50GHz
[07:09:41]  - Intel microarchitecture Haswell
[07:09:41]  - logical processor count: 4
[07:09:41] hb_scan: path=/home/ed/Videos/Rise of the Guardians, title_index=0
disc.c:424: error opening file BDMV/index.bdmv
disc.c:424: error opening file BDMV/BACKUP/index.bdmv
bluray.c:2585: nav_get_title_list(/home/ed/Videos/Rise of the Guardians/) failed
[07:09:41] bd: not a bd - trying as a stream/file instead
libdvdnav: Using dvdnav version 6.0.1
libdvdread: Encrypted DVD support unavailable.
libdvdread: Couldn't find device name.
libdvdread:DVDOpenFilePath:findDVDFile /VIDEO_TS/VIDEO_TS.IFO failed
libdvdread:DVDOpenFilePath:findDVDFile /VIDEO_TS/VIDEO_TS.BUP failed
libdvdread: Can't open file VIDEO_TS.IFO.
libdvdnav: vm: failed to read VIDEO_TS.IFO
[07:09:41] dvd: not a dvd - trying as a stream/file instead
[07:09:41] batch: scanning /home/ed/Videos/Rise of the Guardians/Rise of the Guardians_t00.mkv
Input #0, matroska,webm, from '/home/ed/Videos/Rise of the Guardians/Rise of the Guardians_t00.mkv':
  Metadata:
    title           : Rise of the Guardians
    encoder         : libmakemkv v1.15.0 (1.3.5/1.4.7) x86_64-unknown-linux-gnu
    creation_time   : 2020-04-08T13:18:39.000000Z
  Duration: 01:37:11.94, start: 0.000000, bitrate: 36240 kb/s
    Chapter #0:0: start 0.000000, end 231.481250
    Metadata:
      title           : Chapter 01
    Chapter #0:1: start 231.481250, end 634.842542
    Metadata:
      title           : Chapter 02
    Chapter #0:2: start 634.842542, end 977.643333
    Metadata:
      title           : Chapter 03
    Chapter #0:3: start 977.643333, end 1489.362875
    Metadata:
      title           : Chapter 04
    Chapter #0:4: start 1489.362875, end 1838.378208
    Metadata:
      title           : Chapter 05
    Chapter #0:5: start 1838.378208, end 2198.946750
    Metadata:
      title           : Chapter 06
    Chapter #0:6: start 2198.946750, end 2585.165917
    Metadata:
      title           : Chapter 07
    Chapter #0:7: start 2585.165917, end 3022.310958
    Metadata:
      title           : Chapter 08
    Chapter #0:8: start 3022.310958, end 3489.611125
    Metadata:
      title           : Chapter 09
    Chapter #0:9: start 3489.611125, end 3835.331500
    Metadata:
      title           : Chapter 10
    Chapter #0:10: start 3835.331500, end 4152.815333
    Metadata:
      title           : Chapter 11
    Chapter #0:11: start 4152.815333, end 4443.188750
    Metadata:
      title           : Chapter 12
    Chapter #0:12: start 4443.188750, end 4844.923417
    Metadata:
      title           : Chapter 13
    Chapter #0:13: start 4844.923417, end 5091.503083
    Metadata:
      title           : Chapter 14
    Chapter #0:14: start 5091.503083, end 5313.891917
    Metadata:
      title           : Chapter 15
    Chapter #0:15: start 5313.891917, end 5831.936000
    Metadata:
      title           : Chapter 16
    Stream #0:0(eng): Video: h264 (High), yuv420p(progressive), 1920x1080 [SAR 1:1 DAR 16:9], 23.98 fps, 23.98 tbr, 1k tbn, 47.95 tbc
    Metadata:
      BPS-eng         : 30432997
      DURATION-eng    : 01:37:11.909416666
      NUMBER_OF_FRAMES-eng: 139826
      NUMBER_OF_BYTES-eng: 22185308784
      SOURCE_ID-eng   : 001011
      _STATISTICS_WRITING_APP-eng: MakeMKV v1.15.0 linux(x64-release)
      _STATISTICS_WRITING_DATE_UTC-eng: 2020-04-08 13:18:39
      _STATISTICS_TAGS-eng: BPS DURATION NUMBER_OF_FRAMES NUMBER_OF_BYTES SOURCE_ID
    Stream #0:1(eng): Audio: truehd, 48000 Hz, 7.1, s32 (24 bit) (default)
    Metadata:
      title           : Surround 7.1
      BPS-eng         : 4289518
      DURATION-eng    : 01:37:11.910000000
      NUMBER_OF_FRAMES-eng: 6998292
      NUMBER_OF_BYTES-eng: 3127010822
      SOURCE_ID-eng   : 001100
      _STATISTICS_WRITING_APP-eng: MakeMKV v1.15.0 linux(x64-release)
      _STATISTICS_WRITING_DATE_UTC-eng: 2020-04-08 13:18:39
      _STATISTICS_TAGS-eng: BPS DURATION NUMBER_OF_FRAMES NUMBER_OF_BYTES SOURCE_ID
    Stream #0:2(eng): Audio: ac3, 48000 Hz, 5.1(side), fltp, 640 kb/s
    Metadata:
      title           : Surround 5.1
      BPS-eng         : 640000
      DURATION-eng    : 01:37:11.936000000
      NUMBER_OF_FRAMES-eng: 182248
      NUMBER_OF_BYTES-eng: 466554880
      SOURCE_ID-eng   : 001100
      _STATISTICS_WRITING_APP-eng: MakeMKV v1.15.0 linux(x64-release)
      _STATISTICS_WRITING_DATE_UTC-eng: 2020-04-08 13:18:39
      _STATISTICS_TAGS-eng: BPS DURATION NUMBER_OF_FRAMES NUMBER_OF_BYTES SOURCE_ID
    Stream #0:3(eng): Audio: ac3, 48000 Hz, 5.1(side), fltp, 640 kb/s
    Metadata:
      title           : Surround 5.1
      BPS-eng         : 640000
      DURATION-eng    : 01:37:11.936000000
      NUMBER_OF_FRAMES-eng: 182248
      NUMBER_OF_BYTES-eng: 466554880
      SOURCE_ID-eng   : 001103
      _STATISTICS_WRITING_APP-eng: MakeMKV v1.15.0 linux(x64-release)
      _STATISTICS_WRITING_DATE_UTC-eng: 2020-04-08 13:18:39
      _STATISTICS_TAGS-eng: BPS DURATION NUMBER_OF_FRAMES NUMBER_OF_BYTES SOURCE_ID
    Stream #0:4(eng): Audio: ac3, 48000 Hz, stereo, fltp, 224 kb/s
    Metadata:
      title           : Stereo
      BPS-eng         : 224000
      DURATION-eng    : 01:37:11.936000000
      NUMBER_OF_FRAMES-eng: 182248
      NUMBER_OF_BYTES-eng: 163294208
      SOURCE_ID-eng   : 001104
      _STATISTICS_WRITING_APP-eng: MakeMKV v1.15.0 linux(x64-release)
      _STATISTICS_WRITING_DATE_UTC-eng: 2020-04-08 13:18:39
      _STATISTICS_TAGS-eng: BPS DURATION NUMBER_OF_FRAMES NUMBER_OF_BYTES SOURCE_ID
[07:09:41] scan: decoding previews for title 1 (/home/ed/Videos/Rise of the Guardians/Rise of the Guardians_t00.mkv)
[07:09:41] scan: audio 0x1: truehd, rate=48000Hz, bitrate=1 English (TrueHD) (7.1 ch)
[07:09:41] scan: audio 0x2: ac3, rate=48000Hz, bitrate=640000 English (AC3) (5.1 ch) (640 kbps)
[07:09:41] scan: audio 0x3: ac3, rate=48000Hz, bitrate=640000 English (AC3) (5.1 ch) (640 kbps)
[07:09:41] scan: audio 0x4: ac3, rate=48000Hz, bitrate=224000 English (AC3) (2.0 ch) (224 kbps)
[07:09:42] scan: 10 previews, 1920x1080, 23.976 fps, autocrop = 0/0/0/0, aspect 16:9, PAR 1:1
[07:09:42] libhb: scan thread found 1 valid title(s)
[07:11:20] gtkgui: Preset: /General/Super HQ 1080p30 Surround
[07:11:20] Starting work at: Sat Apr 11 07:11:20 2020

[07:11:20] 1 job(s) to process
[07:11:20] json job:
{
    "Audio": {
        "AudioList": [
            {
                "Bitrate": 160,
                "CompressionLevel": -1.0,
                "DRC": 0.0,
                "DitherMethod": "auto",
                "Encoder": "av_aac",
                "Gain": 0.0,
                "Mixdown": "stereo",
                "Name": "Surround 7.1",
                "NormalizeMixLevel": false,
                "PresetEncoder": "av_aac",
                "Quality": -3.0,
                "Samplerate": 0,
                "Track": 0
            },
            {
                "Bitrate": 640,
                "CompressionLevel": -1.0,
                "DRC": 0.0,
                "DitherMethod": "auto",
                "Encoder": "ac3",
                "Gain": 0.0,
                "Mixdown": "5point1",
                "Name": "Surround 7.1",
                "NormalizeMixLevel": false,
                "PresetEncoder": "copy:ac3",
                "Quality": -3.0,
                "Samplerate": 0,
                "Track": 0
            }
        ],
        "CopyMask": [
            "copy:aac",
            "copy:ac3"
        ],
        "FallbackEncoder": "av_aac"
    },
    "Destination": {
        "AlignAVStart": true,
        "ChapterList": [
            {
                "Duration": {
                    "Hours": 0,
                    "Minutes": 3,
                    "Seconds": 51,
                    "Ticks": 20833312
                },
                "Name": "Chapter 1"
            },
            {
                "Duration": {
                    "Hours": 0,
                    "Minutes": 6,
                    "Seconds": 43,
                    "Ticks": 36302516
                },
                "Name": "Chapter 2"
            },
            {
                "Duration": {
                    "Hours": 0,
                    "Minutes": 5,
                    "Seconds": 43,
                    "Ticks": 30852071
                },
                "Name": "Chapter 3"
            },
            {
                "Duration": {
                    "Hours": 0,
                    "Minutes": 8,
                    "Seconds": 32,
                    "Ticks": 46054759
                },
                "Name": "Chapter 4"
            },
            {
                "Duration": {
                    "Hours": 0,
                    "Minutes": 5,
                    "Seconds": 49,
                    "Ticks": 31411380
                },
                "Name": "Chapter 5"
            },
            {
                "Duration": {
                    "Hours": 0,
                    "Minutes": 6,
                    "Seconds": 1,
                    "Ticks": 32451169
                },
                "Name": "Chapter 6"
            },
            {
                "Duration": {
                    "Hours": 0,
                    "Minutes": 6,
                    "Seconds": 26,
                    "Ticks": 34759725
                },
                "Name": "Chapter 7"
            },
            {
                "Duration": {
                    "Hours": 0,
                    "Minutes": 7,
                    "Seconds": 17,
                    "Ticks": 39343054
                },
                "Name": "Chapter 8"
            },
            {
                "Duration": {
                    "Hours": 0,
                    "Minutes": 7,
                    "Seconds": 47,
                    "Ticks": 42057015
                },
                "Name": "Chapter 9"
            },
            {
                "Duration": {
                    "Hours": 0,
                    "Minutes": 5,
                    "Seconds": 46,
                    "Ticks": 31114834
                },
                "Name": "Chapter 10"
            },
            {
                "Duration": {
                    "Hours": 0,
                    "Minutes": 5,
                    "Seconds": 17,
                    "Ticks": 28573544
                },
                "Name": "Chapter 11"
            },
            {
                "Duration": {
                    "Hours": 0,
                    "Minutes": 4,
                    "Seconds": 50,
                    "Ticks": 26133608
                },
                "Name": "Chapter 12"
            },
            {
                "Duration": {
                    "Hours": 0,
                    "Minutes": 6,
                    "Seconds": 42,
                    "Ticks": 36156120
                },
                "Name": "Chapter 13"
            },
            {
                "Duration": {
                    "Hours": 0,
                    "Minutes": 4,
                    "Seconds": 7,
                    "Ticks": 22192170
                },
                "Name": "Chapter 14"
            },
            {
                "Duration": {
                    "Hours": 0,
                    "Minutes": 3,
                    "Seconds": 42,
                    "Ticks": 20014995
                },
                "Name": "Chapter 15"
            },
            {
                "Duration": {
                    "Hours": 0,
                    "Minutes": 8,
                    "Seconds": 38,
                    "Ticks": 46623968
                },
                "Name": "Chapter 16"
            }
        ],
        "ChapterMarkers": true,
        "File": "/home/ed/Videos/Rise of the Guardians.m4v",
        "InlineParameterSets": false,
        "Mp4Options": {
            "IpodAtom": false,
            "Mp4Optimize": false
        },
        "Mux": "m4v"
    },
    "Filters": {
        "FilterList": [
            {
                "ID": 3,
                "Settings": {
                    "block-height": "16",
                    "block-thresh": "40",
                    "block-width": "16",
                    "filter-mode": "2",
                    "mode": "3",
                    "motion-thresh": "1",
                    "spatial-metric": "2",
                    "spatial-thresh": "1"
                }
            },
            {
                "ID": 4,
                "Settings": {
                    "mode": "7"
                }
            },
            {
                "ID": 6,
                "Settings": {
                    "mode": 2,
                    "rate": "27000000/900000"
                }
            },
            {
                "ID": 12,
                "Settings": {
                    "crop-bottom": 0,
                    "crop-left": 0,
                    "crop-right": 0,
                    "crop-top": 0,
                    "height": 1080,
                    "width": 1920
                }
            }
        ]
    },
    "Metadata": {
        "Name": "Rise of the Guardians"
    },
    "PAR": {
        "Den": 1,
        "Num": 1
    },
    "SequenceID": 0,
    "Source": {
        "Angle": 0,
        "Path": "/home/ed/Videos/Rise of the Guardians/Rise of the Guardians_t00.mkv",
        "Range": {
            "End": 16,
            "Start": 1,
            "Type": "chapter"
        },
        "Title": 1
    },
    "Subtitle": {
        "Search": {
            "Burn": true,
            "Default": false,
            "Enable": false,
            "Forced": false
        },
        "SubtitleList": []
    },
    "Video": {
        "ColorFormat": 0,
        "ColorMatrix": 1,
        "ColorPrimaries": 1,
        "ColorRange": 0,
        "ColorTransfer": 1,
        "Encoder": "x264",
        "Level": "4.0",
        "Options": "ref=5:bframes=5",
        "Preset": "veryslow",
        "Profile": "high",
        "QSV": {
            "AsyncDepth": 4,
            "Decode": false
        },
        "Quality": 18.0,
        "Tune": "",
        "Turbo": false,
        "TwoPass": false
    }
}
[07:11:20] CPU: Intel(R) Core(TM) i5-4690K CPU @ 3.50GHz
[07:11:20]  - Intel microarchitecture Haswell
[07:11:20]  - logical processor count: 4
[07:11:20] hb_scan: path=/home/ed/Videos/Rise of the Guardians/Rise of the Guardians_t00.mkv, title_index=1
udfread ERROR: ECMA 167 Volume Recognition failed
disc.c:323: failed opening UDF image /home/ed/Videos/Rise of the Guardians/Rise of the Guardians_t00.mkv
disc.c:424: error opening file BDMV/index.bdmv
disc.c:424: error opening file BDMV/BACKUP/index.bdmv
bluray.c:2585: nav_get_title_list(/home/ed/Videos/Rise of the Guardians/Rise of the Guardians_t00.mkv/) failed
[07:11:20] bd: not a bd - trying as a stream/file instead
libdvdnav: Using dvdnav version 6.0.1
libdvdread: Encrypted DVD support unavailable.
libdvdread:DVDOpenFileUDF:UDFFindFile /VIDEO_TS/VIDEO_TS.IFO failed
libdvdread:DVDOpenFileUDF:UDFFindFile /VIDEO_TS/VIDEO_TS.BUP failed
libdvdread: Can't open file VIDEO_TS.IFO.
libdvdnav: vm: failed to read VIDEO_TS.IFO
[07:11:20] dvd: not a dvd - trying as a stream/file instead
Input #0, matroska,webm, from '/home/ed/Videos/Rise of the Guardians/Rise of the Guardians_t00.mkv':
  Metadata:
    title           : Rise of the Guardians
    encoder         : libmakemkv v1.15.0 (1.3.5/1.4.7) x86_64-unknown-linux-gnu
    creation_time   : 2020-04-08T13:18:39.000000Z
  Duration: 01:37:11.94, start: 0.000000, bitrate: 36240 kb/s
    Chapter #0:0: start 0.000000, end 231.481250
    Metadata:
      title           : Chapter 01
    Chapter #0:1: start 231.481250, end 634.842542
    Metadata:
      title           : Chapter 02
    Chapter #0:2: start 634.842542, end 977.643333
    Metadata:
      title           : Chapter 03
    Chapter #0:3: start 977.643333, end 1489.362875
    Metadata:
      title           : Chapter 04
    Chapter #0:4: start 1489.362875, end 1838.378208
    Metadata:
      title           : Chapter 05
    Chapter #0:5: start 1838.378208, end 2198.946750
    Metadata:
      title           : Chapter 06
    Chapter #0:6: start 2198.946750, end 2585.165917
    Metadata:
      title           : Chapter 07
    Chapter #0:7: start 2585.165917, end 3022.310958
    Metadata:
      title           : Chapter 08
    Chapter #0:8: start 3022.310958, end 3489.611125
    Metadata:
      title           : Chapter 09
    Chapter #0:9: start 3489.611125, end 3835.331500
    Metadata:
      title           : Chapter 10
    Chapter #0:10: start 3835.331500, end 4152.815333
    Metadata:
      title           : Chapter 11
    Chapter #0:11: start 4152.815333, end 4443.188750
    Metadata:
      title           : Chapter 12
    Chapter #0:12: start 4443.188750, end 4844.923417
    Metadata:
      title           : Chapter 13
    Chapter #0:13: start 4844.923417, end 5091.503083
    Metadata:
      title           : Chapter 14
    Chapter #0:14: start 5091.503083, end 5313.891917
    Metadata:
      title           : Chapter 15
    Chapter #0:15: start 5313.891917, end 5831.936000
    Metadata:
      title           : Chapter 16
    Stream #0:0(eng): Video: h264 (High), yuv420p(progressive), 1920x1080 [SAR 1:1 DAR 16:9], 23.98 fps, 23.98 tbr, 1k tbn, 47.95 tbc
    Metadata:
      BPS-eng         : 30432997
      DURATION-eng    : 01:37:11.909416666
      NUMBER_OF_FRAMES-eng: 139826
      NUMBER_OF_BYTES-eng: 22185308784
      SOURCE_ID-eng   : 001011
      _STATISTICS_WRITING_APP-eng: MakeMKV v1.15.0 linux(x64-release)
      _STATISTICS_WRITING_DATE_UTC-eng: 2020-04-08 13:18:39
      _STATISTICS_TAGS-eng: BPS DURATION NUMBER_OF_FRAMES NUMBER_OF_BYTES SOURCE_ID
    Stream #0:1(eng): Audio: truehd, 48000 Hz, 7.1, s32 (24 bit) (default)
    Metadata:
      title           : Surround 7.1
      BPS-eng         : 4289518
      DURATION-eng    : 01:37:11.910000000
      NUMBER_OF_FRAMES-eng: 6998292
      NUMBER_OF_BYTES-eng: 3127010822
      SOURCE_ID-eng   : 001100
      _STATISTICS_WRITING_APP-eng: MakeMKV v1.15.0 linux(x64-release)
      _STATISTICS_WRITING_DATE_UTC-eng: 2020-04-08 13:18:39
      _STATISTICS_TAGS-eng: BPS DURATION NUMBER_OF_FRAMES NUMBER_OF_BYTES SOURCE_ID
    Stream #0:2(eng): Audio: ac3, 48000 Hz, 5.1(side), fltp, 640 kb/s
    Metadata:
      title           : Surround 5.1
      BPS-eng         : 640000
      DURATION-eng    : 01:37:11.936000000
      NUMBER_OF_FRAMES-eng: 182248
      NUMBER_OF_BYTES-eng: 466554880
      SOURCE_ID-eng   : 001100
      _STATISTICS_WRITING_APP-eng: MakeMKV v1.15.0 linux(x64-release)
      _STATISTICS_WRITING_DATE_UTC-eng: 2020-04-08 13:18:39
      _STATISTICS_TAGS-eng: BPS DURATION NUMBER_OF_FRAMES NUMBER_OF_BYTES SOURCE_ID
    Stream #0:3(eng): Audio: ac3, 48000 Hz, 5.1(side), fltp, 640 kb/s
    Metadata:
      title           : Surround 5.1
      BPS-eng         : 640000
      DURATION-eng    : 01:37:11.936000000
      NUMBER_OF_FRAMES-eng: 182248
      NUMBER_OF_BYTES-eng: 466554880
      SOURCE_ID-eng   : 001103
      _STATISTICS_WRITING_APP-eng: MakeMKV v1.15.0 linux(x64-release)
      _STATISTICS_WRITING_DATE_UTC-eng: 2020-04-08 13:18:39
      _STATISTICS_TAGS-eng: BPS DURATION NUMBER_OF_FRAMES NUMBER_OF_BYTES SOURCE_ID
    Stream #0:4(eng): Audio: ac3, 48000 Hz, stereo, fltp, 224 kb/s
    Metadata:
      title           : Stereo
      BPS-eng         : 224000
      DURATION-eng    : 01:37:11.936000000
      NUMBER_OF_FRAMES-eng: 182248
      NUMBER_OF_BYTES-eng: 163294208
      SOURCE_ID-eng   : 001104
      _STATISTICS_WRITING_APP-eng: MakeMKV v1.15.0 linux(x64-release)
      _STATISTICS_WRITING_DATE_UTC-eng: 2020-04-08 13:18:39
      _STATISTICS_TAGS-eng: BPS DURATION NUMBER_OF_FRAMES NUMBER_OF_BYTES SOURCE_ID
[07:11:20] scan: decoding previews for title 1
[07:11:20] scan: audio 0x1: truehd, rate=48000Hz, bitrate=1 English (TrueHD) (7.1 ch)
[07:11:20] scan: audio 0x2: ac3, rate=48000Hz, bitrate=640000 English (AC3) (5.1 ch) (640 kbps)
[07:11:20] scan: audio 0x3: ac3, rate=48000Hz, bitrate=640000 English (AC3) (5.1 ch) (640 kbps)
[07:11:20] scan: audio 0x4: ac3, rate=48000Hz, bitrate=224000 English (AC3) (2.0 ch) (224 kbps)
[07:11:22] scan: 10 previews, 1920x1080, 23.976 fps, autocrop = 0/0/0/0, aspect 16:9, PAR 1:1
[07:11:22] libhb: scan thread found 1 valid title(s)
[07:11:22] Starting Task: Encoding Pass
[07:11:22] Skipping crop/scale filter
[07:11:22] job configuration:
[07:11:22]  * source
[07:11:22]    + /home/ed/Videos/Rise of the Guardians/Rise of the Guardians_t00.mkv
[07:11:22]    + title 1, chapter(s) 1 to 16
[07:11:22]    + container: matroska,webm
[07:11:22]    + data rate: 36240 kbps
[07:11:22]  * destination
[07:11:22]    + /home/ed/Videos/Rise of the Guardians.m4v
[07:11:22]    + container: MPEG-4 (libavformat)
[07:11:22]      + align initial A/V stream timestamps
[07:11:22]      + chapter markers
[07:11:22]  * video track
[07:11:22]    + decoder: h264
[07:11:22]    + filters
[07:11:22]      + Comb Detect (mode=3:spatial-metric=2:motion-thresh=1:spatial-thresh=1:filter-mode=2:block-thresh=40:block-width=16:block-height=16)
[07:11:22]      + Decomb (mode=39)
[07:11:22]      + Framerate Shaper (mode=2:rate=27000000/900000)
[07:11:22]        + frame rate: 23.976 fps -> peak rate limited to 30.000 fps
[07:11:22]    + Output geometry
[07:11:22]      + storage dimensions: 1920 x 1080
[07:11:22]      + pixel aspect ratio: 1 : 1
[07:11:22]      + display dimensions: 1920 x 1080
[07:11:22]    + encoder: H.264 (libx264)
[07:11:22]      + preset:  veryslow
[07:11:22]      + options: ref=5:bframes=5
[07:11:22]      + profile: high
[07:11:22]      + level:   4.0
[07:11:22]      + quality: 18.00 (RF)
[07:11:22]      + color profile: 1-1-1
[07:11:22]  * audio track 1
[07:11:22]    + name: Surround 7.1
[07:11:22]    + decoder: English (TrueHD) (7.1 ch) (track 1, id 0x1)
[07:11:22]      + samplerate: 48000 Hz
[07:11:22]    + mixdown: Stereo
[07:11:22]    + dither: triangular
[07:11:22]    + encoder: AAC (libavcodec)
[07:11:22]      + bitrate: 160 kbps, samplerate: 48000 Hz
[07:11:22]  * audio track 2
[07:11:22]    + name: Surround 7.1
[07:11:22]    + decoder: English (TrueHD) (7.1 ch) (track 1, id 0x1)
[07:11:22]      + samplerate: 48000 Hz
[07:11:22]    + mixdown: 5.1 Channels
[07:11:22]    + dither: triangular
[07:11:22]    + encoder: AC3 (libavcodec)
[07:11:22]      + bitrate: 640 kbps, samplerate: 48000 Hz
[07:11:22] sync: expecting 139826 video frames
[07:11:22] encx264: min-keyint: 24, keyint: 240
[07:11:22] encx264: encoding at constant RF 18.000000
[07:11:22] encx264: unparsed options: ref=4:bframes=5:level=4.0:b-adapt=2:direct=auto:analyse=all:me=umh:merange=24:subme=10:trellis=2:vbv-bufsize=31250:vbv-maxrate=25000:rc-lookahead=60
x264 [info]: using SAR=1/1
x264 [info]: using cpu capabilities: MMX2 SSE2Fast SSSE3 SSE4.2 AVX FMA3 BMI2 AVX2
x264 [info]: profile High, level 4.0, 4:2:0, 8-bit
[07:11:22] sync: first pts audio 0x1 is 0
[07:11:22] sync: first pts audio 0x1 is 0
[07:11:22] sync: first pts video is 0
[07:11:22] sync: "Chapter 1" (1) at frame 1 time 0
mduell
Veteran User
Posts: 7211
Joined: Sat Apr 21, 2007 8:54 pm

Re: Matroska Presets - No Surround

Post by mduell »

The MKV presets are stereo only, per the documentation.

If you'd like surround in MKV, modify either the preset with surround audio or a MKV preset and save it as a new preset to use.
t3kg33k
Posts: 6
Joined: Thu Mar 02, 2017 1:49 am

Re: Matroska Presets - No Surround

Post by t3kg33k »

mduell wrote: Sat Apr 11, 2020 4:38 pm The MKV presets are stereo only, per the documentation.

If you'd like surround in MKV, modify either the preset with surround audio or a MKV preset and save it as a new preset to use.
Gotcha. Thanks!
Post Reply