Define workspace?

Support for HandBrake on Linux, Solaris, and other Unix-like platforms
Forum rules
An Activity Log is required for support requests. Please read How-to get an activity log? for details on how and why this should be provided.
Post Reply
fargodwe
Posts: 1
Joined: Tue Jan 21, 2020 4:35 pm

Define workspace?

Post by fargodwe »

Description of problem or question:
THIS IS NOT A BUG OR ERROR. Running off an emmc so "disk" space is limited. Need a way to direct workspace for Handbrake to another device as I am low on disk space. I would like to direct the workspace it needs to another disk drive. Note for the log file: I killed the encode since it was low on diskspace.



Steps to reproduce the problem (If Applicable):

Just simply try to open any file or disk and then try "Start". I get a warning about potentially too little disk space for needed workspace.




HandBrake version (e.g., 1.0.0):

1.3.1


Operating system and version (e.g., Ubuntu 16.04 LTS, macOS 10.13 High Sierra, Windows 10 Creators Update):

Linux Mint 18.3


HandBrake Activity Log ***required*** (see How-to get an activity log)

Code: Select all

[10:24:37] gtkgui: HandBrake 0.10.2 (2016021200) - Linux x86_64 - https://handbrake.fr
[10:24:37] hb_init: starting libhb thread
[10:24:37] hb_init: starting libhb thread
[10:24:50] CPU: 
[10:24:50]  - logical processor count: 2
[10:24:50] OpenCL: library not available
[10:24:50] hb_scan: path=/home/dave/Downloads/9.To.5(1980).mkv, title_index=0
udfread ERROR: ECMA 167 Volume Recognition failed
disc.c:269: failed opening UDF image /home/dave/Downloads/9.To.5(1980).mkv
disc.c:350: error opening file BDMV/index.bdmv
disc.c:350: error opening file BDMV/BACKUP/index.bdmv
[10:24:50] bd: not a bd - trying as a stream/file instead
libdvdnav: Using dvdnav version 5.0.3
libdvdread:DVDOpenFileUDF:UDFFindFile /VIDEO_TS/VIDEO_TS.IFO failed
libdvdread:DVDOpenFileUDF:UDFFindFile /VIDEO_TS/VIDEO_TS.BUP failed
libdvdread: Can't open file VIDEO_TS.IFO.
libdvdnav: vm: failed to read VIDEO_TS.IFO
[10:24:50] dvd: not a dvd - trying as a stream/file instead
Input #0, matroska,webm, from '/home/dave/Downloads/9.To.5(1980).mkv':
  Metadata:
    creation_time   : 2019-12-17 08:26:00
    ENCODER         : Lavf58.20.100
  Duration: 01:49:23.04, start: 0.000000, bitrate: 2545 kb/s
    Chapter #0:0: start 0.000000, end 153.695000
    Metadata:
      title           : Chapter 1
    Chapter #0:1: start 153.695000, end 408.909000
    Metadata:
      title           : Chapter 2
    Chapter #0:2: start 408.909000, end 579.579000
    Metadata:
      title           : Chapter 3
    Chapter #0:3: start 579.579000, end 720.053000
    Metadata:
      title           : Chapter 4
    Chapter #0:4: start 720.053000, end 1017.225000
    Metadata:
      title           : Chapter 5
    Chapter #0:5: start 1017.225000, end 1191.232000
    Metadata:
      title           : Chapter 6
    Chapter #0:6: start 1191.232000, end 1278.986000
    Metadata:
      title           : Chapter 7
    Chapter #0:7: start 1278.986000, end 1456.288000
    Metadata:
      title           : Chapter 8
    Chapter #0:8: start 1456.288000, end 1608.774000
    Metadata:
      title           : Chapter 9
    Chapter #0:9: start 1608.774000, end 1680.679000
    Metadata:
      title           : Chapter 10
    Chapter #0:10: start 1680.679000, end 1806.346000
    Metadata:
      title           : Chapter 11
    Chapter #0:11: start 1806.346000, end 1990.322000
    Metadata:
      title           : Chapter 12
    Chapter #0:12: start 1990.322000, end 2109.774000
    Metadata:
      title           : Chapter 13
    Chapter #0:13: start 2109.774000, end 2326.825000
    Metadata:
      title           : Chapter 14
    Chapter #0:14: start 2326.825000, end 2540.538000
    Metadata:
      title           : Chapter 15
    Chapter #0:15: start 2540.538000, end 2828.492000
    Metadata:
      title           : Chapter 16
    Chapter #0:16: start 2828.492000, end 3213.711000
    Metadata:
      title           : Chapter 17
    Chapter #0:17: start 3213.711000, end 3371.702000
    Metadata:
      title           : Chapter 18
    Chapter #0:18: start 3371.702000, end 3672.669000
    Metadata:
      title           : Chapter 19
    Chapter #0:19: start 3672.669000, end 3890.553000
    Metadata:
      title           : Chapter 20
    Chapter #0:20: start 3890.553000, end 4102.807000
    Metadata:
      title           : Chapter 21
    Chapter #0:21: start 4102.807000, end 4205.034000
    Metadata:
      title           : Chapter 22
    Chapter #0:22: start 4205.034000, end 4517.346000
    Metadata:
      title           : Chapter 23
    Chapter #0:23: start 4517.346000, end 4631.127000
    Metadata:
      title           : Chapter 24
    Chapter #0:24: start 4631.127000, end 4833.037000
    Metadata:
      title           : Chapter 25
    Chapter #0:25: start 4833.037000, end 5122.784000
    Metadata:
      title           : Chapter 26
    Chapter #0:26: start 5122.784000, end 5320.148000
    Metadata:
      title           : Chapter 27
    Chapter #0:27: start 5320.148000, end 5694.397000
    Metadata:
      title           : Chapter 28
    Chapter #0:28: start 5694.397000, end 5891.052000
    Metadata:
      title           : Chapter 29
    Chapter #0:29: start 5891.052000, end 6244.905000
    Metadata:
      title           : Chapter 30
    Chapter #0:30: start 6244.905000, end 6371.031000
    Metadata:
      title           : Chapter 31
    Chapter #0:31: start 6371.031000, end 6562.973000
    Metadata:
      title           : Chapter 32
    Stream #0:0: Video: h264 (Main), yuv420p(tv, smpte170m/smpte170m/bt709), 720x464 [SAR 32:27 DAR 160:87], 23.98 fps, 23.98 tbr, 1k tbn, 180k tbc (default)
    Metadata:
      DURATION        : 01:49:23.036000000
    Stream #0:1(eng): Audio: aac (LC), 48000 Hz, stereo, fltp (default)
    Metadata:
      title           : Stereo
      DURATION        : 01:49:23.029000000
[10:24:50] scan: decoding previews for title 1
[10:24:50] scan: audio 0x1: aac, rate=48000Hz, bitrate=1 English (LC) (2.0 ch)
[10:24:50] scan: 10 previews, 720x464, 23.976 fps, autocrop = 0/0/0/0, aspect 16:9, PAR 32:27
[10:24:50] libhb: scan thread found 1 valid title(s)
Gtk-Message: GtkDialog mapped without a transient parent. This is discouraged.

Post Reply