No Multiple Queue and Return to Current Folder

Support for HandBrake on Linux, Solaris, and other Unix-like platforms
Forum rules
An Activity Log is required for support requests. Please read How-to get an activity log? for details on how and why this should be provided.
Post Reply
Raccoon Strait
Posts: 9
Joined: Mon Sep 18, 2017 3:17 pm

No Multiple Queue and Return to Current Folder

Post by Raccoon Strait » Mon Sep 18, 2017 3:36 pm

There are two issues I have noticed in Handbrake v 1.04. When I try to add multiple items to the queue, Handbrake crashes. This has worked for me in previous versions, but not in 1.04.

Because I have to do items one at a time, when an encode finishes I select Open Source again, but this leads me to some other folder. Yesterday, I had occasion to cancel the Open Source selection, but when I went back to Open Source it took me to the directory I was working in. I now am canceling Open Source on purpose to avoid having to re-navigate to the desired folder.

I looked for a newer version of Handbrake yesterday, and while v1.07 was listed on your homepage, there was no v1.07 listed on the download page.

I am using Ubuntu 17.04 (zesty) 64 bit, which is completely up to date, and an XFCE desktop.

Other than that, Handbrake has been working wonderfully for me for many years. Thank you so much.

Raccoon Strait

User avatar
JohnAStebbins
HandBrake Team
Posts: 5467
Joined: Sat Feb 09, 2008 7:21 pm

Re: No Multiple Queue and Return to Current Folder

Post by JohnAStebbins » Mon Sep 18, 2017 8:41 pm

Sorry about the confusion. 1.0.4 and 1.0.7 are exactly the same. We had to bump the version number to fix some problems with the builds on other platforms. These were merely build time issues, but we never re-use the same version twice, even for trivial oops'es.

The "Open Source" issue is a known problem with libgtk. It works perfectly fine on some platforms (e.g. Fedora 24, 25, and 26). But Ubuntu seems to be persistently publishing a broken version of gtkfilechooserdialog. I don't know if this is because Ubuntu applies some custom patches that breaks things or if it Fedora is applying custom patches that fixes things.

Can you give more detail about the crash you are experiencing with adding multiple items to the queue. At what point in the process does the crash happen?

Raccoon Strait
Posts: 9
Joined: Mon Sep 18, 2017 3:17 pm

Re: No Multiple Queue and Return to Current Folder

Post by Raccoon Strait » Tue Sep 19, 2017 2:52 pm

Hi John,

Thank you for that information.

I use Open Source and highlight the folder that contains the multiple items for processing. I then select Queue and then Add Multiple. I choose select all, and all non-duplicate items are marked. Then I select Start Encoding and nothing happens for a bit, then Handbrake disappears. Sometimes then, a few minutes later, I get a notification that Handbrake has stopped, do I want to leave closed or reopen. I leave the send error report checked, but I am not sure of the destination of that report.

I just did this again, and here is the activity log:

Code: Select all

[07:37:46] gtkgui: HandBrake 1.0.4 (2010041100) - Linux x86_64 - https://handbrake.fr
[07:37:46] hb_init: starting libhb thread
[07:37:46] hb_init: starting libhb thread
[07:37:46] hb_init: starting libhb thread
[07:38:54] CPU: Intel(R) Core(TM) i7-6700K CPU @ 4.00GHz
[07:38:54]  - Intel microarchitecture Skylake
[07:38:54]  - logical processor count: 8
[07:38:54] hb_scan: path=/media/raccoon/NTFS/Torrents/The New Yankee Workshop/Season 8, title_index=0
disc.c:352: error opening file BDMV/index.bdmv
disc.c:352: error opening file BDMV/BACKUP/index.bdmv
[07:38:54] bd: not a bd - trying as a stream/file instead
libdvdnav: Using dvdnav version 5.0.1
libdvdread: Couldn't find device name.
libdvdread:DVDOpenFilePath:findDVDFile /VIDEO_TS/VIDEO_TS.IFO failed
libdvdread:DVDOpenFilePath:findDVDFile /VIDEO_TS/VIDEO_TS.BUP failed
libdvdread: Can't open file VIDEO_TS.IFO.
libdvdnav: vm: failed to read VIDEO_TS.IFO
[07:38:54] dvd: not a dvd - trying as a stream/file instead
[07:38:54] batch: scanning /media/raccoon/NTFS/Torrents/The New Yankee Workshop/Season 8/NYWS - S08E01 - Bedside Cupboard.avi
Input #0, avi, from '/media/raccoon/NTFS/Torrents/The New Yankee Workshop/Season 8/NYWS - S08E01 - Bedside Cupboard.avi':
  Duration: 00:28:15.92, start: 0.000000, bitrate: 775 kb/s
    Stream #0:0: Video: mpeg4 (Advanced Simple Profile) [XVID / 0x44495658]
      yuv420p, 352x264 [PAR 1:1 DAR 4:3]
      29.97 fps, 29.97 tbn
    Stream #0:1: Audio: mp3 [U[0][0][0] / 0x0055]
      44100 Hz, 2 channels, s16p, 128 kb/s
[07:38:54] batch: scanning /media/raccoon/NTFS/Torrents/The New Yankee Workshop/Season 8/NYWS - S08E02 - Chestnut Coffee Table.avi
[07:38:54] hb_stream_open: open /media/raccoon/NTFS/Torrents/The New Yankee Workshop/Season 8/NYWS - S08E02 - Chestnut Coffee Table.avi failed
[07:38:54] batch: scanning /media/raccoon/NTFS/Torrents/The New Yankee Workshop/Season 8/NYWS - S08E03 - Paymaster's Desk.avi
Input #0, avi, from '/media/raccoon/NTFS/Torrents/The New Yankee Workshop/Season 8/NYWS - S08E03 - Paymaster's Desk.avi':
  Duration: 00:28:54.26, start: 0.000000, bitrate: 675 kb/s
    Stream #0:0: Video: mpeg4 (Advanced Simple Profile) [XVID / 0x44495658]
      yuv420p, 352x264 [PAR 1:1 DAR 4:3]
      29.97 fps, 29.97 tbn
    Stream #0:1: Audio: mp3 [U[0][0][0] / 0x0055]
      44100 Hz, 2 channels, s16p, 128 kb/s
[07:38:55] batch: scanning /media/raccoon/NTFS/Torrents/The New Yankee Workshop/Season 8/NYWS - S08E04 - Long Table.avi
Input #0, avi, from '/media/raccoon/NTFS/Torrents/The New Yankee Workshop/Season 8/NYWS - S08E04 - Long Table.avi':
  Duration: 00:28:40.35, start: 0.000000, bitrate: 730 kb/s
    Stream #0:0: Video: mpeg4 (Advanced Simple Profile) [XVID / 0x44495658]
      yuv420p, 352x264 [PAR 1:1 DAR 4:3]
      29.97 fps, 29.97 tbn
    Stream #0:1: Audio: mp3 [U[0][0][0] / 0x0055]
      44100 Hz, 2 channels, s16p, 128 kb/s
[07:38:55] batch: scanning /media/raccoon/NTFS/Torrents/The New Yankee Workshop/Season 8/NYWS - S08E05 - Double Dresser.avi
Input #0, avi, from '/media/raccoon/NTFS/Torrents/The New Yankee Workshop/Season 8/NYWS - S08E05 - Double Dresser.avi':
  Duration: 00:28:53.43, start: 0.000000, bitrate: 687 kb/s
    Stream #0:0: Video: mpeg4 (Advanced Simple Profile) [XVID / 0x44495658]
      yuv420p, 352x264 [PAR 1:1 DAR 4:3]
      29.97 fps, 29.97 tbn
    Stream #0:1: Audio: mp3 [U[0][0][0] / 0x0055]
      44100 Hz, 2 channels, s16p, 128 kb/s
[07:38:55] batch: scanning /media/raccoon/NTFS/Torrents/The New Yankee Workshop/Season 8/NYWS - S08E06 - Chestnut Desk.avi
Input #0, avi, from '/media/raccoon/NTFS/Torrents/The New Yankee Workshop/Season 8/NYWS - S08E06 - Chestnut Desk.avi':
  Duration: 00:28:54.86, start: 0.000000, bitrate: 737 kb/s
    Stream #0:0: Video: mpeg4 (Advanced Simple Profile) [XVID / 0x44495658]
      yuv420p, 352x264 [PAR 1:1 DAR 4:3]
      29.97 fps, 29.97 tbn
    Stream #0:1: Audio: mp3 [U[0][0][0] / 0x0055]
      44100 Hz, 2 channels, s16p, 128 kb/s
[07:38:56] batch: scanning /media/raccoon/NTFS/Torrents/The New Yankee Workshop/Season 8/NYWS - S08E07 - Irish Hutch.avi
Input #0, avi, from '/media/raccoon/NTFS/Torrents/The New Yankee Workshop/Season 8/NYWS - S08E07 - Irish Hutch.avi':
  Duration: 00:28:52.29, start: 0.000000, bitrate: 780 kb/s
    Stream #0:0: Video: mpeg4 (Advanced Simple Profile) [XVID / 0x44495658]
      yuv420p, 352x264 [PAR 1:1 DAR 4:3]
      29.97 fps, 29.97 tbn
    Stream #0:1: Audio: mp3 [U[0][0][0] / 0x0055]
      44100 Hz, 2 channels, s16p, 128 kb/s
[07:38:56] batch: scanning /media/raccoon/NTFS/Torrents/The New Yankee Workshop/Season 8/NYWS - S08E08 - Wine Storage Unit.avi
Input #0, avi, from '/media/raccoon/NTFS/Torrents/The New Yankee Workshop/Season 8/NYWS - S08E08 - Wine Storage Unit.avi':
  Metadata:
    encoder         : VirtualDubMod 1.5.4.1 (build 2178/release)
  Duration: 00:23:23.40, start: 0.000000, bitrate: 1392 kb/s
    Stream #0:0: Video: mpeg4 (Advanced Simple Profile) [XVID / 0x44495658]
      yuv420p, 528x400 [PAR 1:1 DAR 33:25]
      25 fps, 25 tbn
    Stream #0:1: Audio: mp3 [U[0][0][0] / 0x0055]
      48000 Hz, 2 channels, s16p, 128 kb/s
[07:38:56] batch: scanning /media/raccoon/NTFS/Torrents/The New Yankee Workshop/Season 8/NYWS - S08E09 - Three Turned Table Lamps.avi
Input #0, avi, from '/media/raccoon/NTFS/Torrents/The New Yankee Workshop/Season 8/NYWS - S08E09 - Three Turned Table Lamps.avi':
  Duration: 00:28:53.99, start: 0.000000, bitrate: 924 kb/s
    Stream #0:0: Video: mpeg4 (Advanced Simple Profile) [XVID / 0x44495658]
      yuv420p, 352x264 [PAR 1:1 DAR 4:3]
      29.97 fps, 29.97 tbn
    Stream #0:1: Audio: mp3 [U[0][0][0] / 0x0055]
      44100 Hz, 2 channels, s16p, 128 kb/s
[07:38:56] batch: scanning /media/raccoon/NTFS/Torrents/The New Yankee Workshop/Season 8/NYWS - S08E10 - Garden Shed and Recycling Center (Part 1).avi
Input #0, avi, from '/media/raccoon/NTFS/Torrents/The New Yankee Workshop/Season 8/NYWS - S08E10 - Garden Shed and Recycling Center (Part 1).avi':
  Duration: 00:28:39.25, start: 0.000000, bitrate: 985 kb/s
    Stream #0:0: Video: mpeg4 (Advanced Simple Profile) [XVID / 0x44495658]
      yuv420p, 352x264 [PAR 1:1 DAR 4:3]
      29.97 fps, 29.97 tbn
    Stream #0:1: Audio: mp3 [U[0][0][0] / 0x0055]
      44100 Hz, 2 channels, s16p, 128 kb/s
[07:38:57] batch: scanning /media/raccoon/NTFS/Torrents/The New Yankee Workshop/Season 8/NYWS - S08E11 - Garden Shed and Recycling Center (Part 2).avi
[07:38:57] hb_stream_open: open /media/raccoon/NTFS/Torrents/The New Yankee Workshop/Season 8/NYWS - S08E11 - Garden Shed and Recycling Center (Part 2).avi failed
[07:38:57] batch: scanning /media/raccoon/NTFS/Torrents/The New Yankee Workshop/Season 8/NYWS - S08E12 - Nest of Drawers.avi
Input #0, avi, from '/media/raccoon/NTFS/Torrents/The New Yankee Workshop/Season 8/NYWS - S08E12 - Nest of Drawers.avi':
  Duration: 00:28:50.86, start: 0.000000, bitrate: 724 kb/s
    Stream #0:0: Video: mpeg4 (Advanced Simple Profile) [XVID / 0x44495658]
      yuv420p, 352x264 [PAR 1:1 DAR 4:3]
      29.97 fps, 29.97 tbn
    Stream #0:1: Audio: mp3 [U[0][0][0] / 0x0055]
      44100 Hz, 2 channels, s16p, 128 kb/s
[07:38:57] batch: scanning /media/raccoon/NTFS/Torrents/The New Yankee Workshop/Season 8/NYWS - S08E13 - Router Table.avi
Input #0, avi, from '/media/raccoon/NTFS/Torrents/The New Yankee Workshop/Season 8/NYWS - S08E13 - Router Table.avi':
  Metadata:
    encoder         : VirtualDubMod 1.5.4.1 (build 2178/release)
  Duration: 00:23:55.48, start: 0.000000, bitrate: 1361 kb/s
    Stream #0:0: Video: mpeg4 (Advanced Simple Profile) [XVID / 0x44495658]
      yuv420p, 512x384 [PAR 1:1 DAR 4:3]
      25 fps, 25 tbn
    Stream #0:1: Audio: mp3 [U[0][0][0] / 0x0055]
      48000 Hz, 2 channels, s16p, 128 kb/s
[07:38:57] batch: scanning /media/raccoon/NTFS/Torrents/The New Yankee Workshop/Season 8/S08E01.avi
Input #0, avi, from '/media/raccoon/NTFS/Torrents/The New Yankee Workshop/Season 8/S08E01.avi':
  Metadata:
    encoder         : VirtualDubMod 1.5.10.2 (build 2540/release)
  Duration: 00:28:15.92, start: 0.000000, bitrate: 66978 kb/s
    Stream #0:0: Video: rawvideo
      bgr24, 352x264
      29.97 fps, 29.97 tbn
    Stream #0:1: Audio: mp3 [U[0][0][0] / 0x0055]
      44100 Hz, 2 channels, s16p, 128 kb/s
[07:38:57] batch: scanning /media/raccoon/NTFS/Torrents/The New Yankee Workshop/Season 8/S08E03.avi
Input #0, avi, from '/media/raccoon/NTFS/Torrents/The New Yankee Workshop/Season 8/S08E03.avi':
  Metadata:
    encoder         : VirtualDubMod 1.5.10.2 (build 2540/release)
  Duration: 00:11:43.20, start: 0.000000, bitrate: 66979 kb/s
    Stream #0:0: Video: rawvideo
      bgr24, 352x264
      29.97 fps, 29.97 tbn
    Stream #0:1: Audio: mp3 [U[0][0][0] / 0x0055]
      44100 Hz, 2 channels, s16p, 128 kb/s
[07:38:58] batch: scanning /media/raccoon/NTFS/Torrents/The New Yankee Workshop/Season 8/S08E04.avi
Input #0, avi, from '/media/raccoon/NTFS/Torrents/The New Yankee Workshop/Season 8/S08E04.avi':
  Metadata:
    encoder         : VirtualDubMod 1.5.10.2 (build 2540/release)
  Duration: 00:06:05.79, start: 0.000000, bitrate: 66982 kb/s
    Stream #0:0: Video: rawvideo
      bgr24, 352x264
      29.97 fps, 29.97 tbn
    Stream #0:1: Audio: mp3 [U[0][0][0] / 0x0055]
      44100 Hz, 2 channels, s16p, 128 kb/s
[07:38:58] batch: scanning /media/raccoon/NTFS/Torrents/The New Yankee Workshop/Season 8/S08E05.avi
Input #0, avi, from '/media/raccoon/NTFS/Torrents/The New Yankee Workshop/Season 8/S08E05.avi':
  Metadata:
    encoder         : VirtualDubMod 1.5.10.2 (build 2540/release)
  Duration: 00:07:11.33, start: 0.000000, bitrate: 66981 kb/s
    Stream #0:0: Video: rawvideo
      bgr24, 352x264
      29.97 fps, 29.97 tbn
    Stream #0:1: Audio: mp3 [U[0][0][0] / 0x0055]
      44100 Hz, 2 channels, s16p, 128 kb/s
[07:38:58] batch: scanning /media/raccoon/NTFS/Torrents/The New Yankee Workshop/Season 8/S08E06.avi
Input #0, avi, from '/media/raccoon/NTFS/Torrents/The New Yankee Workshop/Season 8/S08E06.avi':
  Metadata:
    encoder         : VirtualDubMod 1.5.10.2 (build 2540/release)
  Duration: 00:07:06.62, start: 0.000000, bitrate: 66981 kb/s
    Stream #0:0: Video: rawvideo
      bgr24, 352x264
      29.97 fps, 29.97 tbn
    Stream #0:1: Audio: mp3 [U[0][0][0] / 0x0055]
      44100 Hz, 2 channels, s16p, 128 kb/s
[07:38:58] batch: scanning /media/raccoon/NTFS/Torrents/The New Yankee Workshop/Season 8/S08E07.avi
Input #0, avi, from '/media/raccoon/NTFS/Torrents/The New Yankee Workshop/Season 8/S08E07.avi':
  Metadata:
    encoder         : VirtualDubMod 1.5.10.2 (build 2540/release)
  Duration: 00:10:26.02, start: 0.000000, bitrate: 66980 kb/s
    Stream #0:0: Video: rawvideo
      bgr24, 352x264
      29.97 fps, 29.97 tbn
    Stream #0:1: Audio: mp3 [U[0][0][0] / 0x0055]
      44100 Hz, 2 channels, s16p, 128 kb/s
[07:38:58] batch: scanning /media/raccoon/NTFS/Torrents/The New Yankee Workshop/Season 8/S08E08.avi
Input #0, avi, from '/media/raccoon/NTFS/Torrents/The New Yankee Workshop/Season 8/S08E08.avi':
  Metadata:
    encoder         : VirtualDubMod 1.5.10.2 (build 2540/release)
  Duration: 00:23:23.40, start: 0.000000, bitrate: 126855 kb/s
    Stream #0:0: Video: rawvideo
      bgr24, 528x400
      25 fps, 25 tbn
    Stream #0:1: Audio: mp3 [U[0][0][0] / 0x0055]
      48000 Hz, 2 channels, s16p, 128 kb/s
[07:38:58] batch: scanning /media/raccoon/NTFS/Torrents/The New Yankee Workshop/Season 8/S08E09.avi
Input #0, avi, from '/media/raccoon/NTFS/Torrents/The New Yankee Workshop/Season 8/S08E09.avi':
  Metadata:
    encoder         : VirtualDubMod 1.5.10.2 (build 2540/release)
  Duration: 00:05:27.92, start: 0.000000, bitrate: 66983 kb/s
    Stream #0:0: Video: rawvideo
      bgr24, 352x264
      29.97 fps, 29.97 tbn
    Stream #0:1: Audio: mp3 [U[0][0][0] / 0x0055]
      44100 Hz, 2 channels, s16p, 128 kb/s
[07:38:59] batch: scanning /media/raccoon/NTFS/Torrents/The New Yankee Workshop/Season 8/S08E10.avi
Input #0, avi, from '/media/raccoon/NTFS/Torrents/The New Yankee Workshop/Season 8/S08E10.avi':
  Metadata:
    encoder         : VirtualDubMod 1.5.10.2 (build 2540/release)
  Duration: 00:11:37.46, start: 0.000000, bitrate: 66979 kb/s
    Stream #0:0: Video: rawvideo
      bgr24, 352x264
      29.97 fps, 29.97 tbn
    Stream #0:1: Audio: mp3 [U[0][0][0] / 0x0055]
      44100 Hz, 2 channels, s16p, 128 kb/s
[07:38:59] batch: scanning /media/raccoon/NTFS/Torrents/The New Yankee Workshop/Season 8/S08E12.avi
Input #0, avi, from '/media/raccoon/NTFS/Torrents/The New Yankee Workshop/Season 8/S08E12.avi':
  Metadata:
    encoder         : VirtualDubMod 1.5.10.2 (build 2540/release)
  Duration: 00:09:42.71, start: 0.000000, bitrate: 66980 kb/s
    Stream #0:0: Video: rawvideo
      bgr24, 352x264
      29.97 fps, 29.97 tbn
    Stream #0:1: Audio: mp3 [U[0][0][0] / 0x0055]
      44100 Hz, 2 channels, s16p, 128 kb/s
[07:38:59] batch: scanning /media/raccoon/NTFS/Torrents/The New Yankee Workshop/Season 8/S08E13.avi
Input #0, avi, from '/media/raccoon/NTFS/Torrents/The New Yankee Workshop/Season 8/S08E13.avi':
  Metadata:
    encoder         : VirtualDubMod 1.5.10.2 (build 2540/release)
  Duration: 00:09:20.48, start: 0.000000, bitrate: 118101 kb/s
    Stream #0:0: Video: rawvideo
      bgr24, 512x384
      25 fps, 25 tbn
    Stream #0:1: Audio: mp3 [U[0][0][0] / 0x0055]
      48000 Hz, 2 channels, s16p, 128 kb/s
[07:38:59] scan: decoding previews for title 1 (/media/raccoon/NTFS/Torrents/The New Yankee Workshop/Season 8/NYWS - S08E01 - Bedside Cupboard.avi)
[mp3 @ 0x7f3bb02e4fe0] Header missing
[mp3 @ 0x7f3bb02e5420] Header missing
[07:38:59] scan: audio 0x1: mp3, rate=44100Hz, bitrate=128000 Unknown (MP3) (2.0 ch)
[07:38:59] scan: 10 previews, 352x264, 29.970 fps, autocrop = 0/0/0/0, aspect 4:3, PAR 1:1
[07:38:59] scan: decoding previews for title 3 (/media/raccoon/NTFS/Torrents/The New Yankee Workshop/Season 8/NYWS - S08E03 - Paymaster's Desk.avi)
[07:38:59] scan: audio 0x1: mp3, rate=44100Hz, bitrate=128000 Unknown (MP3) (2.0 ch)
[07:39:00] Warning: Could not read data for preview 7, skipped
[07:39:00] scan: 6 previews, 352x264, 29.970 fps, autocrop = 0/0/0/0, aspect 4:3, PAR 1:1
[07:39:00] scan: decoding previews for title 4 (/media/raccoon/NTFS/Torrents/The New Yankee Workshop/Season 8/NYWS - S08E04 - Long Table.avi)
[mp3 @ 0x7f3bb0056760] Header missing
[mp3 @ 0x7f3bb000dd80] Header missing
[07:39:00] scan: audio 0x1: mp3, rate=44100Hz, bitrate=128000 Unknown (MP3) (2.0 ch)
[07:39:00] Warning: Could not read data for preview 4, skipped
[07:39:00] scan: 3 previews, 352x264, 29.970 fps, autocrop = 0/0/0/0, aspect 4:3, PAR 1:1
[07:39:00] scan: decoding previews for title 5 (/media/raccoon/NTFS/Torrents/The New Yankee Workshop/Season 8/NYWS - S08E05 - Double Dresser.avi)
[mp3 @ 0x7f3bb00566e0] Header missing
[mp3 @ 0x7f3bb037bf60] Header missing
[07:39:00] scan: audio 0x1: mp3, rate=44100Hz, bitrate=128000 Unknown (MP3) (2.0 ch)
[07:39:00] Warning: Could not read data for preview 4, skipped
[07:39:00] scan: 3 previews, 352x264, 29.970 fps, autocrop = 0/0/0/0, aspect 4:3, PAR 1:1
[07:39:00] scan: decoding previews for title 6 (/media/raccoon/NTFS/Torrents/The New Yankee Workshop/Season 8/NYWS - S08E06 - Chestnut Desk.avi)
[mp3 @ 0x7f3bb00c3ae0] Header missing
[mp3 @ 0x7f3bb015c480] Header missing
[07:39:01] scan: audio 0x1: mp3, rate=44100Hz, bitrate=128000 Unknown (MP3) (2.0 ch)
[07:39:01] Warning: Could not read data for preview 4, skipped
[07:39:01] scan: 3 previews, 352x264, 29.970 fps, autocrop = 0/0/0/0, aspect 4:3, PAR 1:1
[07:39:01] scan: decoding previews for title 7 (/media/raccoon/NTFS/Torrents/The New Yankee Workshop/Season 8/NYWS - S08E07 - Irish Hutch.avi)
[mp3 @ 0x7f3bb02a70e0] Header missing
[mp3 @ 0x7f3bb02a70e0] Header missing
[07:39:01] scan: audio 0x1: mp3, rate=44100Hz, bitrate=128000 Unknown (MP3) (2.0 ch)
[07:39:01] Warning: Could not read data for preview 6, skipped
[07:39:01] scan: 5 previews, 352x264, 29.970 fps, autocrop = 0/0/0/0, aspect 4:3, PAR 1:1
[07:39:01] scan: decoding previews for title 8 (/media/raccoon/NTFS/Torrents/The New Yankee Workshop/Season 8/NYWS - S08E08 - Wine Storage Unit.avi)
[07:39:01] scan: audio 0x1: mp3, rate=48000Hz, bitrate=128000 Unknown (MP3) (2.0 ch)
[07:39:02] scan: 10 previews, 528x400, 25.000 fps, autocrop = 0/0/0/0, aspect 1.32:1, PAR 1:1
[07:39:02] scan: decoding previews for title 9 (/media/raccoon/NTFS/Torrents/The New Yankee Workshop/Season 8/NYWS - S08E09 - Three Turned Table Lamps.avi)
[mp3 @ 0x7f3bb03f4800] Header missing
[mp3 @ 0x7f3bb03f57a0] Header missing
[07:39:02] scan: audio 0x1: mp3, rate=44100Hz, bitrate=128000 Unknown (MP3) (2.0 ch)
[avi @ 0x7f3bb00a6a80] Broken AVI index.
[07:39:02] scan: 10 previews, 352x264, 29.970 fps, autocrop = 0/0/0/0, aspect 4:3, PAR 1:1
[07:39:02] scan: decoding previews for title 10 (/media/raccoon/NTFS/Torrents/The New Yankee Workshop/Season 8/NYWS - S08E10 - Garden Shed and Recycling Center (Part 1).avi)
[mp3 @ 0x7f3bb006c580] Header missing
[mp3 @ 0x7f3bb00a3760] Header missing
[07:39:02] scan: audio 0x1: mp3, rate=44100Hz, bitrate=128000 Unknown (MP3) (2.0 ch)
[07:39:03] Warning: Could not read data for preview 6, skipped
[07:39:03] scan: 5 previews, 352x264, 29.970 fps, autocrop = 0/0/0/0, aspect 4:3, PAR 1:1
[07:39:03] scan: decoding previews for title 12 (/media/raccoon/NTFS/Torrents/The New Yankee Workshop/Season 8/NYWS - S08E12 - Nest of Drawers.avi)
[mp3 @ 0x7f3bb067d7e0] Header missing
[mp3 @ 0x7f3bb0378d40] Header missing
[07:39:03] scan: audio 0x1: mp3, rate=44100Hz, bitrate=128000 Unknown (MP3) (2.0 ch)
[07:39:03] Warning: Could not read data for preview 6, skipped
[07:39:03] scan: 5 previews, 352x264, 29.970 fps, autocrop = 0/0/0/0, aspect 4:3, PAR 1:1
[07:39:03] scan: decoding previews for title 13 (/media/raccoon/NTFS/Torrents/The New Yankee Workshop/Season 8/NYWS - S08E13 - Router Table.avi)
[07:39:03] scan: audio 0x1: mp3, rate=48000Hz, bitrate=128000 Unknown (MP3) (2.0 ch)
[07:39:03] scan: 10 previews, 512x384, 25.000 fps, autocrop = 0/0/0/0, aspect 4:3, PAR 1:1
[07:39:03] scan: decoding previews for title 14 (/media/raccoon/NTFS/Torrents/The New Yankee Workshop/Season 8/S08E01.avi)
[mp3 @ 0x7f3bb0167860] Header missing
[mp3 @ 0x7f3bb0167860] Header missing
[07:39:03] scan: audio 0x1: mp3, rate=44100Hz, bitrate=128000 Unknown (MP3) (2.0 ch)
[07:39:04] scan: 10 previews, 352x264, 29.970 fps, autocrop = 0/0/0/0, aspect 4:3, PAR 1:1
[07:39:04] scan: decoding previews for title 15 (/media/raccoon/NTFS/Torrents/The New Yankee Workshop/Season 8/S08E03.avi)
[07:39:04] scan: audio 0x1: mp3, rate=44100Hz, bitrate=128000 Unknown (MP3) (2.0 ch)
[07:39:04] scan: 10 previews, 352x264, 29.970 fps, autocrop = 0/0/0/0, aspect 4:3, PAR 1:1
[07:39:04] scan: decoding previews for title 16 (/media/raccoon/NTFS/Torrents/The New Yankee Workshop/Season 8/S08E04.avi)
[mp3 @ 0x7f3bb00a0a80] Header missing
[mp3 @ 0x7f3bb00a0a80] Header missing
[07:39:04] scan: audio 0x1: mp3, rate=44100Hz, bitrate=128000 Unknown (MP3) (2.0 ch)
[07:39:04] scan: 10 previews, 352x264, 29.970 fps, autocrop = 0/0/0/0, aspect 4:3, PAR 1:1
[07:39:04] scan: decoding previews for title 17 (/media/raccoon/NTFS/Torrents/The New Yankee Workshop/Season 8/S08E05.avi)
[mp3 @ 0x7f3bb00a0660] Header missing
[mp3 @ 0x7f3bb00a0660] Header missing
[07:39:04] scan: audio 0x1: mp3, rate=44100Hz, bitrate=128000 Unknown (MP3) (2.0 ch)
[07:39:04] scan: 10 previews, 352x264, 29.970 fps, autocrop = 0/0/0/0, aspect 4:3, PAR 1:1
[07:39:04] scan: decoding previews for title 18 (/media/raccoon/NTFS/Torrents/The New Yankee Workshop/Season 8/S08E06.avi)
[mp3 @ 0x7f3bb00a0660] Header missing
[mp3 @ 0x7f3bb00a0660] Header missing
[07:39:04] scan: audio 0x1: mp3, rate=44100Hz, bitrate=128000 Unknown (MP3) (2.0 ch)
[07:39:04] scan: 10 previews, 352x264, 29.970 fps, autocrop = 0/0/0/0, aspect 4:3, PAR 1:1
[07:39:04] scan: decoding previews for title 19 (/media/raccoon/NTFS/Torrents/The New Yankee Workshop/Season 8/S08E07.avi)
[mp3 @ 0x7f3bb068cd80] Header missing
[mp3 @ 0x7f3bb068cd80] Header missing
[07:39:05] scan: audio 0x1: mp3, rate=44100Hz, bitrate=128000 Unknown (MP3) (2.0 ch)
[07:39:05] scan: 10 previews, 352x264, 29.970 fps, autocrop = 0/0/0/0, aspect 4:3, PAR 1:1
[07:39:05] scan: decoding previews for title 20 (/media/raccoon/NTFS/Torrents/The New Yankee Workshop/Season 8/S08E08.avi)
[07:39:05] scan: audio 0x1: mp3, rate=48000Hz, bitrate=128000 Unknown (MP3) (2.0 ch)
[07:39:05] scan: 10 previews, 528x400, 25.000 fps, autocrop = 0/0/0/0, aspect 1.32:1, PAR 1:1
[07:39:05] scan: decoding previews for title 21 (/media/raccoon/NTFS/Torrents/The New Yankee Workshop/Season 8/S08E09.avi)
[mp3 @ 0x7f3bb0167a40] Header missing
[mp3 @ 0x7f3bb0167a40] Header missing
[07:39:05] scan: audio 0x1: mp3, rate=44100Hz, bitrate=128000 Unknown (MP3) (2.0 ch)
[07:39:05] scan: 10 previews, 352x264, 29.970 fps, autocrop = 0/0/0/0, aspect 4:3, PAR 1:1
[07:39:05] scan: decoding previews for title 22 (/media/raccoon/NTFS/Torrents/The New Yankee Workshop/Season 8/S08E10.avi)
[mp3 @ 0x7f3bb0377780] Header missing
[mp3 @ 0x7f3bb0377780] Header missing
[07:39:05] scan: audio 0x1: mp3, rate=44100Hz, bitrate=128000 Unknown (MP3) (2.0 ch)
[07:39:06] scan: 10 previews, 352x264, 29.970 fps, autocrop = 0/0/0/0, aspect 4:3, PAR 1:1
[07:39:06] scan: decoding previews for title 23 (/media/raccoon/NTFS/Torrents/The New Yankee Workshop/Season 8/S08E12.avi)
[mp3 @ 0x7f3bb037bf40] Header missing
[mp3 @ 0x7f3bb037bf40] Header missing
[07:39:06] scan: audio 0x1: mp3, rate=44100Hz, bitrate=128000 Unknown (MP3) (2.0 ch)
[07:39:06] scan: 10 previews, 352x264, 29.970 fps, autocrop = 0/0/0/0, aspect 4:3, PAR 1:1
[07:39:06] scan: decoding previews for title 24 (/media/raccoon/NTFS/Torrents/The New Yankee Workshop/Season 8/S08E13.avi)
[07:39:06] scan: audio 0x1: mp3, rate=48000Hz, bitrate=128000 Unknown (MP3) (2.0 ch)
[07:39:06] scan: 10 previews, 512x384, 25.000 fps, autocrop = 0/0/0/0, aspect 4:3, PAR 1:1
[07:39:06] libhb: scan thread found 22 valid title(s)
[07:39:43] gtkgui: Preset: /Matroska/H.264 MKV 1080p30
[07:39:43] 1 job(s) to process
[07:39:43] json job:
{
    "Audio": {
        "AudioList": [
            {
                "Bitrate": 160,
                "CompressionLevel": -1.0,
                "DRC": 0.0,
                "DitherMethod": "auto",
                "Encoder": "av_aac",
                "Gain": 0.0,
                "Mixdown": "stereo",
                "NormalizeMixLevel": false,
                "PresetEncoder": "av_aac",
                "Quality": -3.0,
                "Samplerate": "auto",
                "Track": 0
            }
        ],
        "CopyMask": [
            "copy:aac"
        ],
        "FallbackEncoder": "av_aac"
    },
    "Destination": {
        "ChapterList": [
            {
                "Name": ""
            }
        ],
        "ChapterMarkers": false,
        "Mp4Options": {
            "IpodAtom": false,
            "Mp4Optimize": false
        },
        "Mux": "mkv"
    },
    "Filters": {
        "FilterList": [
            {
                "ID": 3,
                "Settings": {
                    "block-height": "16",
                    "block-thresh": "40",
                    "block-width": "16",
                    "filter-mode": "2",
                    "mode": "3",
                    "motion-thresh": "1",
                    "spatial-metric": "2",
                    "spatial-thresh": "1"
                }
            },
            {
                "ID": 4,
                "Settings": {
                    "mode": "7"
                }
            },
            {
                "ID": 6,
                "Settings": {
                    "mode": 2,
                    "rate": "27000000/900000"
                }
            },
            {
                "ID": 11,
                "Settings": {
                    "crop-bottom": 0,
                    "crop-left": 0,
                    "crop-right": 0,
                    "crop-top": 0,
                    "height": 264,
                    "width": 352
                }
            }
        ]
    },
    "Metadata": {
        "Name": "NYWS - S08E01 - Bedside Cupboard"
    },
    "PAR": {
        "Den": 1,
        "Num": 1
    },
    "SequenceID": 0,
    "Source": {
        "Angle": 0,
        "Path": "/media/raccoon/NTFS/Torrents/The New Yankee Workshop/Season 8/NYWS - S08E01 - Bedside Cupboard.avi",
        "Range": {
            "End": 1,
            "Start": 1,
            "Type": "chapter"
        },
        "Title": 1
    },
    "Subtitle": {
        "Search": {
            "Burn": true,
            "Default": false,
            "Enable": false,
            "Forced": false
        },
        "SubtitleList": []
    },
    "Video": {
        "ColorMatrixCode": 0,
        "Encoder": "x264",
        "Level": "4.0",
        "OpenCL": false,
        "Options": "",
        "Preset": "medium",
        "Profile": "main",
        "QSV": {
            "AsyncDepth": 4,
            "Decode": false
        },
        "Quality": 22.0,
        "Tune": "",
        "Turbo": false,
        "TwoPass": false
    }
}
[07:39:43] CPU: Intel(R) Core(TM) i7-6700K CPU @ 4.00GHz
[07:39:43]  - Intel microarchitecture Skylake
[07:39:43]  - logical processor count: 8
[07:39:43] hb_scan: path=/media/raccoon/NTFS/Torrents/The New Yankee Workshop/Season 8/NYWS - S08E01 - Bedside Cupboard.avi, title_index=1
udfread ERROR: ECMA 167 Volume Recognition failed
disc.c:274: failed opening UDF image /media/raccoon/NTFS/Torrents/The New Yankee Workshop/Season 8/NYWS - S08E01 - Bedside Cupboard.avi
disc.c:352: error opening file BDMV/index.bdmv
disc.c:352: error opening file BDMV/BACKUP/index.bdmv
[07:39:43] bd: not a bd - trying as a stream/file instead
libdvdnav: Using dvdnav version 5.0.1
libdvdread:DVDOpenFileUDF:UDFFindFile /VIDEO_TS/VIDEO_TS.IFO failed
libdvdread:DVDOpenFileUDF:UDFFindFile /VIDEO_TS/VIDEO_TS.BUP failed
libdvdread: Can't open file VIDEO_TS.IFO.
libdvdnav: vm: failed to read VIDEO_TS.IFO
[07:39:43] dvd: not a dvd - trying as a stream/file instead
Input #0, avi, from '/media/raccoon/NTFS/Torrents/The New Yankee Workshop/Season 8/NYWS - S08E01 - Bedside Cupboard.avi':
  Duration: 00:28:15.92, start: 0.000000, bitrate: 775 kb/s
    Stream #0:0: Video: mpeg4 (Advanced Simple Profile) [XVID / 0x44495658]
      yuv420p, 352x264 [PAR 1:1 DAR 4:3]
      29.97 fps, 29.97 tbn
    Stream #0:1: Audio: mp3 [U[0][0][0] / 0x0055]
      44100 Hz, 2 channels, s16p, 128 kb/s
[07:39:43] scan: decoding previews for title 1
[mp3 @ 0x7f3ba4341ec0] Header missing
[mp3 @ 0x7f3ba4342300] Header missing
[07:39:43] scan: audio 0x1: mp3, rate=44100Hz, bitrate=128000 Unknown (MP3) (2.0 ch)
[07:39:43] scan: 10 previews, 352x264, 29.970 fps, autocrop = 0/0/0/0, aspect 4:3, PAR 1:1
[07:39:43] libhb: scan thread found 1 valid title(s)
[07:39:43] starting job
[07:39:43] decomb filter thread started for segment 0
[07:39:43] decomb filter thread started for segment 2
[07:39:43] decomb filter thread started for segment 1
[07:39:43] decomb filter thread started for segment 3
[07:39:43] decomb filter thread started for segment 5
[07:39:43] decomb filter thread started for segment 6
[07:39:43] decomb check thread started for segment 0
[07:39:43] decomb filter thread started for segment 7
[07:39:43] decomb check thread started for segment 5
[07:39:43] decomb check thread started for segment 6
[07:39:43] decomb check thread started for segment 2
[07:39:43] decomb check thread started for segment 3
[07:39:43] decomb check thread started for segment 4
[07:39:43] mask filter thread started for segment 4
[07:39:43] decomb check thread started for segment 1
[07:39:43] mask filter thread started for segment 7
[07:39:43] mask filter thread started for segment 0
[07:39:43] mask erode thread started for segment 2
[07:39:43] mask filter thread started for segment 2
[07:39:43] mask filter thread started for segment 3
[07:39:43] decomb filter thread started for segment 4
[07:39:43] mask filter thread started for segment 5
[07:39:43] mask filter thread started for segment 6
[07:39:43] decomb check thread started for segment 7
[07:39:43] mask dilate thread started for segment 1
[07:39:43] mask erode thread started for segment 0
[07:39:43] mask dilate thread started for segment 3
[07:39:43] mask erode thread started for segment 3
[07:39:43] mask dilate thread started for segment 5
[07:39:43] mask erode thread started for segment 5
[07:39:43] mask dilate thread started for segment 6
[07:39:43] mask erode thread started for segment 7
[07:39:43] mask dilate thread started for segment 0
[07:39:43] mask erode thread started for segment 1
[07:39:43] yadif thread started for segment 3
[07:39:43] mask filter thread started for segment 1
[07:39:43] mask dilate thread started for segment 4
[07:39:43] mask erode thread started for segment 4
[07:39:43] mask dilate thread started for segment 7
[07:39:43] mask erode thread started for segment 6
[07:39:43] yadif thread started for segment 0
[07:39:43] job configuration:
[07:39:43]  * source
[07:39:43]    + /media/raccoon/NTFS/Torrents/The New Yankee Workshop/Season 8/NYWS - S08E01 - Bedside Cupboard.avi
[07:39:43] yadif thread started for segment 1
[07:39:43] yadif thread started for segment 2
[07:39:43] mask dilate thread started for segment 2
[07:39:43] yadif thread started for segment 4
[07:39:43] yadif thread started for segment 5
[07:39:43] yadif thread started for segment 6
[07:39:43] yadif thread started for segment 7
[07:39:43]    + title 1, chapter(s) 1 to 1
[07:39:43]    + container: avi
[07:39:43]    + data rate: 775 kbps
[07:39:43]  * destination
[07:39:43]    + (null)
[07:39:43]    + container: Matroska (libavformat)
[07:39:43]  * video track
[07:39:43]    + decoder: mpeg4
[07:39:43]    + filters
[07:39:43]      + Comb Detect (mode=3:spatial-metric=2:motion-thresh=1:spatial-thresh=1:filter-mode=2:block-thresh=40:block-width=16:block-height=16)
[07:39:43]      + Decomb (mode=39)
[07:39:43]      + Framerate Shaper (mode=2:rate=27000000/900000)
[07:39:43]        + frame rate: 29.970 fps -> peak rate limited to 30.000 fps
[07:39:43]      + Crop and Scale (width=352:height=264:crop-top=0:crop-bottom=0:crop-left=0:crop-right=0)
[07:39:43]        + source: 352 * 264, crop (0/0/0/0): 352 * 264, scale: 352 * 264
[07:39:43]    + Output geometry
[07:39:43]      + storage dimensions: 352 x 264
[07:39:43]      + pixel aspect ratio: 1 : 1
[07:39:43]      + display dimensions: 352 x 264
[07:39:43]    + encoder: H.264 (libx264)
[07:39:43]      + preset:  medium
[07:39:43]      + profile: main
[07:39:43]      + level:   4.0
[07:39:43]      + quality: 22.00 (RF)
[07:39:43]  * audio track 1
[07:39:43]    + decoder: Unknown (MP3) (2.0 ch) (track 1, id 0x1)
[07:39:43]      + bitrate: 128 kbps, samplerate: 44100 Hz
[07:39:43]    + mixdown: Stereo
[07:39:43]    + encoder: AAC (libavcodec)
[07:39:43]      + bitrate: 160 kbps, samplerate: 44100 Hz
[07:39:43] sync: expecting 50827 video frames
[07:39:43] encx264: min-keyint: 30, keyint: 300
[07:39:43] encx264: encoding at constant RF 22.000000
[07:39:43] encx264: unparsed options: level=4.0:8x8dct=0:vbv-bufsize=25000:vbv-maxrate=20000
x264 [info]: using SAR=1/1
x264 [info]: using cpu capabilities: MMX2 SSE2Fast SSSE3 SSE4.2 AVX FMA3 AVX2 LZCNT BMI2
The error report will not let me copy the details, hopefully you have access to those.

Raccoon Strait

User avatar
JohnAStebbins
HandBrake Team
Posts: 5467
Joined: Sat Feb 09, 2008 7:21 pm

Re: No Multiple Queue and Return to Current Folder

Post by JohnAStebbins » Tue Sep 19, 2017 5:35 pm

Hmm...

Code: Select all

[07:39:43]  * destination
[07:39:43]    + (null)
[07:39:43]    + container: Matroska (libavformat)
For some reason, it's not filling in the destination filename when you use Add Multiple. I'll try to reproduce with the release code, but I'm not seeing the problem with current git.

Raccoon Strait
Posts: 9
Joined: Mon Sep 18, 2017 3:17 pm

Re: No Multiple Queue and Return to Current Folder

Post by Raccoon Strait » Tue Sep 19, 2017 6:30 pm

It works with individual items. This has been an issue for a while (certainly for all of v 1.04), I just got around to posting about it now.

Would you suggest that I try nightly builds, or might that complicate issues?

User avatar
JohnAStebbins
HandBrake Team
Posts: 5467
Joined: Sat Feb 09, 2008 7:21 pm

Re: No Multiple Queue and Return to Current Folder

Post by JohnAStebbins » Tue Sep 19, 2017 6:36 pm

I don't receive the crash reports. Those just go into the Ubuntu black hole. No idea what they do with them.

I looked through the code and I don't see how this is happening. Every title gets a destination assigned when initial scan of each file completes. The Add Multiple dialog should not affect this setting unless you modify one of the entries in the dialog. And even then, it shouldn't remove the setting.

Can you try a couple of things for me? It'll help me determine where in the code this is happening.

First, scan the folder, but don't use Add Multiple. The title dropdown should be populated with every file in the folder. Select the first few titles one at a time and add them each to the queue. Try starting the queue and see if this crashes. A crash here will tell me something is broken when scanning a folder.

If the above didn't crash, scan the folder again and this time select Add Multiple. But do *not* select "OK" on the dialog. Select "Cancel" and again select the first few titles one at a time and add them to the queue. Try starting the queue and see if it crashes. A crash here will tell me that populating the Add Multiple dialog is corrupting something.

If neither of the above causes a crash, then it tells me that something is being corrupted when the jobs are copied into the queue.

Raccoon Strait
Posts: 9
Joined: Mon Sep 18, 2017 3:17 pm

Re: No Multiple Queue and Return to Current Folder

Post by Raccoon Strait » Tue Sep 19, 2017 6:49 pm

I tried both methods. Both worked, for the three files I selected. That workaround is better than the single selection I have been using. I hope you find the issue. If you need anything else, please let me know.

Raccoon Strait

User avatar
JohnAStebbins
HandBrake Team
Posts: 5467
Joined: Sat Feb 09, 2008 7:21 pm

Re: No Multiple Queue and Return to Current Folder

Post by JohnAStebbins » Tue Sep 19, 2017 8:32 pm

I'm stumped. I just don't see any hole that would allow this to happen. So, yes, please give a nightly build a try.

Raccoon Strait
Posts: 9
Joined: Mon Sep 18, 2017 3:17 pm

Re: No Multiple Queue and Return to Current Folder

Post by Raccoon Strait » Tue Sep 19, 2017 9:04 pm

OK, I added the PPA for the nightly builds, and updated and upgraded, and then verified that the Nightly Build was installed. I then tried an Add Multiple, and Handbrake crashed, though no error message for Ubuntu this time.

I am thinking now that it is something with my system, though it is a pretty straight forward XFCE Xubuntu installation. The same as I have used for many years, though I do update to the latest Ubuntu when it comes along. I do full system updates 5 days a week (via a script I wrote), so I know my system has the latest and greatest, including the latest Linux headers etc.

Thanks for trying.

Raccoon Strait

User avatar
JohnAStebbins
HandBrake Team
Posts: 5467
Joined: Sat Feb 09, 2008 7:21 pm

Re: No Multiple Queue and Return to Current Folder

Post by JohnAStebbins » Tue Sep 19, 2017 10:24 pm

One last thing I can think of that you might try. First, make a backup of the config files in ~/.config/ghb. Then delete that directory and let HandBrake install a fresh set of config files. Maybe something in one of those files is causing a problem.

If *that* fixes the problem, can you please supply me with the problematic files. They might allow me to reproduce the problem if they are the root cause.

Raccoon Strait
Posts: 9
Joined: Mon Sep 18, 2017 3:17 pm

Re: No Multiple Queue and Return to Current Folder

Post by Raccoon Strait » Tue Sep 19, 2017 11:57 pm

Now that worked. What is the best way to send you the files. I have them zipped up.

Raccoon Strait

User avatar
JohnAStebbins
HandBrake Team
Posts: 5467
Joined: Sat Feb 09, 2008 7:21 pm

Re: No Multiple Queue and Return to Current Folder

Post by JohnAStebbins » Wed Sep 20, 2017 11:05 pm

I've created a github issue for the problem here
https://github.com/HandBrake/HandBrake/issues/910

You can attach files if you add a comment in the issue report.

Raccoon Strait
Posts: 9
Joined: Mon Sep 18, 2017 3:17 pm

Re: No Multiple Queue and Return to Current Folder

Post by Raccoon Strait » Thu Sep 21, 2017 5:05 pm

Done.

Thank you again for your time and effort.

Raccoon Strait

Raccoon Strait
Posts: 9
Joined: Mon Sep 18, 2017 3:17 pm

Re: No Multiple Queue and Return to Current Folder

Post by Raccoon Strait » Thu Sep 21, 2017 5:06 pm

Done.

Thank you again for your time and effort.

Raccoon Strait

Raccoon Strait
Posts: 9
Joined: Mon Sep 18, 2017 3:17 pm

Re: No Multiple Queue and Return to Current Folder

Post by Raccoon Strait » Tue Oct 24, 2017 12:37 am

Interestingly, I recently upgraded my Linux distro to 17.10 and both of these issues have been resolved.

Thanks everyone for your efforts.

Raccoon Strait

User avatar
JohnAStebbins
HandBrake Team
Posts: 5467
Joined: Sat Feb 09, 2008 7:21 pm

Re: No Multiple Queue and Return to Current Folder

Post by JohnAStebbins » Tue Oct 24, 2017 4:09 pm

I blame Mir/Unity :mrgreen:

Ubuntu 17.10 switched from their home grown window manager and compositor to Wayland/Gnome-Shell. I'm betting it was the source of a lot of problems.

Post Reply