HB forces the audio track name when it is null on the source

Archive of historical bug reports.
Please use the GitHub link above to report issues.
Forum rules
*******************************
Please be aware we are now using GitHub for issue tracking and feature requests.
- This section of the forum is now closed to new topics.

*******************************
Post Reply
HBGT
Posts: 22
Joined: Tue Mar 21, 2017 11:51 am

HB forces the audio track name when it is null on the source

Post by HBGT » Thu Apr 13, 2017 6:57 am


Scenario:

1 - take a video with audio track name null (all blank)
2 - convert with 'auto passthru' for all audio tracks
3 - analyze the target video converted: the audio track name is been forced with stereo or surround, ecc..

HB :1.03 64bit (downloaded from ]handbrake.fr)
OS:Windows 10 64bit

mduell
Veteran User
Posts: 6589
Joined: Sat Apr 21, 2007 8:54 pm

Re: HB forces the audio track name when it is null on the source

Post by mduell » Thu Apr 13, 2017 9:17 pm

Forum rules
READ ME before posting bugs

HBGT
Posts: 22
Joined: Tue Mar 21, 2017 11:51 am

Re: HB forces the audio track name when it is null on the source

Post by HBGT » Mon Apr 17, 2017 6:28 am

I installed the latest version (1.07 64bit), but the problem is not resolved.
I searched for a post with the same problem, but I found nothing (maybe I looked in the wrong place?)
Thank you

Woodstock
Veteran User
Posts: 3154
Joined: Tue Aug 27, 2013 6:39 am

Re: HB forces the audio track name when it is null on the source

Post by Woodstock » Mon Apr 17, 2017 1:51 pm

And yet, with all the work of updating and then running another encode, you neglected to provide the required activity log to show what settings you used and what handbrake saw when it read your file in...

HBGT
Posts: 22
Joined: Tue Mar 21, 2017 11:51 am

Re: HB forces the audio track name when it is null on the source

Post by HBGT » Mon Apr 17, 2017 2:53 pm

This is the information (the same thing happens with all my video)

MediaInfo Source Video
'Title' Audio Track #1 and #2 : it does not printed because its value is null

Code: Select all

General
Unique ID                                : 221759396813610238422107471985009635669 (0xA6D54E682FB80CF0B9C35CC5C3663155)
Complete name                            : E:\Film\HD\Ritorno al Futuro II\Ritorno al Futuro II.mkv
Format                                   : Matroska
Format version                           : Version 2
File size                                : 23.9 GiB
Duration                                 : 1 h 47 min
Overall bit rate                         : 31.7 Mb/s
Movie name                               : BACK_TO_THE_FUTURE_PART_II
Encoded date                             : UTC 2017-03-15 11:05:41
Writing application                      : DVDFab 9.1.7.1
Writing library                          : libebml v0.7.8 + libmatroska v0.8.1

Video
ID                                       : 1
Format                                   : VC-1
Format profile                           : Advanced@L3
Codec ID                                 : V_MS/VFW/FOURCC / WVC1
Codec ID/Hint                            : Microsoft
Duration                                 : 1 h 47 min
Width                                    : 1 920 pixels
Height                                   : 1 080 pixels
Display aspect ratio                     : 16:9
Frame rate mode                          : Constant
Frame rate                               : 23.976 (24000/1001) FPS
Color space                              : YUV
Chroma subsampling                       : 4:2:0
Bit depth                                : 8 bits
Scan type                                : Progressive
Compression mode                         : Lossy
Default                                  : Yes
Forced                                   : No

Audio #1
ID                                       : 2
Format                                   : DTS
Format/Info                              : Digital Theater Systems
Format profile                           : MA / Core
Mode                                     : 16
Format settings, Endianness              : Big
Codec ID                                 : A_DTS
Duration                                 : 1 h 47 min
Bit rate mode                            : Variable / Constant
Bit rate                                 : Unknown / 1 509 kb/s
Channel(s)                               : 6 channels
Channel positions                        : Front: L C R, Side: L R, LFE
Sampling rate                            : 48.0 kHz
Frame rate                               : 93.750 FPS (512 spf)
Bit depth                                : 24 bits
Compression mode                         : Lossless / Lossy
Language                                 : English
Default                                  : Yes
Forced                                   : No

Audio #2
ID                                       : 3
Format                                   : DTS
Format/Info                              : Digital Theater Systems
Mode                                     : 16
Format settings, Endianness              : Big
Codec ID                                 : A_DTS
Duration                                 : 1 h 47 min
Bit rate mode                            : Constant
Bit rate                                 : 768 kb/s
Channel(s)                               : 6 channels
Channel positions                        : Front: L C R, Side: L R, LFE
Sampling rate                            : 48.0 kHz
Frame rate                               : 93.750 FPS (512 spf)
Bit depth                                : 24 bits
Compression mode                         : Lossy
Stream size                              : 593 MiB (2%)
Language                                 : Italian
Default                                  : No
Forced                                   : No

Menu
00:00:00.000                             : en:(01)00:00:00:000
00:02:57.510                             : en:(02)00:02:57:510
00:04:17.632                             : en:(03)00:04:17:632
00:12:44.388                             : en:(04)00:12:44:388
00:17:09.111                             : en:(05)00:17:09:111
00:21:16.525                             : en:(06)00:21:16:525
00:26:59.659                             : en:(07)00:26:59:659
00:34:15.428                             : en:(08)00:34:15:428
00:38:32.476                             : en:(09)00:38:32:476
00:46:13.061                             : en:(10)00:46:13:061
00:50:35.449                             : en:(11)00:50:35:449
00:55:32.620                             : en:(12)00:55:32:620
01:01:30.144                             : en:(13)01:01:30:144
01:07:14.196                             : en:(14)01:07:14:196
01:14:45.939                             : en:(15)01:14:45:939
01:28:00.608                             : en:(16)01:28:00:608
01:34:43.302                             : en:(17)01:34:43:302
01:37:46.026                             : en:(18)01:37:46:026
01:40:37.239                             : en:(19)01:40:37:239
01:43:25.490                             : en:(20)01:43:25:490
01:47:59.055                             : en:(21)01:47:59:055
HandBrake Log
Audio Track name #1 and #2 not specified (Auto Passthru option used)

Code: Select all

HandBrake 1.0.3 (2017022500) - 64bit
OS: Microsoft Windows NT 10.0.14393.0 - 64bit
CPU: Intel(R) Core(TM) i3-3225 CPU @ 3.30GHz
Ram: 7890 MB, 
GPU Information:
  Intel(R) HD Graphics 4000 - 10.18.10.4425
Screen: 1280x800
Temp Dir: C:\Users\Gualtiero\AppData\Local\Temp\
Install Dir: C:\Program Files\HandBrake
Data Dir: C:\Users\Gualtiero\AppData\Roaming\HandBrake Team\HandBrake\1.0.3.0

-------------------------------------------


# Starting Encode ...

[19:32:25] thread 19e73582390 exited ("libhb")
[19:32:25] thread 19e73582390 joined ("libhb")
[19:32:25] hb_init: starting libhb thread
[19:32:25] thread 19e6bfb1730 started ("libhb")
[19:32:26] thread 19e73400c30 started ("work")
[19:32:26] 1 job(s) to process
[19:32:26] json job:
{
  "Audio": {
    "AudioList": [
      {
        "DRC": 0.0,
        "Encoder": 1125984256,
        "Gain": 0.0,
        "Mixdown": -1,
        "NormalizeMixLevel": false,
        "Samplerate": 48000,
        "Track": 0,
        "DitherMethod": 0
      },
      {
        "DRC": 0.0,
        "Encoder": 1125984256,
        "Gain": 0.0,
        "Mixdown": -1,
        "NormalizeMixLevel": false,
        "Samplerate": 48000,
        "Track": 1,
        "DitherMethod": 0
      }
    ],
    "CopyMask": [
      1073807360,
      1073743872,
      1074003968,
      1073750016,
      1090519040,
      1074790400,
      1074266112,
      1107296256
    ],
    "FallbackEncoder": 2048
  },
  "Destination": {
    "ChapterList": [
      {
        "Name": "(01)00:00:00:000"
      },
      {
        "Name": "(02)00:02:57:510"
      },
      {
        "Name": "(03)00:04:17:632"
      },
      {
        "Name": "(04)00:12:44:388"
      },
      {
        "Name": "(05)00:17:09:111"
      },
      {
        "Name": "(06)00:21:16:525"
      },
      {
        "Name": "(07)00:26:59:659"
      },
      {
        "Name": "(08)00:34:15:428"
      },
      {
        "Name": "(09)00:38:32:476"
      },
      {
        "Name": "(10)00:46:13:061"
      },
      {
        "Name": "(11)00:50:35:449"
      },
      {
        "Name": "(12)00:55:32:620"
      },
      {
        "Name": "(13)01:01:30:144"
      },
      {
        "Name": "(14)01:07:14:196"
      },
      {
        "Name": "(15)01:14:45:939"
      },
      {
        "Name": "(16)01:28:00:608"
      },
      {
        "Name": "(17)01:34:43:302"
      },
      {
        "Name": "(18)01:37:46:026"
      },
      {
        "Name": "(19)01:40:37:239"
      },
      {
        "Name": "(20)01:43:25:490"
      },
      {
        "Name": "(21)01:47:59:055"
      }
    ],
    "ChapterMarkers": true,
    "File": "E:\\Film\\HD\\Ritorno al Futuro II\\Ritorno al Futuro II.new.mkv",
    "Mp4Options": {
      "IpodAtom": false,
      "Mp4Optimize": false
    },
    "Mux": 2097152
  },
  "Filters": {
    "FilterList": [
      {
        "ID": 11,
        "Settings": {
          "crop-bottom": "24",
          "crop-left": "0",
          "crop-right": "0",
          "crop-top": "24",
          "height": "1032",
          "width": "1920"
        }
      },
      {
        "ID": 6,
        "Settings": {
          "mode": "0"
        }
      }
    ]
  },
  "PAR": {
    "Num": 1,
    "Den": 1
  },
  "Metadata": {},
  "SequenceID": 0,
  "Source": {
    "Angle": 1,
    "Range": {
      "Type": "chapter",
      "Start": 1,
      "End": 21
    },
    "Title": 1,
    "Path": "E:\\Film\\HD\\Ritorno al Futuro II\\Ritorno al Futuro II.mkv"
  },
  "Subtitle": {
    "Search": {
      "Burn": false,
      "Default": false,
      "Enable": false,
      "Forced": false
    },
    "SubtitleList": []
  },
  "Video": {
    "Encoder": 65536,
    "TwoPass": false,
    "Turbo": false,
    "ColorMatrixCode": 0,
    "Options": "level=4.1:rc-lookahead=60:ref=4:bframes=16:b-adapt=2:direct=auto:b-pyramid=strict:me=umh:subme=10:merange=48:analyse=all:trellis=2",
    "Quality": 16.0,
    "OpenCL": false,
    "HWDecode": false,
    "QSV": {
      "Decode": false,
      "AsyncDepth": 0
    }
  }
}
[19:32:26] CPU: Intel(R) Core(TM) i3-3225 CPU @ 3.30GHz
[19:32:26]  - Intel microarchitecture Ivy Bridge
[19:32:26]  - logical processor count: 4
[19:32:26] Intel Quick Sync Video support: yes
[19:32:26]  - Intel Media SDK hardware: API 1.11 (minimum: 1.3)
[19:32:26]  - H.264 encoder: yes
[19:32:26]     - preferred implementation: hardware (any)
[19:32:26]     - capabilities (hardware):  vsinfo opt1 opt2+extbrc+ib_adapt+nmpslice
[19:32:26]  - H.265 encoder: no
[19:32:26] hb_scan: path=E:\Film\HD\Ritorno al Futuro II\Ritorno al Futuro II.mkv, title_index=1
[19:32:26] thread 19e723ef5e0 started ("scan")
udfread ERROR: ECMA 167 Volume Recognition failed
src/libbluray/disc/disc.c:274: failed opening UDF image E:\Film\HD\Ritorno al Futuro II\Ritorno al Futuro II.mkv
src/libbluray/disc/disc.c:352: error opening file BDMV\index.bdmv
src/libbluray/disc/disc.c:352: error opening file BDMV\BACKUP\index.bdmv
[19:32:26] bd: not a bd - trying as a stream/file instead
libdvdnav: Using dvdnav version 5.0.1
libdvdread: Encrypted DVD support unavailable.
libdvdread:DVDOpenFileUDF:UDFFindFile /VIDEO_TS/VIDEO_TS.IFO failed
libdvdread:DVDOpenFileUDF:UDFFindFile /VIDEO_TS/VIDEO_TS.BUP failed
libdvdread: Can't open file VIDEO_TS.IFO.
libdvdnav: vm: failed to read VIDEO_TS.IFO
[19:32:27] dvd: not a dvd - trying as a stream/file instead
Input #0, matroska,webm, from 'E:\Film\HD\Ritorno al Futuro II\Ritorno al Futuro II.mkv':
  Metadata:
    title           : BACK_TO_THE_FUTURE_PART_II
  Duration: 01:47:58.76, start: 0.000000, bitrate: N/A
    Chapter #0:0: start 0.000000, end 177.510000
    Metadata:
      title           : (01)00:00:00:000
    Chapter #0:1: start 177.510000, end 257.632000
    Metadata:
      title           : (02)00:02:57:510
    Chapter #0:2: start 257.632000, end 764.388000
    Metadata:
      title           : (03)00:04:17:632
    Chapter #0:3: start 764.388000, end 1029.111000
    Metadata:
      title           : (04)00:12:44:388
    Chapter #0:4: start 1029.111000, end 1276.525000
    Metadata:
      title           : (05)00:17:09:111
    Chapter #0:5: start 1276.525000, end 1619.659000
    Metadata:
      title           : (06)00:21:16:525
    Chapter #0:6: start 1619.659000, end 2055.428000
    Metadata:
      title           : (07)00:26:59:659
    Chapter #0:7: start 2055.428000, end 2312.476000
    Metadata:
      title           : (08)00:34:15:428
    Chapter #0:8: start 2312.476000, end 2773.061000
    Metadata:
      title           : (09)00:38:32:476
    Chapter #0:9: start 2773.061000, end 3035.449000
    Metadata:
      title           : (10)00:46:13:061
    Chapter #0:10: start 3035.449000, end 3332.620000
    Metadata:
      title           : (11)00:50:35:449
    Chapter #0:11: start 3332.620000, end 3690.144000
    Metadata:
      title           : (12)00:55:32:620
    Chapter #0:12: start 3690.144000, end 4034.196000
    Metadata:
      title           : (13)01:01:30:144
    Chapter #0:13: start 4034.196000, end 4485.939000
    Metadata:
      title           : (14)01:07:14:196
    Chapter #0:14: start 4485.939000, end 5280.608000
    Metadata:
      title           : (15)01:14:45:939
    Chapter #0:15: start 5280.608000, end 5683.302000
    Metadata:
      title           : (16)01:28:00:608
    Chapter #0:16: start 5683.302000, end 5866.026000
    Metadata:
      title           : (17)01:34:43:302
    Chapter #0:17: start 5866.026000, end 6037.239000
    Metadata:
      title           : (18)01:37:46:026
    Chapter #0:18: start 6037.239000, end 6205.490000
    Metadata:
      title           : (19)01:40:37:239
    Chapter #0:19: start 6205.490000, end 6478.763895
    Metadata:
      title           : (20)01:43:25:490
    Chapter #0:20: start 6479.055000, end 6478.763895
    Metadata:
      title           : (21)01:47:59:055
    Stream #0:0: Video: vc1 (Advanced) [WVC1 / 0x31435657]
      yuv420p, 1920x1080 [PAR 1:1 DAR 16:9], PAR 1:1 DAR 16:9
      23.98 fps, 48003.07 tbn (default)
    Stream #0:1(eng): Audio: dts (DTS-HD MA)
      48000 Hz, 5.1, fltp, 1536 kb/s (default)
    Stream #0:2(ita): Audio: dts (DTS)
      48000 Hz, 5.1, fltp, 768 kb/s
[19:32:27] Found ffmpeg 21 chapters, container=matroska,webm
[19:32:27] Added chapter 1, name='(01)00:00:00:000', dur=15975900, (00:02:58)
[19:32:27] Added chapter 2, name='(02)00:02:57:510', dur=7210980, (00:01:20)
[19:32:27] Added chapter 3, name='(03)00:04:17:632', dur=45608040, (00:08:27)
[19:32:27] Added chapter 4, name='(04)00:12:44:388', dur=23825070, (00:04:25)
[19:32:27] Added chapter 5, name='(05)00:17:09:111', dur=22267260, (00:04:07)
[19:32:27] Added chapter 6, name='(06)00:21:16:525', dur=30882060, (00:05:43)
[19:32:27] Added chapter 7, name='(07)00:26:59:659', dur=39219210, (00:07:16)
[19:32:27] Added chapter 8, name='(08)00:34:15:428', dur=23134320, (00:04:17)
[19:32:27] Added chapter 9, name='(09)00:38:32:476', dur=41452650, (00:07:41)
[19:32:27] Added chapter 10, name='(10)00:46:13:061', dur=23614920, (00:04:22)
[19:32:27] Added chapter 11, name='(11)00:50:35:449', dur=26745390, (00:04:57)
[19:32:27] Added chapter 12, name='(12)00:55:32:620', dur=32177160, (00:05:58)
[19:32:27] Added chapter 13, name='(13)01:01:30:144', dur=30964680, (00:05:44)
[19:32:27] Added chapter 14, name='(14)01:07:14:196', dur=40656870, (00:07:32)
[19:32:27] Added chapter 15, name='(15)01:14:45:939', dur=71520210, (00:13:15)
[19:32:27] Added chapter 16, name='(16)01:28:00:608', dur=36242460, (00:06:43)
[19:32:27] Added chapter 17, name='(17)01:34:43:302', dur=16445160, (00:03:03)
[19:32:27] Added chapter 18, name='(18)01:37:46:026', dur=15409170, (00:02:51)
[19:32:27] Added chapter 19, name='(19)01:40:37:239', dur=15142590, (00:02:48)
[19:32:27] Added chapter 20, name='(20)01:43:25:490', dur=24594650, (00:04:33)
[19:32:27] Added chapter 21, name='(21)01:47:59:055', dur=0, (00:00:00)
[19:32:27] scan: decoding previews for title 1
[19:32:27] scan: preview 1
[19:32:27] fifo_close: trashing 0 buffer(s)
[19:32:27] scan: audio 0x1: dca, rate=48000Hz, bitrate=1536000 English (DTS-HD MA) (5.1 ch)
[19:32:27] fifo_close: trashing 0 buffer(s)
[19:32:27] scan: audio 0x2: dca, rate=48000Hz, bitrate=768000 italiano (DTS) (5.1 ch)
[19:32:27] scan: preview 2
[19:32:27] scan: preview 3
[19:32:27] scan: preview 4
[19:32:27] scan: preview 5
[19:32:28] scan: preview 6
[19:32:28] scan: preview 7
[19:32:28] scan: preview 8
[19:32:28] scan: preview 9
[19:32:28] scan: preview 10
[19:32:28] scan: 10 previews, 1920x1080, 23.976 fps, autocrop = 20/20/0/0, aspect 16:9, PAR 1:1
[19:32:28] Freed 1 buffers of size 1024
[19:32:28] Freed 1 buffers of size 2048
[19:32:28] Freed 1 buffers of size 4096
[19:32:28] Freed 1 buffers of size 8192
[19:32:28] Freed 1 buffers of size 16384
[19:32:28] Freed 1 buffers of size 65536
[19:32:28] Freed 1 buffers of size 131072
[19:32:28] Freed 1 buffers of size 262144
[19:32:28] Freed 1 buffers of size 524288
[19:32:28] Freed 1 buffers of size 4194304
[19:32:28] Allocated 5209088 bytes of buffers on this pass and Freed 5209088 bytes, 0 bytes leaked
[19:32:28] thread 19e723ef5e0 exited ("scan")
[19:32:28] thread 19e723ef5e0 joined ("scan")
[19:32:28] libhb: scan thread found 1 valid title(s)
[19:32:28] starting job
[19:32:28] Auto Passthru: allowed codecs are AAC, AC3, E-AC3, TrueHD, DTS, DTS-HD, MP3, FLAC
[19:32:28] Auto Passthru: fallback is AC3
[19:32:28] Auto Passthru: using DTS-HD Passthru for track 1
[19:32:28] Auto Passthru: using DTS Passthru for track 2
[19:32:28] job configuration:
[19:32:28]  * source
[19:32:28]    + E:\Film\HD\Ritorno al Futuro II\Ritorno al Futuro II.mkv
[19:32:28]    + title 1, chapter(s) 1 to 21
[19:32:28]    + container: matroska,webm
[19:32:28]  * destination
[19:32:28]    + E:\Film\HD\Ritorno al Futuro II\Ritorno al Futuro II.new.mkv
[19:32:28]    + container: Matroska (libavformat)
[19:32:28]      + chapter markers
[19:32:28]  * video track
[19:32:28]    + decoder: vc1
[19:32:28]    + filters
[19:32:28]      + Framerate Shaper (mode=0)
[19:32:28]        + frame rate: same as source (around 23.976 fps)
[19:32:28]      + Crop and Scale (width=1920:height=1032:crop-top=24:crop-bottom=24:crop-left=0:crop-right=0)
[19:32:28]        + source: 1920 * 1080, crop (24/24/0/0): 1920 * 1032, scale: 1920 * 1032
[19:32:28]    + Output geometry
[19:32:28]      + storage dimensions: 1920 x 1032
[19:32:28]      + pixel aspect ratio: 1 : 1
[19:32:28]      + display dimensions: 1920 x 1032
[19:32:28]    + encoder: H.264 (libx264)
[19:32:28]      + options: level=4.1:rc-lookahead=60:ref=4:bframes=16:b-adapt=2:direct=auto:b-pyramid=strict:me=umh:subme=10:merange=48:analyse=all:trellis=2
[19:32:28]      + quality: 16.00 (RF)
[19:32:28]  * audio track 1
[19:32:28]    + decoder: English (DTS-HD MA) (5.1 ch) (track 1, id 0x1)
[19:32:28]      + bitrate: 1536 kbps, samplerate: 48000 Hz
[19:32:28]    + DTS-HD Passthru
[19:32:28]  * audio track 2
[19:32:28]    + decoder: italiano (DTS) (5.1 ch) (track 2, id 0x2)
[19:32:28]      + bitrate: 768 kbps, samplerate: 48000 Hz
[19:32:28]    + DTS Passthru
[19:32:28] sync: expecting 155334 video frames
[19:32:28] thread 19e823d7230 started ("Audio Synchronization")
[19:32:28] thread 19e6bc89e20 started ("Audio Synchronization")
[19:32:28] encx264: min-keyint: 24, keyint: 240
[19:32:28] encx264: encoding at constant RF 16.000000
[19:32:28] encx264: unparsed options: level=4.1:merange=48:b-adapt=2:rc-lookahead=60:ref=4:b-pyramid=strict:trellis=2:bframes=16:direct=auto:me=umh:subme=10:analyse=all
[19:32:28] encx264: opening libx264 (pass 0)
x264 [info]: using SAR=1/1
x264 [info]: using cpu capabilities: MMX2 SSE2Fast SSSE3 SSE4.2 AVX
x264 [info]: profile High, level 4.1
[19:32:28] Writing Metadata to output file...
[19:32:28] thread 19e723ef7a0 started ("Muxer")
[19:32:28] thread 19e723ef420 started ("Muxer")
[19:32:28] thread 19e723ef960 started ("Reader")
[19:32:28] thread 19e723ef260 started ("Audio decoder (libavcodec)")
[19:32:28] thread 19e723eeee0 started ("Audio decoder (libavcodec)")
[19:32:28] thread 19e61af2780 started ("Video decoder (libavcodec)")
[19:32:28] thread 19e72dafdd0 started ("Video Synchronization")
[19:32:28] ffmpeg_read starting chapter 1 at 0
[19:32:28] thread 19e7240cd80 started ("H.264/AVC encoder (libx264)")
[19:32:28] thread 19e727d9dd0 started ("Muxer")
[19:32:28] thread 19e72e34d30 started ("Framerate Shaper")
[19:32:28] thread 19e723eed20 started ("Crop and Scale")
[19:32:28] sync: first pts video is 0
[19:32:28] sync: "(01)00:00:00:000" (1) at frame 1 time 0
[19:32:28] sync: first pts audio 0x1 is 0
[19:32:28] sync: first pts audio 0x2 is 0
[20:05:16] ffmpeg_read starting chapter 2 at 15975959
[20:05:42] sync: "(02)00:02:57:510" (2) at frame 4257 time 15975961
[20:20:28] ffmpeg_read starting chapter 3 at 23186912
[20:20:51] sync: "(03)00:04:17:632" (3) at frame 6178 time 23186914
[22:01:54] ffmpeg_read starting chapter 4 at 68794975
[22:02:22] sync: "(04)00:12:44:388" (4) at frame 18328 time 68794976
[22:54:36] ffmpeg_read starting chapter 5 at 92620026
[22:55:04] sync: "(05)00:17:09:111" (5) at frame 24675 time 92620027
[23:51:20] ffmpeg_read starting chapter 6 at 114887271
[23:52:06] sync: "(06)00:21:16:525" (6) at frame 30607 time 114887271
[01:05:05] ffmpeg_read starting chapter 7 at 145769372
[01:05:31] sync: "(07)00:26:59:659" (7) at frame 38834 time 145769372
[02:30:52] ffmpeg_read starting chapter 8 at 184988552
[02:31:21] sync: "(08)00:34:15:428" (8) at frame 49282 time 184988552
[03:21:30] ffmpeg_read starting chapter 9 at 208122912
[03:21:57] sync: "(09)00:38:32:476" (9) at frame 55445 time 208122913
[04:41:10] ffmpeg_read starting chapter 10 at 249575573
[04:41:38] sync: "(10)00:46:13:061" (10) at frame 66488 time 249575573
[05:26:14] ffmpeg_read starting chapter 11 at 273190414
[05:26:41] sync: "(11)00:50:35:449" (11) at frame 72779 time 273190416
[06:20:10] ffmpeg_read starting chapter 12 at 299935883
[06:20:34] sync: "(12)00:55:32:620" (12) at frame 79904 time 299935885
[07:32:11] ffmpeg_read starting chapter 13 at 332113027
[07:32:30] sync: "(13)01:01:30:144" (13) at frame 88476 time 332113029
[08:45:28] ffmpeg_read starting chapter 14 at 363077711
[08:46:01] sync: "(14)01:07:14:196" (14) at frame 96725 time 363077712
[10:00:40] ffmpeg_read starting chapter 15 at 403734578
[10:00:57] sync: "(15)01:14:45:939" (15) at frame 107556 time 403734577
[12:15:30] ffmpeg_read starting chapter 16 at 475254776
[12:15:47] sync: "(16)01:28:00:608" (16) at frame 126609 time 475254775
[13:31:03] ffmpeg_read starting chapter 17 at 511497232
[13:31:32] sync: "(17)01:34:43:302" (17) at frame 136264 time 511497233
[14:04:40] ffmpeg_read starting chapter 18 at 527942410
[14:05:03] sync: "(18)01:37:46:026" (18) at frame 140645 time 527942409
[14:40:39] ffmpeg_read starting chapter 19 at 543351553
[14:41:10] sync: "(19)01:40:37:239" (19) at frame 144750 time 543351555
[15:13:17] ffmpeg_read starting chapter 20 at 558494181
[15:13:36] sync: "(20)01:43:25:490" (20) at frame 148784 time 558494183
[15:29:42] reader: done. 1 scr changes
[15:29:42] thread 19e723ef960 exited ("Reader")
[15:29:58] thread 19e727d9dd0 exited ("Muxer")
[15:29:58] thread 19e727d9dd0 joined ("Muxer")
[15:29:58] work: average encoding speed for job is 2.161734 fps
[15:29:58] thread 19e72e34d30 exited ("Framerate Shaper")
[15:29:58] thread 19e72e34d30 joined ("Framerate Shaper")
[15:29:58] vfr: lost time: 0 (0 frames)
[15:29:58] vfr: gained time: 0 (0 frames) (0 not accounted for)
[15:29:58] fifo_close: trashing 0 buffer(s)
[15:29:59] thread 19e723ef420 exited ("Muxer")
[15:29:59] thread 19e723ef7a0 exited ("Muxer")
[15:29:59] thread 19e72dafdd0 exited ("Video Synchronization")
[15:29:59] thread 19e723ef260 exited ("Audio decoder (libavcodec)")
[15:29:59] thread 19e7240cd80 exited ("H.264/AVC encoder (libx264)")
[15:29:59] thread 19e723eeee0 exited ("Audio decoder (libavcodec)")
[15:29:59] thread 19e6bc89e20 exited ("Audio Synchronization")
[15:29:59] thread 19e61af2780 exited ("Video decoder (libavcodec)")
[15:29:59] thread 19e723eed20 exited ("Crop and Scale")
[15:29:59] thread 19e823d7230 exited ("Audio Synchronization")
[15:29:59] thread 19e723eed20 joined ("Crop and Scale")
[15:29:59] thread 19e723ef960 joined ("Reader")
[15:29:59] thread 19e723ef260 joined ("Audio decoder (libavcodec)")
[15:29:59] thread 19e723eeee0 joined ("Audio decoder (libavcodec)")
[15:29:59] thread 19e61af2780 joined ("Video decoder (libavcodec)")
[15:29:59] thread 19e72dafdd0 joined ("Video Synchronization")
[15:29:59] thread 19e7240cd80 joined ("H.264/AVC encoder (libx264)")
[15:29:59] dca-decoder done: 607381 frames, 0 decoder errors
[15:29:59] dca-decoder done: 607381 frames, 0 decoder errors
[15:29:59] vc1-decoder done: 155335 frames, 0 decoder errors
[15:29:59] sync: got 155334 frames, 155334 expected
[15:29:59] sync: framerate min 23.968 fps, max 23.981 fps, avg 23.976 fps
[15:29:59] thread 19e823d7230 joined ("Audio Synchronization")
[15:29:59] thread 19e6bc89e20 joined ("Audio Synchronization")
x264 [info]: frame I:946   Avg QP:13.52  size:240630
x264 [info]: frame P:33681 Avg QP:16.61  size:111568
x264 [info]: frame B:120707 Avg QP:18.61  size: 58715
x264 [info]: consecutive B-frames:  1.3%  2.3%  5.0% 29.7% 17.9% 39.8%  2.1%  1.1%  0.1%  0.1%  0.0%  0.0%  0.1%  0.0%  0.1%  0.0%  0.2%
x264 [info]: mb I  I16..4:  4.2% 88.6%  7.1%
x264 [info]: mb P  I16..4:  1.4% 30.4%  1.6%  P16..4: 30.1% 21.6%  9.3%  0.4%  0.1%    skip: 5.0%
x264 [info]: mb B  I16..4:  0.1%  6.1%  0.2%  B16..8: 35.9% 17.5%  4.1%  direct:14.1%  skip:22.0%  L0:42.1% L1:40.2% BI:17.6%
x264 [info]: 8x8 transform intra:92.6% inter:63.0%
x264 [info]: direct mvs  spatial:100.0% temporal:0.0%
x264 [info]: coded y,uvDC,uvAC intra: 93.7% 80.4% 46.4% inter: 44.0% 27.4% 1.9%
x264 [info]: i16 v,h,dc,p: 22% 10%  6% 61%
x264 [info]: i8 v,h,dc,ddl,ddr,vr,hd,vl,hu: 14% 10% 18%  7%  9% 10%  9% 10% 12%
x264 [info]: i4 v,h,dc,ddl,ddr,vr,hd,vl,hu: 14%  8%  4%  9% 14% 16% 12% 12% 11%
x264 [info]: i8c dc,h,v,p: 41% 25% 22% 12%
x264 [info]: Weighted P-Frames: Y:3.6% UV:2.2%
x264 [info]: ref P L0: 64.7%  9.8% 24.5%  1.0%  0.0%
x264 [info]: ref B L0: 90.7%  9.3%
x264 [info]: ref B L1: 95.6%  4.4%
x264 [info]: kb/s:13672.67
[15:29:59] mux: file size, 15067884399 bytes
[15:29:59] mux: track 0, 155334 frames, 11072639617 bytes, 13672.53 kbps, fifo 512
[15:29:59] mux: track 1, 607381 frames, 3363475508 bytes, 4153.23 kbps, fifo 2048
[15:29:59] mux: track 2, 607381 frames, 621958144 bytes, 768.00 kbps, fifo 2048
[15:29:59] mux: overhead, 7.16 bytes per frame
[15:29:59] thread 19e723ef7a0 joined ("Muxer")
[15:29:59] thread 19e723ef420 joined ("Muxer")
[15:29:59] fifo_close: trashing 0 buffer(s)
[15:29:59] fifo_close: trashing 0 buffer(s)
[15:29:59] fifo_close: trashing 0 buffer(s)
[15:29:59] fifo_close: trashing 0 buffer(s)
[15:29:59] fifo_close: trashing 0 buffer(s)
[15:29:59] fifo_close: trashing 0 buffer(s)
[15:29:59] fifo_close: trashing 0 buffer(s)
[15:29:59] fifo_close: trashing 0 buffer(s)
[15:29:59] fifo_close: trashing 0 buffer(s)
[15:29:59] fifo_close: trashing 0 buffer(s)
[15:29:59] fifo_close: trashing 0 buffer(s)
[15:29:59] fifo_close: trashing 0 buffer(s)
[15:29:59] fifo_close: trashing 0 buffer(s)
[15:29:59] fifo_close: trashing 0 buffer(s)
[15:29:59] Freed 142 buffers of size 1024
[15:29:59] Freed 32 buffers of size 2048
[15:29:59] Freed 32 buffers of size 4096
[15:29:59] Freed 32 buffers of size 8192
[15:29:59] Freed 32 buffers of size 16384
[15:29:59] Freed 32 buffers of size 32768
[15:29:59] Freed 32 buffers of size 65536
[15:29:59] Freed 32 buffers of size 131072
[15:29:59] Freed 32 buffers of size 262144
[15:29:59] Freed 12 buffers of size 524288
[15:29:59] Freed 32 buffers of size 4194304
[15:29:59] Allocated 157366272 bytes of buffers on this pass and Freed 157366272 bytes, 0 bytes leaked
[15:29:59] thread 19e73400c30 exited ("work")
[15:29:59] thread 19e73400c30 joined ("work")
[15:29:59] libhb: work result = 0

# Encode Completed ...
MediaInfo Converted Video
'Title' Audio Track #1 and #2 : the value appears to have been forced by HB with 'surround'

Code: Select all

General
Unique ID                                : 303528092376481146766095598978132859971 (0xE459625B64D5A502C5D957DAB1F7DC43)
Complete name                            : E:\Film\HD\Ritorno al Futuro II\Ritorno al Futuro II.new.mkv
Format                                   : Matroska
Format version                           : Version 4 / Version 2
File size                                : 14.0 GiB
Duration                                 : 1 h 47 min
Overall bit rate                         : 18.6 Mb/s
Movie name                               : BACK_TO_THE_FUTURE_PART_II
Encoded date                             : UTC 2017-04-16T17:32:28Z
Writing application                      : HandBrake 1.0.3 2017022500
Writing library                          : Lavf57.7.2

Video
ID                                       : 1
Format                                   : AVC
Format/Info                              : Advanced Video Codec
Format profile                           : High@L4.1
Format settings, CABAC                   : Yes
Format settings, ReFrames                : 3 frames
Codec ID                                 : V_MPEG4/ISO/AVC
Duration                                 : 1 h 47 min
Width                                    : 1 920 pixels
Height                                   : 1 032 pixels
Display aspect ratio                     : 1.85:1
Frame rate mode                          : Constant
Frame rate                               : 23.976 (24000/1001) FPS
Color space                              : YUV
Chroma subsampling                       : 4:2:0
Bit depth                                : 8 bits
Scan type                                : Progressive
Writing library                          : x264 core 148 r2708 86b7198
Encoding settings                        : cabac=1 / ref=4 / deblock=1:0:0 / analyse=0x3:0x133 / me=umh / subme=10 / psy=1 / psy_rd=1.00:0.00 / mixed_ref=1 / me_range=48 / chroma_me=1 / trellis=2 / 8x8dct=1 / cqm=0 / deadzone=21,11 / fast_pskip=1 / chroma_qp_offset=-2 / threads=6 / lookahead_threads=1 / sliced_threads=0 / nr=0 / decimate=1 / interlaced=0 / bluray_compat=0 / constrained_intra=0 / bframes=16 / b_pyramid=1 / b_adapt=2 / b_bias=0 / direct=3 / weightb=1 / open_gop=0 / weightp=2 / keyint=240 / keyint_min=24 / scenecut=40 / intra_refresh=0 / rc_lookahead=60 / rc=crf / mbtree=1 / crf=16.0 / qcomp=0.60 / qpmin=0 / qpmax=69 / qpstep=4 / ip_ratio=1.40 / aq=1:1.00
Default                                  : Yes
Forced                                   : No
Color range                              : Limited
Color primaries                          : BT.709
Transfer characteristics                 : BT.709
Matrix coefficients                      : BT.709

Audio #1
ID                                       : 2
Format                                   : DTS
Format/Info                              : Digital Theater Systems
Format profile                           : MA / Core
Mode                                     : 16
Format settings, Endianness              : Big
Codec ID                                 : A_DTS
Duration                                 : 1 h 47 min
Bit rate mode                            : Variable / Constant
Bit rate                                 : Unknown / 1 509 kb/s
Channel(s)                               : 6 channels
Channel positions                        : Front: L C R, Side: L R, LFE
Sampling rate                            : 48.0 kHz
Frame rate                               : 93.750 FPS (512 spf)
Bit depth                                : 24 bits
Compression mode                         : Lossless / Lossy
Title                                    : Surround
Language                                 : English
Default                                  : Yes
Forced                                   : No

Audio #2
ID                                       : 3
Format                                   : DTS
Format/Info                              : Digital Theater Systems
Mode                                     : 16
Format settings, Endianness              : Big
Codec ID                                 : A_DTS
Duration                                 : 1 h 47 min
Bit rate mode                            : Constant
Bit rate                                 : 768 kb/s
Channel(s)                               : 6 channels
Channel positions                        : Front: L C R, Side: L R, LFE
Sampling rate                            : 48.0 kHz
Frame rate                               : 93.750 FPS (512 spf)
Bit depth                                : 24 bits
Compression mode                         : Lossy
Stream size                              : 593 MiB (4%)
Title                                    : Surround
Language                                 : Italian
Default                                  : No
Forced                                   : No

Menu
00:00:00.000                             : :(01)00:00:00:000
00:02:57.511                             : :(02)00:02:57:510
00:04:17.632                             : :(03)00:04:17:632
00:12:44.389                             : :(04)00:12:44:388
00:17:09.111                             : :(05)00:17:09:111
00:21:16.525                             : :(06)00:21:16:525
00:26:59.660                             : :(07)00:26:59:659
00:34:15.428                             : :(08)00:34:15:428
00:38:32.477                             : :(09)00:38:32:476
00:46:13.062                             : :(10)00:46:13:061
00:50:35.449                             : :(11)00:50:35:449
00:55:32.621                             : :(12)00:55:32:620
01:01:30.145                             : :(13)01:01:30:144
01:07:14.197                             : :(14)01:07:14:196
01:14:45.940                             : :(15)01:14:45:939
01:28:00.609                             : :(16)01:28:00:608
01:34:43.303                             : :(17)01:34:43:302
01:37:46.027                             : :(18)01:37:46:026
01:40:37.240                             : :(19)01:40:37:239
01:43:25.491                             : :(20)01:43:25:490

rollin_eng
Veteran User
Posts: 3129
Joined: Wed May 04, 2011 11:06 pm

Re: HB forces the audio track name when it is null on the source

Post by rollin_eng » Mon Apr 17, 2017 4:02 pm

Please update to the latest version, reencode and post a log, thanks.

HBGT
Posts: 22
Joined: Tue Mar 21, 2017 11:51 am

Re: HB forces the audio track name when it is null on the source

Post by HBGT » Tue Apr 18, 2017 12:28 pm

As I wrote before, version 1.0.3 and 1.0.7 version works in the same way.
These are the data.
Thanks for your time.

MediaInfo Source Video
'Title' Audio Track #1 and #2 : it does not printed because its value is null

Code: Select all

General
Unique ID                                : 177481416332914444566533599079125947215 (0x8585AD6BF8FF19DBA35AA9D2F25F134F)
Complete name                            : E:\Video\Video\Ritorno al Futuro II.mkv
Format                                   : Matroska
Format version                           : Version 2
File size                                : 657 MiB
Duration                                 : 3 min 5 s
Overall bit rate                         : 29.7 Mb/s
Movie name                               : Ritorno al Futuro II
Encoded date                             : UTC 2017-04-18 07:10:00
Writing application                      : DVDFab 9.1.7.1
Writing library                          : libebml v0.7.8 + libmatroska v0.8.1

Video
ID                                       : 1
Format                                   : VC-1
Format profile                           : Advanced@L3
Codec ID                                 : V_MS/VFW/FOURCC / WVC1
Codec ID/Hint                            : Microsoft
Duration                                 : 3 min 5 s
Width                                    : 1 920 pixels
Height                                   : 1 080 pixels
Display aspect ratio                     : 16:9
Frame rate mode                          : Constant
Frame rate                               : 23.976 (24000/1001) FPS
Color space                              : YUV
Chroma subsampling                       : 4:2:0
Bit depth                                : 8 bits
Scan type                                : Progressive
Compression mode                         : Lossy
Default                                  : Yes
Forced                                   : No

Audio #1
ID                                       : 2
Format                                   : DTS
Format/Info                              : Digital Theater Systems
Format profile                           : MA / Core
Mode                                     : 16
Format settings, Endianness              : Big
Codec ID                                 : A_DTS
Duration                                 : 3 min 5 s
Bit rate mode                            : Variable / Constant
Bit rate                                 : Unknown / 1 509 kb/s
Channel(s)                               : 6 channels
Channel positions                        : Front: L C R, Side: L R, LFE
Sampling rate                            : 48.0 kHz
Frame rate                               : 93.750 FPS (512 spf)
Bit depth                                : 24 bits
Compression mode                         : Lossless / Lossy
Language                                 : English
Default                                  : Yes
Forced                                   : No

Audio #2
ID                                       : 3
Format                                   : DTS
Format/Info                              : Digital Theater Systems
Mode                                     : 16
Format settings, Endianness              : Big
Codec ID                                 : A_DTS
Duration                                 : 3 min 5 s
Bit rate mode                            : Constant
Bit rate                                 : 768 kb/s
Channel(s)                               : 6 channels
Channel positions                        : Front: L C R, Side: L R, LFE
Sampling rate                            : 48.0 kHz
Frame rate                               : 93.750 FPS (512 spf)
Bit depth                                : 24 bits
Compression mode                         : Lossy
Stream size                              : 17.0 MiB (3%)
Language                                 : Italian
Default                                  : No
Forced                                   : No

Text #1
ID                                       : 4
Format                                   : VobSub
Codec ID                                 : S_VOBSUB
Codec ID/Info                            : Picture based subtitle format used on DVDs
Language                                 : Italian
Default                                  : Yes
Forced                                   : No

Text #2
ID                                       : 5
Format                                   : VobSub
Codec ID                                 : S_VOBSUB
Codec ID/Info                            : Picture based subtitle format used on DVDs
Language                                 : Italian
Default                                  : No
Forced                                   : No

Menu
00:00:00.000                             : en:(01)00:00:00:000
00:02:57.510                             : en:(02)00:02:57:510
00:04:17.632                             : en:(03)00:04:17:632
00:12:44.388                             : en:(04)00:12:44:388
00:17:09.111                             : en:(05)00:17:09:111
00:21:16.525                             : en:(06)00:21:16:525
00:26:59.659                             : en:(07)00:26:59:659
00:34:15.428                             : en:(08)00:34:15:428
00:38:32.476                             : en:(09)00:38:32:476
00:46:13.061                             : en:(10)00:46:13:061
00:50:35.449                             : en:(11)00:50:35:449
00:55:32.620                             : en:(12)00:55:32:620
01:01:30.144                             : en:(13)01:01:30:144
01:07:14.196                             : en:(14)01:07:14:196
01:14:45.939                             : en:(15)01:14:45:939
01:28:00.608                             : en:(16)01:28:00:608
01:34:43.302                             : en:(17)01:34:43:302
01:37:46.026                             : en:(18)01:37:46:026
01:40:37.239                             : en:(19)01:40:37:239
01:43:25.490                             : en:(20)01:43:25:490
01:47:59.055                             : en:(21)01:47:59:055
HandBrake Log
Audio Track name #1 and #2 : not specified (Auto Passthru option used)

Code: Select all

HandBrake 1.0.7 (2017040900) - 64bit
OS: Microsoft Windows NT 10.0.14393.0 - 64bit
CPU: Intel(R) Core(TM) i3-3225 CPU @ 3.30GHz
Ram: 7890 MB, 
GPU Information:
  Intel(R) HD Graphics 4000 - 10.18.10.4425
Screen: 1280x800
Temp Dir: C:\Users\Gualtiero\AppData\Local\Temp\
Install Dir: C:\Program Files\HandBrake
Data Dir: C:\Users\Gualtiero\AppData\Roaming\HandBrake Team\HandBrake\1.0.7.0

-------------------------------------------


# Starting Encode ...

[13:42:58] hb_init: starting libhb thread
[13:42:58] thread e started ("libhb")
[13:42:58] thread f started ("work")
[13:42:58] 1 job(s) to process
[13:42:58] json job:
{
  "Audio": {
    "AudioList": [
      {
        "DRC": 0.0,
        "Encoder": 1125984256,
        "Gain": 0.0,
        "Mixdown": -1,
        "NormalizeMixLevel": false,
        "Samplerate": 48000,
        "Track": 0,
        "DitherMethod": 0
      },
      {
        "DRC": 0.0,
        "Encoder": 1125984256,
        "Gain": 0.0,
        "Mixdown": -1,
        "NormalizeMixLevel": false,
        "Samplerate": 48000,
        "Track": 1,
        "DitherMethod": 0
      }
    ],
    "CopyMask": [
      1073807360,
      1073743872,
      1074003968,
      1073750016,
      1090519040,
      1074790400,
      1074266112,
      1107296256
    ],
    "FallbackEncoder": 2048
  },
  "Destination": {
    "ChapterList": [
      {
        "Name": "(01)00:00:00:000"
      },
      {
        "Name": "(02)00:02:57:510"
      },
      {
        "Name": "(03)00:04:17:632"
      },
      {
        "Name": "(04)00:12:44:388"
      },
      {
        "Name": "(05)00:17:09:111"
      },
      {
        "Name": "(06)00:21:16:525"
      },
      {
        "Name": "(07)00:26:59:659"
      },
      {
        "Name": "(08)00:34:15:428"
      },
      {
        "Name": "(09)00:38:32:476"
      },
      {
        "Name": "(10)00:46:13:061"
      },
      {
        "Name": "(11)00:50:35:449"
      },
      {
        "Name": "(12)00:55:32:620"
      },
      {
        "Name": "(13)01:01:30:144"
      },
      {
        "Name": "(14)01:07:14:196"
      },
      {
        "Name": "(15)01:14:45:939"
      },
      {
        "Name": "(16)01:28:00:608"
      },
      {
        "Name": "(17)01:34:43:302"
      },
      {
        "Name": "(18)01:37:46:026"
      },
      {
        "Name": "(19)01:40:37:239"
      },
      {
        "Name": "(20)01:43:25:490"
      },
      {
        "Name": "(21)01:47:59:055"
      }
    ],
    "ChapterMarkers": true,
    "File": "E:\\Video\\Video\\Ritorno al Futuro II.new.mkv",
    "Mp4Options": {
      "IpodAtom": false,
      "Mp4Optimize": false
    },
    "Mux": 2097152
  },
  "Filters": {
    "FilterList": [
      {
        "ID": 11,
        "Settings": {
          "crop-bottom": "24",
          "crop-left": "0",
          "crop-right": "0",
          "crop-top": "24",
          "height": "1032",
          "width": "1920"
        }
      },
      {
        "ID": 6,
        "Settings": {
          "mode": "0"
        }
      }
    ]
  },
  "PAR": {
    "Num": 1,
    "Den": 1
  },
  "Metadata": {},
  "SequenceID": 0,
  "Source": {
    "Angle": 1,
    "Range": {
      "Type": "chapter",
      "Start": 1,
      "End": 21
    },
    "Title": 1,
    "Path": "E:\\Video\\Video\\Ritorno al Futuro II.mkv"
  },
  "Subtitle": {
    "Search": {
      "Burn": false,
      "Default": false,
      "Enable": false,
      "Forced": false
    },
    "SubtitleList": [
      {
        "Burn": false,
        "Default": false,
        "Forced": false,
        "ID": 1,
        "Offset": 0,
        "Track": 0
      },
      {
        "Burn": false,
        "Default": false,
        "Forced": false,
        "ID": 2,
        "Offset": 0,
        "Track": 1
      }
    ]
  },
  "Video": {
    "Encoder": 65536,
    "TwoPass": false,
    "Turbo": false,
    "ColorMatrixCode": 0,
    "Options": "level=4.1:rc-lookahead=60:ref=4:bframes=16:b-adapt=2:direct=auto:b-pyramid=strict:me=umh:subme=10:merange=48:analyse=all:trellis=2",
    "Quality": 16.0,
    "OpenCL": false,
    "HWDecode": false,
    "QSV": {
      "Decode": false,
      "AsyncDepth": 0
    }
  }
}
[13:42:58] CPU: Intel(R) Core(TM) i3-3225 CPU @ 3.30GHz
[13:42:58]  - Intel microarchitecture Ivy Bridge
[13:42:58]  - logical processor count: 4
[13:42:58] Intel Quick Sync Video support: yes
[13:42:58]  - Intel Media SDK hardware: API 1.11 (minimum: 1.3)
[13:42:58]  - H.264 encoder: yes
[13:42:58]     - preferred implementation: hardware (any)
[13:42:58]     - capabilities (hardware):  vsinfo opt1 opt2+extbrc+ib_adapt+nmpslice
[13:42:58]  - H.265 encoder: no
[13:42:58] hb_scan: path=E:\Video\Video\Ritorno al Futuro II.mkv, title_index=1
[13:42:58] thread 10 started ("scan")
udfread ERROR: ECMA 167 Volume Recognition failed
src/libbluray/disc/disc.c:274: failed opening UDF image E:\Video\Video\Ritorno al Futuro II.mkv
src/libbluray/disc/disc.c:352: error opening file BDMV\index.bdmv
src/libbluray/disc/disc.c:352: error opening file BDMV\BACKUP\index.bdmv
[13:42:58] bd: not a bd - trying as a stream/file instead
libdvdnav: Using dvdnav version 5.0.1
libdvdread: Encrypted DVD support unavailable.
libdvdread:DVDOpenFileUDF:UDFFindFile /VIDEO_TS/VIDEO_TS.IFO failed
libdvdread:DVDOpenFileUDF:UDFFindFile /VIDEO_TS/VIDEO_TS.BUP failed
libdvdread: Can't open file VIDEO_TS.IFO.
libdvdnav: vm: failed to read VIDEO_TS.IFO
[13:42:58] dvd: not a dvd - trying as a stream/file instead
Input #0, matroska,webm, from 'E:\Video\Video\Ritorno al Futuro II.mkv':
  Metadata:
    title           : Ritorno al Futuro II
  Duration: 00:03:05.51, start: 0.000000, bitrate: N/A
    Chapter #0:0: start 0.000000, end 177.510000
    Metadata:
      title           : (01)00:00:00:000
    Chapter #0:1: start 177.510000, end 185.518667
    Metadata:
      title           : (02)00:02:57:510
    Chapter #0:2: start 257.632000, end 185.518667
    Metadata:
      title           : (03)00:04:17:632
    Chapter #0:3: start 764.388000, end 185.518667
    Metadata:
      title           : (04)00:12:44:388
    Chapter #0:4: start 1029.111000, end 185.518667
    Metadata:
      title           : (05)00:17:09:111
    Chapter #0:5: start 1276.525000, end 185.518667
    Metadata:
      title           : (06)00:21:16:525
    Chapter #0:6: start 1619.659000, end 185.518667
    Metadata:
      title           : (07)00:26:59:659
    Chapter #0:7: start 2055.428000, end 185.518667
    Metadata:
      title           : (08)00:34:15:428
    Chapter #0:8: start 2312.476000, end 185.518667
    Metadata:
      title           : (09)00:38:32:476
    Chapter #0:9: start 2773.061000, end 185.518667
    Metadata:
      title           : (10)00:46:13:061
    Chapter #0:10: start 3035.449000, end 185.518667
    Metadata:
      title           : (11)00:50:35:449
    Chapter #0:11: start 3332.620000, end 185.518667
    Metadata:
      title           : (12)00:55:32:620
    Chapter #0:12: start 3690.144000, end 185.518667
    Metadata:
      title           : (13)01:01:30:144
    Chapter #0:13: start 4034.196000, end 185.518667
    Metadata:
      title           : (14)01:07:14:196
    Chapter #0:14: start 4485.939000, end 185.518667
    Metadata:
      title           : (15)01:14:45:939
    Chapter #0:15: start 5280.608000, end 185.518667
    Metadata:
      title           : (16)01:28:00:608
    Chapter #0:16: start 5683.302000, end 185.518667
    Metadata:
      title           : (17)01:34:43:302
    Chapter #0:17: start 5866.026000, end 185.518667
    Metadata:
      title           : (18)01:37:46:026
    Chapter #0:18: start 6037.239000, end 185.518667
    Metadata:
      title           : (19)01:40:37:239
    Chapter #0:19: start 6205.490000, end 185.518667
    Metadata:
      title           : (20)01:43:25:490
    Chapter #0:20: start 6479.055000, end 185.518667
    Metadata:
      title           : (21)01:47:59:055
    Stream #0:0: Video: vc1 (Advanced) [WVC1 / 0x31435657]
      yuv420p, 1920x1080 [PAR 1:1 DAR 16:9], PAR 1:1 DAR 16:9
      23.98 fps, 48003.07 tbn (default)
    Stream #0:1(eng): Audio: dts (DTS-HD MA)
      48000 Hz, 5.1, fltp, 1536 kb/s (default)
    Stream #0:2(ita): Audio: dts (DTS)
      48000 Hz, 5.1, fltp, 768 kb/s
    Stream #0:3(ita): Subtitle: dvd_subtitle (default)
    Stream #0:4(ita): Subtitle: dvd_subtitle
[13:42:58] Found ffmpeg 21 chapters, container=matroska,webm
[13:42:58] Added chapter 1, name='(01)00:00:00:000', dur=15975900, (00:02:58)
[13:42:58] Added chapter 2, name='(02)00:02:57:510', dur=720780, (00:00:08)
[13:42:58] Added chapter 3, name='(03)00:04:17:632', dur=0, (00:00:00)
[13:42:58] Added chapter 4, name='(04)00:12:44:388', dur=0, (00:00:00)
[13:42:58] Added chapter 5, name='(05)00:17:09:111', dur=0, (00:00:00)
[13:42:58] Added chapter 6, name='(06)00:21:16:525', dur=0, (00:00:00)
[13:42:58] Added chapter 7, name='(07)00:26:59:659', dur=0, (00:00:00)
[13:42:58] Added chapter 8, name='(08)00:34:15:428', dur=0, (00:00:00)
[13:42:58] Added chapter 9, name='(09)00:38:32:476', dur=0, (00:00:00)
[13:42:58] Added chapter 10, name='(10)00:46:13:061', dur=0, (00:00:00)
[13:42:58] Added chapter 11, name='(11)00:50:35:449', dur=0, (00:00:00)
[13:42:58] Added chapter 12, name='(12)00:55:32:620', dur=0, (00:00:00)
[13:42:58] Added chapter 13, name='(13)01:01:30:144', dur=0, (00:00:00)
[13:42:58] Added chapter 14, name='(14)01:07:14:196', dur=0, (00:00:00)
[13:42:58] Added chapter 15, name='(15)01:14:45:939', dur=0, (00:00:00)
[13:42:58] Added chapter 16, name='(16)01:28:00:608', dur=0, (00:00:00)
[13:42:58] Added chapter 17, name='(17)01:34:43:302', dur=0, (00:00:00)
[13:42:58] Added chapter 18, name='(18)01:37:46:026', dur=0, (00:00:00)
[13:42:58] Added chapter 19, name='(19)01:40:37:239', dur=0, (00:00:00)
[13:42:58] Added chapter 20, name='(20)01:43:25:490', dur=0, (00:00:00)
[13:42:58] Added chapter 21, name='(21)01:47:59:055', dur=0, (00:00:00)
[13:42:58] scan: decoding previews for title 1
[13:42:58] scan: preview 1
[13:42:58] fifo_close: trashing 0 buffer(s)
[13:42:58] scan: audio 0x1: dca, rate=48000Hz, bitrate=1536000 English (DTS-HD MA) (5.1 ch)
[13:42:58] fifo_close: trashing 0 buffer(s)
[13:42:58] scan: audio 0x2: dca, rate=48000Hz, bitrate=768000 italiano (DTS) (5.1 ch)
[13:42:58] scan: preview 2
[13:42:58] scan: preview 3
[13:42:58] scan: preview 4
[13:42:58] scan: preview 5
[13:42:58] scan: preview 6
[13:42:58] scan: preview 7
[13:42:59] scan: preview 8
[13:42:59] scan: preview 9
[13:42:59] scan: preview 10
[13:42:59] scan: 10 previews, 1920x1080, 23.976 fps, autocrop = 20/20/0/0, aspect 16:9, PAR 1:1
[13:42:59] Freed 1 buffers of size 1024
[13:42:59] Freed 1 buffers of size 2048
[13:42:59] Freed 1 buffers of size 4096
[13:42:59] Freed 1 buffers of size 8192
[13:42:59] Freed 1 buffers of size 16384
[13:42:59] Freed 1 buffers of size 65536
[13:42:59] Freed 1 buffers of size 131072
[13:42:59] Freed 1 buffers of size 262144
[13:42:59] Freed 1 buffers of size 524288
[13:42:59] Freed 1 buffers of size 4194304
[13:42:59] Allocated 5209088 bytes of buffers on this pass and Freed 5209088 bytes, 0 bytes leaked
[13:42:59] thread 10 exited ("scan")
[13:42:59] thread 10 joined ("scan")
[13:42:59] libhb: scan thread found 1 valid title(s)
[13:42:59] starting job
[13:42:59] Auto Passthru: allowed codecs are AAC, AC3, E-AC3, TrueHD, DTS, DTS-HD, MP3, FLAC
[13:42:59] Auto Passthru: fallback is AC3
[13:42:59] Auto Passthru: using DTS-HD Passthru for track 1
[13:42:59] Auto Passthru: using DTS Passthru for track 2
[13:42:59] job configuration:
[13:42:59]  * source
[13:42:59]    + E:\Video\Video\Ritorno al Futuro II.mkv
[13:42:59]    + title 1, chapter(s) 1 to 21
[13:42:59]    + container: matroska,webm
[13:42:59]  * destination
[13:42:59]    + E:\Video\Video\Ritorno al Futuro II.new.mkv
[13:42:59]    + container: Matroska (libavformat)
[13:42:59]      + chapter markers
[13:42:59]  * video track
[13:42:59]    + decoder: vc1
[13:42:59]    + filters
[13:42:59]      + Framerate Shaper (mode=0)
[13:42:59]        + frame rate: same as source (around 23.976 fps)
[13:42:59]      + Crop and Scale (width=1920:height=1032:crop-top=24:crop-bottom=24:crop-left=0:crop-right=0)
[13:42:59]        + source: 1920 * 1080, crop (24/24/0/0): 1920 * 1032, scale: 1920 * 1032
[13:42:59]    + Output geometry
[13:42:59]      + storage dimensions: 1920 x 1032
[13:42:59]      + pixel aspect ratio: 1 : 1
[13:42:59]      + display dimensions: 1920 x 1032
[13:42:59]    + encoder: H.264 (libx264)
[13:42:59]      + options: level=4.1:rc-lookahead=60:ref=4:bframes=16:b-adapt=2:direct=auto:b-pyramid=strict:me=umh:subme=10:merange=48:analyse=all:trellis=2
[13:42:59]      + quality: 16.00 (RF)
[13:42:59]  * subtitle track 1, Italian (track 0, id 0x3) Picture [VOBSUB] -> Passthrough
[13:42:59]  * subtitle track 2, Italian (track 1, id 0x4) Picture [VOBSUB] -> Passthrough
[13:42:59]  * audio track 1
[13:42:59]    + decoder: English (DTS-HD MA) (5.1 ch) (track 1, id 0x1)
[13:42:59]      + bitrate: 1536 kbps, samplerate: 48000 Hz
[13:42:59]    + DTS-HD Passthru
[13:42:59]  * audio track 2
[13:42:59]    + decoder: italiano (DTS) (5.1 ch) (track 2, id 0x2)
[13:42:59]      + bitrate: 768 kbps, samplerate: 48000 Hz
[13:42:59]    + DTS Passthru
[13:42:59] sync: expecting 4448 video frames
[13:42:59] thread 11 started ("Audio Synchronization")
[13:42:59] thread 12 started ("Audio Synchronization")
[13:42:59] thread 13 started ("Subitle Synchronization")
[13:42:59] thread 14 started ("Subitle Synchronization")
[13:42:59] encx264: min-keyint: 24, keyint: 240
[13:42:59] encx264: encoding at constant RF 16.000000
[13:42:59] encx264: unparsed options: ref=4:level=4.1:rc-lookahead=60:subme=10:bframes=16:direct=auto:b-adapt=2:b-pyramid=strict:me=umh:merange=48:analyse=all:trellis=2
[13:42:59] encx264: opening libx264 (pass 0)
x264 [info]: using SAR=1/1
x264 [info]: using cpu capabilities: MMX2 SSE2Fast SSSE3 SSE4.2 AVX
x264 [info]: profile High, level 4.1
[13:42:59] Writing Metadata to output file...
[13:42:59] thread 15 started ("Muxer")
[13:42:59] thread 16 started ("Muxer")
[13:42:59] thread 17 started ("Muxer")
[13:42:59] thread 18 started ("Muxer")
[13:42:59] thread 19 started ("Reader")
[13:42:59] thread 1a started ("Audio decoder (libavcodec)")
[13:42:59] thread 1b started ("Audio decoder (libavcodec)")
[13:42:59] thread 1c started ("VOBSUB decoder")
[13:42:59] thread 1d started ("VOBSUB decoder")
[13:42:59] ffmpeg_read starting chapter 1 at 0
[13:42:59] thread 1e started ("Video decoder (libavcodec)")
[13:42:59] thread 1f started ("Video Synchronization")
[13:42:59] thread 20 started ("H.264/AVC encoder (libx264)")
[13:42:59] thread 21 started ("Muxer")
[13:42:59] thread 22 started ("Framerate Shaper")
[13:42:59] thread 23 started ("Crop and Scale")
[13:42:59] sync: first pts video is 0
[13:42:59] sync: "(01)00:00:00:000" (1) at frame 1 time 0
[13:42:59] sync: first pts audio 0x1 is 0
[13:42:59] sync: first pts audio 0x2 is 0
[14:18:40] ffmpeg_read starting chapter 2 at 15975959
[14:19:02] sync: "(02)00:02:57:510" (2) at frame 4257 time 15975960
[14:20:19] reader: done. 1 scr changes
[14:20:19] thread 19 exited ("Reader")
[14:21:36] thread 21 exited ("Muxer")
[14:21:36] thread 21 joined ("Muxer")
[14:21:36] work: average encoding speed for job is 1.961974 fps
[14:21:36] thread 22 exited ("Framerate Shaper")
[14:21:36] thread 22 joined ("Framerate Shaper")
[14:21:36] vfr: lost time: 0 (0 frames)
[14:21:36] vfr: gained time: 0 (0 frames) (0 not accounted for)
[14:21:36] fifo_close: trashing 0 buffer(s)
[14:21:36] thread 17 exited ("Muxer")
[14:21:36] thread 16 exited ("Muxer")
[14:21:36] thread 15 exited ("Muxer")
[14:21:36] thread 18 exited ("Muxer")
[14:21:36] thread 1f exited ("Video Synchronization")
[14:21:36] thread 14 exited ("Subitle Synchronization")
[14:21:36] thread 1c exited ("VOBSUB decoder")
[14:21:36] thread 23 exited ("Crop and Scale")
[14:21:36] thread 1d exited ("VOBSUB decoder")
[14:21:36] thread 1a exited ("Audio decoder (libavcodec)")
[14:21:36] thread 12 exited ("Audio Synchronization")
[14:21:36] thread 1b exited ("Audio decoder (libavcodec)")
[14:21:36] thread 11 exited ("Audio Synchronization")
[14:21:36] thread 13 exited ("Subitle Synchronization")
[14:21:36] thread 23 joined ("Crop and Scale")
[14:21:36] thread 19 joined ("Reader")
[14:21:36] thread 1a joined ("Audio decoder (libavcodec)")
[14:21:36] thread 1b joined ("Audio decoder (libavcodec)")
[14:21:36] thread 1c joined ("VOBSUB decoder")
[14:21:36] thread 1d joined ("VOBSUB decoder")
[14:21:36] thread 1e exited ("Video decoder (libavcodec)")
[14:21:36] thread 1e joined ("Video decoder (libavcodec)")
[14:21:36] thread 1f joined ("Video Synchronization")
[14:21:36] thread 20 exited ("H.264/AVC encoder (libx264)")
[14:21:36] thread 20 joined ("H.264/AVC encoder (libx264)")
[14:21:36] dca-decoder done: 17389 frames, 0 decoder errors
[14:21:36] dca-decoder done: 17389 frames, 0 decoder errors
[14:21:36] vc1-decoder done: 4448 frames, 0 decoder errors
[14:21:36] sync: got 4447 frames, 4448 expected
[14:21:36] sync: framerate min 23.981 fps, max 23.981 fps, avg 23.976 fps
[14:21:36] thread 11 joined ("Audio Synchronization")
[14:21:36] thread 12 joined ("Audio Synchronization")
[14:21:36] thread 13 joined ("Subitle Synchronization")
[14:21:36] thread 14 joined ("Subitle Synchronization")
x264 [info]: frame I:29    Avg QP:12.72  size:245377
x264 [info]: frame P:887   Avg QP:16.66  size:140244
x264 [info]: frame B:3531  Avg QP:18.37  size: 73033
x264 [info]: consecutive B-frames:  1.2%  1.5%  2.3% 28.1% 17.1% 36.0%  3.9%  2.9%  0.4%  0.2%  0.0%  0.8%  1.2%  0.3%  1.0%  0.0%  3.1%
x264 [info]: mb I  I16..4: 12.9% 81.8%  5.4%
x264 [info]: mb P  I16..4:  1.1% 35.7%  2.2%  P16..4: 22.4% 19.7%  8.9%  0.5%  0.1%    skip: 9.3%
x264 [info]: mb B  I16..4:  0.1%  8.3%  0.2%  B16..8: 30.0% 16.8%  4.7%  direct:15.1%  skip:24.8%  L0:38.8% L1:35.9% BI:25.4%
x264 [info]: 8x8 transform intra:93.2% inter:66.3%
x264 [info]: direct mvs  spatial:98.6% temporal:1.4%
x264 [info]: coded y,uvDC,uvAC intra: 96.0% 90.7% 64.3% inter: 51.9% 35.8% 4.6%
x264 [info]: i16 v,h,dc,p: 50%  8%  4% 38%
x264 [info]: i8 v,h,dc,ddl,ddr,vr,hd,vl,hu: 13% 10% 16%  8% 10% 11%  9% 11% 13%
x264 [info]: i4 v,h,dc,ddl,ddr,vr,hd,vl,hu: 11%  8%  4%  9% 14% 15% 13% 13% 13%
x264 [info]: i8c dc,h,v,p: 46% 21% 20% 13%
x264 [info]: Weighted P-Frames: Y:10.5% UV:4.8%
x264 [info]: ref P L0: 61.1% 16.1% 21.7%  1.1%  0.0%
x264 [info]: ref B L0: 91.8%  8.2%
x264 [info]: ref B L1: 96.0%  4.0%
x264 [info]: kb/s:16795.30
[14:21:37] mux: file size, 495575960 bytes
[14:21:37] mux: track 0, 4447 frames, 389391270 bytes, 16791.46 kbps, fifo 512
[14:21:37] mux: track 1, 17389 frames, 88095908 bytes, 3798.90 kbps, fifo 2048
[14:21:37] mux: track 2, 17389 frames, 17806336 bytes, 767.85 kbps, fifo 2048
[14:21:37] mux: track 3, 0 frames, 0 bytes, 0.00 kbps, fifo 8
[14:21:37] mux: track 4, 0 frames, 0 bytes, 0.00 kbps, fifo 8
[14:21:37] mux: overhead, 7.20 bytes per frame
[14:21:37] thread 15 joined ("Muxer")
[14:21:37] thread 16 joined ("Muxer")
[14:21:37] thread 17 joined ("Muxer")
[14:21:37] thread 18 joined ("Muxer")
[14:21:37] fifo_close: trashing 0 buffer(s)
[14:21:37] fifo_close: trashing 0 buffer(s)
[14:21:37] fifo_close: trashing 0 buffer(s)
[14:21:37] fifo_close: trashing 0 buffer(s)
[14:21:37] fifo_close: trashing 0 buffer(s)
[14:21:37] fifo_close: trashing 0 buffer(s)
[14:21:37] fifo_close: trashing 0 buffer(s)
[14:21:37] fifo_close: trashing 0 buffer(s)
[14:21:37] fifo_close: trashing 0 buffer(s)
[14:21:37] fifo_close: trashing 0 buffer(s)
[14:21:37] fifo_close: trashing 0 buffer(s)
[14:21:37] fifo_close: trashing 0 buffer(s)
[14:21:37] fifo_close: trashing 0 buffer(s)
[14:21:37] fifo_close: trashing 0 buffer(s)
[14:21:37] fifo_close: trashing 0 buffer(s)
[14:21:37] fifo_close: trashing 0 buffer(s)
[14:21:37] fifo_close: trashing 0 buffer(s)
[14:21:37] fifo_close: trashing 0 buffer(s)
[14:21:37] fifo_close: trashing 0 buffer(s)
[14:21:37] fifo_close: trashing 0 buffer(s)
[14:21:37] Freed 139 buffers of size 1024
[14:21:37] Freed 32 buffers of size 2048
[14:21:37] Freed 32 buffers of size 4096
[14:21:37] Freed 32 buffers of size 8192
[14:21:37] Freed 13 buffers of size 16384
[14:21:37] Freed 23 buffers of size 32768
[14:21:37] Freed 32 buffers of size 65536
[14:21:37] Freed 32 buffers of size 131072
[14:21:37] Freed 32 buffers of size 262144
[14:21:37] Freed 6 buffers of size 524288
[14:21:37] Freed 32 buffers of size 4194304
[14:21:37] Allocated 153611264 bytes of buffers on this pass and Freed 153611264 bytes, 0 bytes leaked
[14:21:37] thread f exited ("work")
[14:21:37] thread f joined ("work")
[14:21:37] libhb: work result = 0

# Encode Completed ...
MediaInfo Converted Video
'Title' Audio Track #1 and #2 : the value appears to have been forced by HB with 'surround'

Code: Select all

General
Unique ID                                : 40411624203003242495647672174599968638 (0x1E66FEE73426FB1EA4288E75428B977E)
Complete name                            : E:\Video\Video\Ritorno al Futuro II.new.mkv
Format                                   : Matroska
Format version                           : Version 4 / Version 2
File size                                : 473 MiB
Duration                                 : 3 min 5 s
Overall bit rate                         : 21.4 Mb/s
Movie name                               : Ritorno al Futuro II
Encoded date                             : UTC 2017-04-18T11:42:59Z
Writing application                      : HandBrake 1.0.7 2017040900
Writing library                          : Lavf57.7.2

Video
ID                                       : 1
Format                                   : AVC
Format/Info                              : Advanced Video Codec
Format profile                           : High@L4.1
Format settings, CABAC                   : Yes
Format settings, ReFrames                : 3 frames
Codec ID                                 : V_MPEG4/ISO/AVC
Duration                                 : 3 min 5 s
Width                                    : 1 920 pixels
Height                                   : 1 032 pixels
Display aspect ratio                     : 1.85:1
Frame rate mode                          : Constant
Frame rate                               : 23.976 (24000/1001) FPS
Color space                              : YUV
Chroma subsampling                       : 4:2:0
Bit depth                                : 8 bits
Scan type                                : Progressive
Writing library                          : x264 core 148 r2708 86b7198
Encoding settings                        : cabac=1 / ref=4 / deblock=1:0:0 / analyse=0x3:0x133 / me=umh / subme=10 / psy=1 / psy_rd=1.00:0.00 / mixed_ref=1 / me_range=48 / chroma_me=1 / trellis=2 / 8x8dct=1 / cqm=0 / deadzone=21,11 / fast_pskip=1 / chroma_qp_offset=-2 / threads=6 / lookahead_threads=1 / sliced_threads=0 / nr=0 / decimate=1 / interlaced=0 / bluray_compat=0 / constrained_intra=0 / bframes=16 / b_pyramid=1 / b_adapt=2 / b_bias=0 / direct=3 / weightb=1 / open_gop=0 / weightp=2 / keyint=240 / keyint_min=24 / scenecut=40 / intra_refresh=0 / rc_lookahead=60 / rc=crf / mbtree=1 / crf=16.0 / qcomp=0.60 / qpmin=0 / qpmax=69 / qpstep=4 / ip_ratio=1.40 / aq=1:1.00
Default                                  : Yes
Forced                                   : No
Color range                              : Limited
Color primaries                          : BT.709
Transfer characteristics                 : BT.709
Matrix coefficients                      : BT.709

Audio #1
ID                                       : 2
Format                                   : DTS
Format/Info                              : Digital Theater Systems
Format profile                           : MA / Core
Mode                                     : 16
Format settings, Endianness              : Big
Codec ID                                 : A_DTS
Duration                                 : 3 min 5 s
Bit rate mode                            : Variable / Constant
Bit rate                                 : Unknown / 1 509 kb/s
Channel(s)                               : 6 channels
Channel positions                        : Front: L C R, Side: L R, LFE
Sampling rate                            : 48.0 kHz
Frame rate                               : 93.750 FPS (512 spf)
Bit depth                                : 24 bits
Compression mode                         : Lossless / Lossy
Title                                    : Surround
Language                                 : English
Default                                  : Yes
Forced                                   : No

Audio #2
ID                                       : 3
Format                                   : DTS
Format/Info                              : Digital Theater Systems
Mode                                     : 16
Format settings, Endianness              : Big
Codec ID                                 : A_DTS
Duration                                 : 3 min 5 s
Bit rate mode                            : Constant
Bit rate                                 : 768 kb/s
Channel(s)                               : 6 channels
Channel positions                        : Front: L C R, Side: L R, LFE
Sampling rate                            : 48.0 kHz
Frame rate                               : 93.750 FPS (512 spf)
Bit depth                                : 24 bits
Compression mode                         : Lossy
Stream size                              : 17.0 MiB (4%)
Title                                    : Surround
Language                                 : Italian
Default                                  : No
Forced                                   : No

Text #1
ID                                       : 4
Format                                   : VobSub
Codec ID                                 : S_VOBSUB
Codec ID/Info                            : Picture based subtitle format used on DVDs
Language                                 : Italian
Default                                  : No
Forced                                   : No

Text #2
ID                                       : 5
Format                                   : VobSub
Codec ID                                 : S_VOBSUB
Codec ID/Info                            : Picture based subtitle format used on DVDs
Language                                 : Italian
Default                                  : No
Forced                                   : No

Menu
00:00:00.000                             : :(01)00:00:00:000
00:02:57.511                             : :(02)00:02:57:510

Post Reply