Handbreak 1.0.2 is unable to scan most of my flv files

Archive of historical bug reports.
Please use the GitHub link above to report issues.
Forum rules
*******************************
Please be aware we are now using GitHub for issue tracking and feature requests.
- This section of the forum is now closed to new topics.

*******************************
Post Reply
thorned
New User
Posts: 1
Joined: Sat Feb 18, 2017 3:04 pm

Handbreak 1.0.2 is unable to scan most of my flv files

Post by thorned »

Please describe the problem in as much detail as possible:
since i updated to version 10.0.2 most of the flv files that i generate are unable to be scanned. it just keeps scanning forever with no progress. please bare in mind these files used to scan and decode fine before this version

What are the steps to reproduce this problem:
just scan any over 4 GB flv file, it seems when i scan smaller ones they are fine

What version of HandBrake you are running:
10.0.2
What operating system and version and you running (e.g. OSX 10.11, Windows 7, Ubuntu 14):
windows 10 pro
If there was any exception or error displayed, please copy it and paste it here:
i do not seem to find an exception or an error, it just stops in the log here as you will see in the log below

Please include the scan or encode log:

Code: Select all

HandBrake 1.0.2 (2017012200) - 64bit
OS: Microsoft Windows NT 10.0.14393.0 - 64bit
CPU: Intel(R) Core(TM) i7-6700K CPU @ 4.00GHz
Ram: 32688 MB, 
GPU Information:
  NVIDIA GeForce GTX 980 Ti - 21.21.13.7866
Screen: 1920x1080
Temp Dir: C:\Users\Omar\AppData\Local\Temp\
Install Dir: C:\Program Files\Handbrake
Data Dir: C:\Users\Omar\AppData\Roaming\HandBrake Team\HandBrake\1.0.2.0

-------------------------------------------

[18:05:24] hb_init: starting libhb thread
[18:05:24] hb_init: starting libhb thread
[18:05:24] hb_init: starting libhb thread
[18:05:24] hb_init: starting libhb thread
[18:05:29] hb_init: starting libhb thread

 # Starting Scan ...

[18:05:29] CPU: Intel(R) Core(TM) i7-6700K CPU @ 4.00GHz
[18:05:29]  - Intel microarchitecture Skylake
[18:05:29]  - logical processor count: 8
[18:05:29] Intel Quick Sync Video support: no
[18:05:29] hb_scan: path=D:\Recordings\Raws\2017-02-17 21-43-30.mp4, title_index=0
udfread ERROR: ECMA 167 Volume Recognition failed
src/libbluray/disc/disc.c:274: failed opening UDF image D:\Recordings\Raws\2017-02-17 21-43-30.mp4
src/libbluray/disc/disc.c:352: error opening file BDMV\index.bdmv
src/libbluray/disc/disc.c:352: error opening file BDMV\BACKUP\index.bdmv
[18:05:29] bd: not a bd - trying as a stream/file instead
libdvdnav: Using dvdnav version 5.0.1
libdvdread: Encrypted DVD support unavailable.
libdvdread:DVDOpenFileUDF:UDFFindFile /VIDEO_TS/VIDEO_TS.IFO failed
libdvdread:DVDOpenFileUDF:UDFFindFile /VIDEO_TS/VIDEO_TS.BUP failed
libdvdread: Can't open file VIDEO_TS.IFO.
libdvdnav: vm: failed to read VIDEO_TS.IFO
[18:05:29] dvd: not a dvd - trying as a stream/file instead
Input #0, mov,mp4,m4a,3gp,3g2,mj2, from 'D:\Recordings\Raws\2017-02-17 21-43-30.mp4':
  Metadata:
    major_brand     : isom
    minor_version   : 1
    compatible_brands: isomavc1
    creation_time   : 2017-02-18 15:02:41
  Duration: 06:38:29.50, start: 0.000000, bitrate: 1920 kb/s
    Stream #0:0(und): Video: h264 (Main) [avc1 / 0x31637661]
      yuv420p, 1280x720, 1787 kb/s
      30 fps, 120 tbn (default)
    Metadata:
      creation_time   : 2017-02-18 15:02:41
      handler_name    : آ€
    Stream #0:1(und): Audio: aac (LC) [mp4a / 0x6134706D]
      48000 Hz, stereo, fltp, 129 kb/s (default)
    Metadata:
      creation_time   : 2017-02-18 15:03:08
      handler_name    : آ€
[18:05:29] scan: decoding previews for title 1
[18:05:29] scan: audio 0x1: aac, rate=48000Hz, bitrate=129020 Unknown (AAC) (2.0 ch)
[18:05:29] scan: 10 previews, 1280x720, 30.000 fps, autocrop = 0/0/0/0, aspect 16:9, PAR 1:1
[18:05:29] scan: supported video decoders: avcodec qsv
[18:05:29] libhb: scan thread found 1 valid title(s)
User avatar
s55
HandBrake Team
Posts: 9814
Joined: Sun Dec 24, 2006 1:05 pm

Re: Handbreak 1.0.2 is unable to scan most of my flv files

Post by s55 »

Are you able to provide a short sample file please?
Post Reply