Fallback issue

Report and discuss *new*, *consistent*, *reproducible* bugs here
Post Reply
rollin_eng
Veteran User
Posts: 2106
Joined: Wed May 04, 2011 11:06 pm

Fallback issue

Post by rollin_eng » Fri Feb 17, 2017 6:20 pm

Please describe the problem in as much detail as possible:

AC3 Passthrough of a DTS source does not fallback to AC3 encoder.

What are the steps to reproduce this problem:

See log.

What version of HandBrake you are running:

Nightly.

What operating system and version and you running (e.g. OSX 10.11, Windows 7, Ubuntu 14):

Windows 8.1

If there was any exception or error displayed, please copy it and paste it here:

See log.

Please include the scan or encode log:

Code: Select all

HandBrake Nightly 20170212180329-df56010-master (2017021401) - 64bit
OS: Microsoft Windows NT 6.3.9600.0 - 64bit
CPU: Intel(R) Core(TM) i7-4770 CPU @ 3.40GHz
Ram: 32719 MB, 
GPU Information:
  AMD Radeon (TM) R9 200 Series - 21.19.411.0
Screen: 1920x1080
Temp Dir: C:\Users\xxx\AppData\Local\Temp\
Install Dir: C:\Program Files\HandBrake Nightly
Data Dir: C:\Users\xxx\AppData\Roaming\HandBrake Team\HandBrake\1.0.3.0

-------------------------------------------


# Starting Encode ...

[17:58:48] hb_init: starting libhb thread
[17:58:48] 1 job(s) to process
[17:58:48] json job:
{
  "Audio": {
    "AudioList": [
      {
        "Bitrate": 160,
        "DRC": 0.0,
        "Encoder": 65536,
        "Gain": 0.0,
        "Mixdown": 6,
        "NormalizeMixLevel": false,
        "Samplerate": 0,
        "Track": 0,
        "DitherMethod": 0
      },
      {
        "DRC": 0.0,
        "Encoder": 1073743872,
        "Gain": 0.0,
        "Mixdown": -1,
        "NormalizeMixLevel": false,
        "Samplerate": 0,
        "Track": 0,
        "DitherMethod": 0
      }
    ],
    "CopyMask": [
      1073807360,
      1073743872,
      1074003968,
      1073750016,
      1090519040,
      1074790400,
      1074266112,
      1107296256
    ],
    "FallbackEncoder": 2048
  },
  "Destination": {
    "ChapterList": [
      {
        "Name": "Chapter 1"
      },
      {
        "Name": "Chapter 2"
      },
      {
        "Name": "Chapter 3"
      },
      {
        "Name": "Chapter 4"
      },
      {
        "Name": "Chapter 5"
      },
      {
        "Name": "Chapter 6"
      },
      {
        "Name": "Chapter 7"
      },
      {
        "Name": "Chapter 8"
      },
      {
        "Name": "Chapter 9"
      },
      {
        "Name": "Chapter 10"
      },
      {
        "Name": "Chapter 11"
      },
      {
        "Name": "Chapter 12"
      },
      {
        "Name": "Chapter 13"
      },
      {
        "Name": "Chapter 14"
      },
      {
        "Name": "Chapter 15"
      },
      {
        "Name": "Chapter 16"
      },
      {
        "Name": "Chapter 17"
      },
      {
        "Name": "Chapter 18"
      },
      {
        "Name": "Chapter 19"
      },
      {
        "Name": "Chapter 20"
      },
      {
        "Name": "Chapter 21"
      },
      {
        "Name": "Chapter 22"
      },
      {
        "Name": "Chapter 23"
      },
      {
        "Name": "Chapter 24"
      },
      {
        "Name": "Chapter 25"
      },
      {
        "Name": "Chapter 26"
      },
      {
        "Name": "Chapter 27"
      },
      {
        "Name": "Chapter 28"
      },
      {
        "Name": "Chapter 29"
      },
      {
        "Name": "Chapter 30"
      },
      {
        "Name": "Chapter 31"
      },
      {
        "Name": "Chapter 32"
      },
      {
        "Name": "Chapter 33"
      },
      {
        "Name": "Chapter 34"
      },
      {
        "Name": "Chapter 35"
      },
      {
        "Name": "Chapter 36"
      },
      {
        "Name": "Chapter 37"
      },
      {
        "Name": "Chapter 38"
      },
      {
        "Name": "Chapter 39"
      },
      {
        "Name": "Chapter 40"
      },
      {
        "Name": "Chapter 41"
      },
      {
        "Name": "Chapter 42"
      },
      {
        "Name": "Chapter 43"
      },
      {
        "Name": "Chapter 44"
      },
      {
        "Name": "Chapter 45"
      },
      {
        "Name": "Chapter 46"
      },
      {
        "Name": "Chapter 47"
      },
      {
        "Name": "Chapter 48"
      }
    ],
    "ChapterMarkers": true,
    "File": "d:\\The Lord Of The Rings The Fellowship Of The Ring (ext ) - Pt 1 T00 (1)-2.m4v",
    "Mp4Options": {
      "IpodAtom": false,
      "Mp4Optimize": false
    },
    "Mux": 131072
  },
  "Filters": {
    "FilterList": [
      {
        "ID": 4,
        "Settings": {
          "mode": "7"
        }
      },
      {
        "ID": 3,
        "Settings": {
          "block-height": "16",
          "block-thresh": "40",
          "block-width": "16",
          "filter-mode": "2",
          "mode": "3",
          "motion-thresh": "1",
          "spatial-metric": "2",
          "spatial-thresh": "1"
        }
      },
      {
        "ID": 11,
        "Settings": {
          "crop-bottom": "140",
          "crop-left": "0",
          "crop-right": "0",
          "crop-top": "140",
          "height": "800",
          "width": "1920"
        }
      },
      {
        "ID": 6,
        "Settings": {
          "mode": "2",
          "rate": "27000000/450000"
        }
      }
    ]
  },
  "PAR": {
    "Num": 1,
    "Den": 1
  },
  "Metadata": {},
  "SequenceID": 0,
  "Source": {
    "Angle": 1,
    "Range": {
      "Type": "chapter",
      "Start": 9,
      "End": 9
    },
    "Title": 1,
    "Path": "D:\\THE_LORD_OF_THE_RINGS_THE_FELLOWSHIP_OF_THE_RING_(EXT_)_-_PT_1\\THE_LORD_OF_THE_RINGS_THE_FELLOWSHIP_OF_THE_RING_(EXT_)_-_PT_1_t00 (1).mkv"
  },
  "Subtitle": {
    "Search": {
      "Burn": true,
      "Default": false,
      "Enable": true,
      "Forced": true
    },
    "SubtitleList": []
  },
  "Video": {
    "Encoder": 65536,
    "Level": "4.2",
    "TwoPass": false,
    "Turbo": false,
    "ColorMatrixCode": 0,
    "Options": "",
    "Preset": "medium",
    "Profile": "high",
    "Quality": 22.0,
    "OpenCL": false,
    "HWDecode": false,
    "QSV": {
      "Decode": false,
      "AsyncDepth": 0
    }
  }
}
[17:58:48] CPU: Intel(R) Core(TM) i7-4770 CPU @ 3.40GHz
[17:58:48]  - Intel microarchitecture Haswell
[17:58:48]  - logical processor count: 8
[17:58:48] Intel Quick Sync Video support: no
[17:58:48] hb_scan: path=D:\THE_LORD_OF_THE_RINGS_THE_FELLOWSHIP_OF_THE_RING_(EXT_)_-_PT_1\THE_LORD_OF_THE_RINGS_THE_FELLOWSHIP_OF_THE_RING_(EXT_)_-_PT_1_t00 (1).mkv, title_index=1
udfread ERROR: ECMA 167 Volume Recognition failed
src/libbluray/disc/disc.c:274: failed opening UDF image D:\THE_LORD_OF_THE_RINGS_THE_FELLOWSHIP_OF_THE_RING_(EXT_)_-_PT_1\THE_LORD_OF_THE_RINGS_THE_FELLOWSHIP_OF_THE_RING_(EXT_)_-_PT_1_t00 (1).mkv
src/libbluray/disc/disc.c:352: error opening file BDMV\index.bdmv
src/libbluray/disc/disc.c:352: error opening file BDMV\BACKUP\index.bdmv
[17:58:48] bd: not a bd - trying as a stream/file instead
libdvdnav: Using dvdnav version 5.0.1
libdvdread: Encrypted DVD support unavailable.
libdvdread:DVDOpenFileUDF:UDFFindFile /VIDEO_TS/VIDEO_TS.IFO failed
libdvdread:DVDOpenFileUDF:UDFFindFile /VIDEO_TS/VIDEO_TS.BUP failed
libdvdread: Can't open file VIDEO_TS.IFO.
libdvdnav: vm: failed to read VIDEO_TS.IFO
[17:58:48] dvd: not a dvd - trying as a stream/file instead
Input #0, matroska,webm, from 'D:\THE_LORD_OF_THE_RINGS_THE_FELLOWSHIP_OF_THE_RING_(EXT_)_-_PT_1\THE_LORD_OF_THE_RINGS_THE_FELLOWSHIP_OF_THE_RING_(EXT_)_-_PT_1_t00 (1).mkv':
  Metadata:
    title           : THE LORD OF THE RINGS: THE FELLOWSHIP OF THE RING (EXT.) - PT.1
  Duration: 03:48:17.77, start: 0.000000, bitrate: N/A
    Chapter #0:0: start 0.000000, end 456.789667
    Metadata:
      title           : Chapter 01
    Chapter #0:1: start 456.789667, end 635.551583
    Metadata:
      title           : Chapter 02
    Chapter #0:2: start 635.551583, end 939.813875
    Metadata:
      title           : Chapter 03
    Chapter #0:3: start 939.813875, end 1198.447250
    Metadata:
      title           : Chapter 04
    Chapter #0:4: start 1198.447250, end 1532.572708
    Metadata:
      title           : Chapter 05
    Chapter #0:5: start 1532.572708, end 1797.337208
    Metadata:
      title           : Chapter 06
    Chapter #0:6: start 1797.337208, end 1930.637042
    Metadata:
      title           : Chapter 07
    Chapter #0:7: start 1930.637042, end 2091.756333
    Metadata:
      title           : Chapter 08
    Chapter #0:8: start 2091.756333, end 2178.176000
    Metadata:
      title           : Chapter 09
    Chapter #0:9: start 2178.176000, end 2704.118083
    Metadata:
      title           : Chapter 10
    Chapter #0:10: start 2704.118083, end 2804.259792
    Metadata:
      title           : Chapter 11
    Chapter #0:11: start 2804.259792, end 3081.161417
    Metadata:
      title           : Chapter 12
    Chapter #0:12: start 3081.161417, end 3312.392417
    Metadata:
      title           : Chapter 13
    Chapter #0:13: start 3312.392417, end 3450.029917
    Metadata:
      title           : Chapter 14
    Chapter #0:14: start 3450.029917, end 3811.474333
    Metadata:
      title           : Chapter 15
    Chapter #0:15: start 3811.474333, end 4036.073708
    Metadata:
      title           : Chapter 16
    Chapter #0:16: start 4036.073708, end 4133.420958
    Metadata:
      title           : Chapter 17
    Chapter #0:17: start 4133.420958, end 4235.898333
    Metadata:
      title           : Chapter 18
    Chapter #0:18: start 4235.898333, end 4515.010500
    Metadata:
      title           : Chapter 19
    Chapter #0:19: start 4515.010500, end 4666.578583
    Metadata:
      title           : Chapter 20
    Chapter #0:20: start 4666.578583, end 5051.546500
    Metadata:
      title           : Chapter 21
    Chapter #0:21: start 5051.546500, end 5172.458958
    Metadata:
      title           : Chapter 22
    Chapter #0:22: start 5172.458958, end 5381.542833
    Metadata:
      title           : Chapter 23
    Chapter #0:23: start 5381.542833, end 5594.297042
    Metadata:
      title           : Chapter 24
    Chapter #0:24: start 5594.297042, end 5754.039958
    Metadata:
      title           : Chapter 25
    Chapter #0:25: start 5754.039958, end 5852.930417
    Metadata:
      title           : Chapter 26
    Chapter #0:26: start 5852.930417, end 6343.420417
    Metadata:
      title           : Chapter 27
    Chapter #0:27: start 6343.420708, end 6419.204750
    Metadata:
      title           : Chapter 01
    Chapter #0:28: start 6419.204750, end 6522.599708
    Metadata:
      title           : Chapter 02
    Chapter #0:29: start 6522.599708, end 6600.010375
    Metadata:
      title           : Chapter 03
    Chapter #0:30: start 6600.010375, end 6785.821000
    Metadata:
      title           : Chapter 04
    Chapter #0:31: start 6785.821000, end 7072.107000
    Metadata:
      title           : Chapter 05
    Chapter #0:32: start 7072.107000, end 7457.325167
    Metadata:
      title           : Chapter 06
    Chapter #0:33: start 7457.325167, end 7847.840292
    Metadata:
      title           : Chapter 07
    Chapter #0:34: start 7847.840292, end 8412.279167
    Metadata:
      title           : Chapter 08
    Chapter #0:35: start 8412.279167, end 8993.735042
    Metadata:
      title           : Chapter 09
    Chapter #0:36: start 8993.735042, end 9186.636083
    Metadata:
      title           : Chapter 10
    Chapter #0:37: start 9186.636083, end 9623.364042
    Metadata:
      title           : Chapter 11
    Chapter #0:38: start 9623.364042, end 9963.370375
    Metadata:
      title           : Chapter 12
    Chapter #0:39: start 9963.370375, end 10064.805042
    Metadata:
      title           : Chapter 13
    Chapter #0:40: start 10064.805042, end 10387.544125
    Metadata:
      title           : Chapter 14
    Chapter #0:41: start 10387.544125, end 10679.794417
    Metadata:
      title           : Chapter 15
    Chapter #0:42: start 10679.794417, end 11067.598500
    Metadata:
      title           : Chapter 16
    Chapter #0:43: start 11067.598500, end 11503.534000
    Metadata:
      title           : Chapter 17
    Chapter #0:44: start 11503.534000, end 11665.821125
    Metadata:
      title           : Chapter 18
    Chapter #0:45: start 11665.821125, end 12044.074000
    Metadata:
      title           : Chapter 19
    Chapter #0:46: start 12044.074000, end 12504.534000
    Metadata:
      title           : Chapter 20
    Chapter #0:47: start 12504.534000, end 13697.767708
    Metadata:
      title           : Chapter 21
    Stream #0:0(eng): Video: h264 (High)
      yuv420p, 1920x1080 [PAR 1:1 DAR 16:9], PAR 1:1 DAR 16:9
      23.98 fps, 1k tbn
    Metadata:
      BPS             : 29855489
      BPS-eng         : 29855489
      DURATION        : 03:48:17.768000000
      DURATION-eng    : 03:48:17.768000000
      NUMBER_OF_FRAMES: 328418
      NUMBER_OF_FRAMES-eng: 328418
      NUMBER_OF_BYTES : 51119195614
      NUMBER_OF_BYTES-eng: 51119195614
      _STATISTICS_WRITING_APP: mkvmerge v9.8.0 ('Kuglblids') 64bit
      _STATISTICS_WRITING_APP-eng: mkvmerge v9.8.0 ('Kuglblids') 64bit
      _STATISTICS_WRITING_DATE_UTC: 2017-02-17 17:11:39
      _STATISTICS_WRITING_DATE_UTC-eng: 2017-02-17 17:11:39
      _STATISTICS_TAGS: BPS DURATION NUMBER_OF_FRAMES NUMBER_OF_BYTES
      _STATISTICS_TAGS-eng: BPS DURATION NUMBER_OF_FRAMES NUMBER_OF_BYTES
    Stream #0:1(eng): Audio: dts (DTS-ES)
      48000 Hz, 6.1, fltp, 1536 kb/s (default)
    Metadata:
      title           : Surround 5.1
      BPS             : 1508880
      BPS-eng         : 1508880
      DURATION        : 03:48:17.778000000
      DURATION-eng    : 03:48:17.778000000
      NUMBER_OF_FRAMES: 1284065
      NUMBER_OF_FRAMES-eng: 1284065
      NUMBER_OF_BYTES : 2583538780
      NUMBER_OF_BYTES-eng: 2583538780
      _STATISTICS_WRITING_APP: mkvmerge v9.8.0 ('Kuglblids') 64bit
      _STATISTICS_WRITING_APP-eng: mkvmerge v9.8.0 ('Kuglblids') 64bit
      _STATISTICS_WRITING_DATE_UTC: 2017-02-17 17:11:39
      _STATISTICS_WRITING_DATE_UTC-eng: 2017-02-17 17:11:39
      _STATISTICS_TAGS: BPS DURATION NUMBER_OF_FRAMES NUMBER_OF_BYTES
      _STATISTICS_TAGS-eng: BPS DURATION NUMBER_OF_FRAMES NUMBER_OF_BYTES
    Stream #0:2(eng): Subtitle: hdmv_pgs_subtitle
    Metadata:
      BPS             : 10330
      BPS-eng         : 10330
      DURATION        : 03:19:44.327000000
      DURATION-eng    : 03:19:44.327000000
      NUMBER_OF_FRAMES: 3656
      NUMBER_OF_FRAMES-eng: 3656
      NUMBER_OF_BYTES : 15474959
      NUMBER_OF_BYTES-eng: 15474959
      _STATISTICS_WRITING_APP: mkvmerge v9.8.0 ('Kuglblids') 64bit
      _STATISTICS_WRITING_APP-eng: mkvmerge v9.8.0 ('Kuglblids') 64bit
      _STATISTICS_WRITING_DATE_UTC: 2017-02-17 17:11:39
      _STATISTICS_WRITING_DATE_UTC-eng: 2017-02-17 17:11:39
      _STATISTICS_TAGS: BPS DURATION NUMBER_OF_FRAMES NUMBER_OF_BYTES
      _STATISTICS_TAGS-eng: BPS DURATION NUMBER_OF_FRAMES NUMBER_OF_BYTES
    Stream #0:3(eng): Subtitle: hdmv_pgs_subtitle
    Metadata:
      BPS             : 454
      BPS-eng         : 454
      DURATION        : 01:32:49.544000000
      DURATION-eng    : 01:32:49.544000000
      NUMBER_OF_FRAMES: 64
      NUMBER_OF_FRAMES-eng: 64
      NUMBER_OF_BYTES : 316243
      NUMBER_OF_BYTES-eng: 316243
      _STATISTICS_WRITING_APP: mkvmerge v9.8.0 ('Kuglblids') 64bit
      _STATISTICS_WRITING_APP-eng: mkvmerge v9.8.0 ('Kuglblids') 64bit
      _STATISTICS_WRITING_DATE_UTC: 2017-02-17 17:11:39
      _STATISTICS_WRITING_DATE_UTC-eng: 2017-02-17 17:11:39
      _STATISTICS_TAGS: BPS DURATION NUMBER_OF_FRAMES NUMBER_OF_BYTES
      _STATISTICS_TAGS-eng: BPS DURATION NUMBER_OF_FRAMES NUMBER_OF_BYTES
    Stream #0:4(eng): Subtitle: hdmv_pgs_subtitle
    Metadata:
      BPS             : 2351
      BPS-eng         : 2351
      DURATION        : 03:28:22.136000000
      DURATION-eng    : 03:28:22.136000000
      NUMBER_OF_FRAMES: 7436
      NUMBER_OF_FRAMES-eng: 7436
      NUMBER_OF_BYTES : 3674250
      NUMBER_OF_BYTES-eng: 3674250
      _STATISTICS_WRITING_APP: mkvmerge v9.8.0 ('Kuglblids') 64bit
      _STATISTICS_WRITING_APP-eng: mkvmerge v9.8.0 ('Kuglblids') 64bit
      _STATISTICS_WRITING_DATE_UTC: 2017-02-17 17:11:39
      _STATISTICS_WRITING_DATE_UTC-eng: 2017-02-17 17:11:39
      _STATISTICS_TAGS: BPS DURATION NUMBER_OF_FRAMES NUMBER_OF_BYTES
      _STATISTICS_TAGS-eng: BPS DURATION NUMBER_OF_FRAMES NUMBER_OF_BYTES
    Stream #0:5(eng): Subtitle: hdmv_pgs_subtitle
    Metadata:
      BPS             : 1755
      BPS-eng         : 1755
      DURATION        : 03:27:33.254000000
      DURATION-eng    : 03:27:33.254000000
      NUMBER_OF_FRAMES: 4861
      NUMBER_OF_FRAMES-eng: 4861
      NUMBER_OF_BYTES : 2732212
      NUMBER_OF_BYTES-eng: 2732212
      _STATISTICS_WRITING_APP: mkvmerge v9.8.0 ('Kuglblids') 64bit
      _STATISTICS_WRITING_APP-eng: mkvmerge v9.8.0 ('Kuglblids') 64bit
      _STATISTICS_WRITING_DATE_UTC: 2017-02-17 17:11:39
      _STATISTICS_WRITING_DATE_UTC-eng: 2017-02-17 17:11:39
      _STATISTICS_TAGS: BPS DURATION NUMBER_OF_FRAMES NUMBER_OF_BYTES
      _STATISTICS_TAGS-eng: BPS DURATION NUMBER_OF_FRAMES NUMBER_OF_BYTES
    Stream #0:6(eng): Subtitle: hdmv_pgs_subtitle
    Metadata:
      BPS             : 2897
      BPS-eng         : 2897
      DURATION        : 03:28:01.574000000
      DURATION-eng    : 03:28:01.574000000
      NUMBER_OF_FRAMES: 8666
      NUMBER_OF_FRAMES-eng: 8666
      NUMBER_OF_BYTES : 4521300
      NUMBER_OF_BYTES-eng: 4521300
      _STATISTICS_WRITING_APP: mkvmerge v9.8.0 ('Kuglblids') 64bit
      _STATISTICS_WRITING_APP-eng: mkvmerge v9.8.0 ('Kuglblids') 64bit
      _STATISTICS_WRITING_DATE_UTC: 2017-02-17 17:11:39
      _STATISTICS_WRITING_DATE_UTC-eng: 2017-02-17 17:11:39
      _STATISTICS_TAGS: BPS DURATION NUMBER_OF_FRAMES NUMBER_OF_BYTES
      _STATISTICS_TAGS-eng: BPS DURATION NUMBER_OF_FRAMES NUMBER_OF_BYTES
    Stream #0:7(eng): Subtitle: hdmv_pgs_subtitle
    Metadata:
      BPS             : 3819
      BPS-eng         : 3819
      DURATION        : 03:28:41.030000000
      DURATION-eng    : 03:28:41.030000000
      NUMBER_OF_FRAMES: 14291
      NUMBER_OF_FRAMES-eng: 14291
      NUMBER_OF_BYTES : 5978645
      NUMBER_OF_BYTES-eng: 5978645
      _STATISTICS_WRITING_APP: mkvmerge v9.8.0 ('Kuglblids') 64bit
      _STATISTICS_WRITING_APP-eng: mkvmerge v9.8.0 ('Kuglblids') 64bit
      _STATISTICS_WRITING_DATE_UTC: 2017-02-17 17:11:39
      _STATISTICS_WRITING_DATE_UTC-eng: 2017-02-17 17:11:39
      _STATISTICS_TAGS: BPS DURATION NUMBER_OF_FRAMES NUMBER_OF_BYTES
      _STATISTICS_TAGS-eng: BPS DURATION NUMBER_OF_FRAMES NUMBER_OF_BYTES
[17:58:48] scan: decoding previews for title 1
[17:58:48] scan: audio 0x1: dca, rate=48000Hz, bitrate=1536000 English (DTS-ES) (6.1 ch)
[17:58:50] scan: 10 previews, 1920x1080, 23.976 fps, autocrop = 140/140/0/0, aspect 16:9, PAR 1:1
[17:58:50] scan: supported video decoders: avcodec qsv
[17:58:50] libhb: scan thread found 1 valid title(s)
[17:58:50] starting job
[17:58:50] decomb filter thread started for segment 0
[17:58:50] decomb filter thread started for segment 4
[17:58:50] decomb filter thread started for segment 2
[17:58:50] decomb filter thread started for segment 3
[17:58:50] decomb filter thread started for segment 1
[17:58:50] decomb filter thread started for segment 5
[17:58:50] decomb filter thread started for segment 6
[17:58:50] decomb filter thread started for segment 7
[17:58:50] decomb check thread started for segment 0
[17:58:50] decomb check thread started for segment 1
[17:58:50] decomb check thread started for segment 2
[17:58:50] mask filter thread started for segment 5
[17:58:50] decomb check thread started for segment 4
[17:58:50] decomb check thread started for segment 5
[17:58:50] decomb check thread started for segment 7
[17:58:50] mask erode thread started for segment 4
[17:58:50] mask filter thread started for segment 0
[17:58:50] mask filter thread started for segment 1
[17:58:50] mask filter thread started for segment 2
[17:58:50] mask filter thread started for segment 3
[17:58:50] mask filter thread started for segment 4
[17:58:50] mask dilate thread started for segment 7
[17:58:50] mask filter thread started for segment 6
[17:58:50] yadif thread started for segment 2
[17:58:50] yadif thread started for segment 5
[17:58:50] mask erode thread started for segment 1
[17:58:50] mask erode thread started for segment 2
[17:58:50] mask erode thread started for segment 3
[17:58:50] decomb check thread started for segment 6
[17:58:50] work: only 1 chapter, disabling chapter markers
[17:58:50] job configuration:
[17:58:50]  * source
[17:58:50]    + D:\THE_LORD_OF_THE_RINGS_THE_FELLOWSHIP_OF_THE_RING_(EXT_)_-_PT_1\THE_LORD_OF_THE_RINGS_THE_FELLOWSHIP_OF_THE_RING_(EXT_)_-_PT_1_t00 (1).mkv
[17:58:50]    + title 1, chapter(s) 9 to 9
[17:58:50]    + container: matroska,webm
[17:58:50]  * destination
[17:58:50] mask erode thread started for segment 6
[17:58:50]    + d:\The Lord Of The Rings The Fellowship Of The Ring (ext ) - Pt 1 T00 (1)-2.m4v
[17:58:50]    + container: MPEG-4 (libavformat)
[17:58:50]  * video track
[17:58:50] mask erode thread started for segment 5
[17:58:50]    + decoder: h264
[17:58:50]    + filters
[17:58:50]      + Comb Detect (mode=3:spatial-metric=2:motion-thresh=1:spatial-thresh=1:filter-mode=2:block-thresh=40:block-width=16:block-height=16)
[17:58:50] mask erode thread started for segment 7
[17:58:50]      + Decomb (mode=39)
[17:58:50]      + Framerate Shaper (mode=2:rate=27000000/450000)
[17:58:50]        + frame rate: 23.976 fps -> peak rate limited to 60.000 fps
[17:58:50] mask dilate thread started for segment 0
[17:58:50]      + Crop and Scale (width=1920:height=800:crop-top=140:crop-bottom=140:crop-left=0:crop-right=0)
[17:58:50] mask dilate thread started for segment 1
[17:58:50]        + source: 1920 * 1080, crop (140/140/0/0): 1920 * 800, scale: 1920 * 800
[17:58:50]    + Output geometry
[17:58:50]      + storage dimensions: 1920 x 800
[17:58:50]      + pixel aspect ratio: 1 : 1
[17:58:50]      + display dimensions: 1920 x 800
[17:58:50]  * Foreign Audio Search: Render/Burn-in, Forced Only
[17:58:50]    + subtitle, English (track 2, id 0x2) Picture [PGS]
[17:58:50]    + subtitle, English (track 3, id 0x3) Picture [PGS]
[17:58:50]    + subtitle, English (track 4, id 0x4) Picture [PGS]
[17:58:50]    + subtitle, English (track 5, id 0x5) Picture [PGS]
[17:58:50]    + subtitle, English (track 6, id 0x6) Picture [PGS]
[17:58:50]    + subtitle, English (track 7, id 0x7) Picture [PGS]
[17:58:50] mask dilate thread started for segment 2
[17:58:50] mask dilate thread started for segment 3
[17:58:50] mask dilate thread started for segment 4
[17:58:50] mask dilate thread started for segment 5
[17:58:50] mask dilate thread started for segment 6
[17:58:50] decomb check thread started for segment 3
[17:58:50] yadif thread started for segment 0
[17:58:50] yadif thread started for segment 1
[17:58:50] mask filter thread started for segment 7
[17:58:50] yadif thread started for segment 3
[17:58:50] yadif thread started for segment 4
[17:58:50] mask erode thread started for segment 0
[17:58:50] yadif thread started for segment 6
[17:58:50] yadif thread started for segment 7
[17:58:52] sync: expecting 2072 video frames
[17:58:52] reader: end of chapter 9 (media 9) reached at media chapter 10
[17:58:52] reader: done. 1 scr changes
[17:58:52] work: average encoding speed for job is 0.000000 fps
[17:58:52] comb detect: heavy 0 | light 0 | uncombed 0 | total 0
[17:58:52] decomb: deinterlaced 0 | blended 0 | unfiltered 0 | total 0
[17:58:52] vfr: 0 frames output, 0 dropped and 0 duped for CFR/PFR
[17:58:52] vfr: lost time: 0 (0 frames)
[17:58:52] vfr: gained time: 0 (0 frames) (0 not accounted for)
[17:58:52] h264-decoder done: 0 frames, 0 decoder errors
[17:58:52] sync: got 0 frames, 2072 expected
[17:58:52] Subtitle track 2 (id 0x2) 'English': 25 hits (0 forced)
[17:58:52] Subtitle track 3 (id 0x3) 'English': 0 hits (0 forced)
[17:58:52] Subtitle track 4 (id 0x4) 'English': 63 hits (0 forced)
[17:58:52] Subtitle track 5 (id 0x5) 'English': 42 hits (0 forced)
[17:58:52] Subtitle track 6 (id 0x6) 'English': 126 hits (0 forced)
[17:58:52] Subtitle track 7 (id 0x7) 'English': 147 hits (0 forced)
[17:58:52] No candidate detected during subtitle scan
[17:58:52] starting job
[17:58:52] decomb filter thread started for segment 0
[17:58:52] decomb filter thread started for segment 5
[17:58:52] decomb filter thread started for segment 7
[17:58:52] decomb filter thread started for segment 3
[17:58:52] decomb filter thread started for segment 4
[17:58:52] decomb filter thread started for segment 1
[17:58:52] decomb check thread started for segment 7
[17:58:52] mask filter thread started for segment 0
[17:58:52] decomb check thread started for segment 0
[17:58:52] decomb check thread started for segment 2
[17:58:52] mask filter thread started for segment 6
[17:58:52] mask erode thread started for segment 0
[17:58:52] mask erode thread started for segment 2
[17:58:52] mask erode thread started for segment 4
[17:58:52] decomb check thread started for segment 6
[17:58:52] decomb filter thread started for segment 6
[17:58:52] decomb filter thread started for segment 2
[17:58:52] mask dilate thread started for segment 4
[17:58:52] mask dilate thread started for segment 6
[17:58:52] yadif thread started for segment 0
[17:58:52] yadif thread started for segment 1
[17:58:52] mask filter thread started for segment 5
[17:58:52] mask filter thread started for segment 7
[17:58:52] yadif thread started for segment 6
[17:58:52] decomb check thread started for segment 3
[17:58:52] Passthru requested and input codec is not the same as output codec for track 2, dropping track
[17:58:52] work: track 1, dithering not supported by codec
[17:58:52] mask erode thread started for segment 1
[17:58:52] mask erode thread started for segment 3
[17:58:52] work: only 1 chapter, disabling chapter markers
[17:58:52] job configuration:
[17:58:52]  * source
[17:58:52]    + D:\THE_LORD_OF_THE_RINGS_THE_FELLOWSHIP_OF_THE_RING_(EXT_)_-_PT_1\THE_LORD_OF_THE_RINGS_THE_FELLOWSHIP_OF_THE_RING_(EXT_)_-_PT_1_t00 (1).mkv
[17:58:52]    + title 1, chapter(s) 9 to 9
[17:58:52] decomb check thread started for segment 4
[17:58:52]    + container: matroska,webm
[17:58:52]  * destination
[17:58:52]    + d:\The Lord Of The Rings The Fellowship Of The Ring (ext ) - Pt 1 T00 (1)-2.m4v
[17:58:52]    + container: MPEG-4 (libavformat)
[17:58:52]  * video track
[17:58:52] decomb check thread started for segment 5
[17:58:52]    + decoder: h264
[17:58:52]    + filters
[17:58:52] mask erode thread started for segment 5
[17:58:52]      + Comb Detect (mode=3:spatial-metric=2:motion-thresh=1:spatial-thresh=1:filter-mode=2:block-thresh=40:block-width=16:block-height=16)
[17:58:52] mask erode thread started for segment 6
[17:58:52]      + Decomb (mode=39)
[17:58:52]      + Framerate Shaper (mode=2:rate=27000000/450000)
[17:58:52]        + frame rate: 23.976 fps -> peak rate limited to 60.000 fps
[17:58:52]      + Crop and Scale (width=1920:height=800:crop-top=140:crop-bottom=140:crop-left=0:crop-right=0)
[17:58:52] mask erode thread started for segment 7
[17:58:52]        + source: 1920 * 1080, crop (140/140/0/0): 1920 * 800, scale: 1920 * 800
[17:58:52]    + Output geometry
[17:58:52]      + storage dimensions: 1920 x 800
[17:58:52]      + pixel aspect ratio: 1 : 1
[17:58:52]      + display dimensions: 1920 x 800
[17:58:52]    + encoder: H.264 (libx264)
[17:58:52]      + preset:  medium
[17:58:52] mask dilate thread started for segment 0
[17:58:52]      + profile: high
[17:58:52]      + level:   4.2
[17:58:52]      + quality: 22.00 (RF)
[17:58:52] mask dilate thread started for segment 1
[17:58:52]  * audio track 1
[17:58:52]    + decoder: English (DTS-ES) (6.1 ch) (track 1, id 0x1)
[17:58:52]      + bitrate: 1536 kbps, samplerate: 48000 Hz
[17:58:52]    + mixdown: Dolby Pro Logic II
[17:58:52]    + encoder: AAC (libavcodec)
[17:58:52]      + bitrate: 160 kbps, samplerate: 48000 Hz
[17:58:52] mask dilate thread started for segment 2
[17:58:52] mask dilate thread started for segment 3
[17:58:52] mask filter thread started for segment 1
[17:58:52] mask dilate thread started for segment 5
[17:58:52] mask filter thread started for segment 3
[17:58:52] mask dilate thread started for segment 7
[17:58:52] mask filter thread started for segment 2
[17:58:52] mask filter thread started for segment 4
[17:58:52] yadif thread started for segment 2
[17:58:52] yadif thread started for segment 3
[17:58:52] yadif thread started for segment 4
[17:58:52] yadif thread started for segment 5
[17:58:52] decomb check thread started for segment 1
[17:58:52] yadif thread started for segment 7
[17:58:54] sync: expecting 2072 video frames
[17:58:54] encx264: min-keyint: 24, keyint: 240
[17:58:54] encx264: encoding at constant RF 22.000000
[17:58:54] encx264: unparsed options: level=4.2:vbv-bufsize=78125:vbv-maxrate=62500
x264 [info]: using SAR=1/1
x264 [info]: using cpu capabilities: MMX2 SSE2Fast SSSE3 SSE4.2 AVX FMA3 AVX2 LZCNT BMI2
x264 [info]: profile High, level 4.2
[17:58:54] sync: first pts video is 0
[17:58:54] sync: first pts audio 0x1 is 810
[17:58:54] sync: "Chapter 9" (9) at frame 2 time 3753
[17:59:57] reader: end of chapter 9 (media 9) reached at media chapter 10
[17:59:57] reader: done. 1 scr changes
[18:00:00] work: average encoding speed for job is 31.890553 fps
[18:00:00] comb detect: heavy 0 | light 32 | uncombed 2041 | total 2073
[18:00:00] decomb: deinterlaced 0 | blended 32 | unfiltered 2041 | total 2073
[18:00:00] vfr: 2073 frames output, 0 dropped and 0 duped for CFR/PFR
[18:00:00] vfr: lost time: 0 (0 frames)
[18:00:00] vfr: gained time: 0 (0 frames) (0 not accounted for)
[18:00:00] dca-decoder done: 8101 frames, 0 decoder errors
[18:00:00] h264-decoder done: 2073 frames, 0 decoder errors
[18:00:00] sync: got 2073 frames, 2072 expected
[18:00:00] sync: framerate min 23.981 fps, max 23.981 fps, avg 23.976 fps
x264 [info]: frame I:25    Avg QP:19.51  size: 91301
x264 [info]: frame P:631   Avg QP:21.91  size: 28720
x264 [info]: frame B:1417  Avg QP:23.16  size: 11213
x264 [info]: consecutive B-frames:  8.4%  0.4%  2.6% 88.6%
x264 [info]: mb I  I16..4: 15.5% 70.3% 14.2%
x264 [info]: mb P  I16..4:  3.4% 13.5%  1.0%  P16..4: 43.8% 10.3%  6.6%  0.0%  0.0%    skip:21.4%
x264 [info]: mb B  I16..4:  0.2%  1.0%  0.1%  B16..8: 44.1%  3.5%  0.5%  direct: 3.2%  skip:47.5%  L0:44.6% L1:52.0% BI: 3.5%
x264 [info]: 8x8 transform intra:74.7% inter:87.5%
x264 [info]: coded y,uvDC,uvAC intra: 54.5% 75.6% 42.1% inter: 16.4% 26.9% 5.0%
x264 [info]: i16 v,h,dc,p: 39% 15%  7% 39%
x264 [info]: i8 v,h,dc,ddl,ddr,vr,hd,vl,hu: 20% 11% 25%  6%  8%  9%  7%  8%  6%
x264 [info]: i4 v,h,dc,ddl,ddr,vr,hd,vl,hu: 27% 14% 14%  7% 10% 10%  7%  7%  4%
x264 [info]: i8c dc,h,v,p: 55% 15% 22%  8%
x264 [info]: Weighted P-Frames: Y:2.7% UV:0.8%
x264 [info]: ref P L0: 61.1% 12.8% 18.1%  7.8%  0.1%
x264 [info]: ref B L0: 91.2%  6.7%  2.0%
x264 [info]: ref B L1: 96.7%  3.3%
x264 [info]: kb/s:3358.15
[18:00:00] mux: track 0, 2073 frames, 36292915 bytes, 3356.45 kbps, fifo 1024
[18:00:00] mux: track 1, 4051 frames, 1731967 bytes, 160.18 kbps, fifo 2048
[18:00:00] libhb: work result = 0

# Encode Completed ...


User avatar
JohnAStebbins
HandBrake Team
Posts: 4977
Joined: Sat Feb 09, 2008 7:21 pm

Re: Fallback issue

Post by JohnAStebbins » Sat Feb 18, 2017 1:44 pm

Yes, known issue. Scott is waiting on me to create a new libhb function to assist in correct sanitizing of the audio selection. I just got sidetracked on mp4 edit list fun.

rollin_eng
Veteran User
Posts: 2106
Joined: Wed May 04, 2011 11:06 pm

Re: Fallback issue

Post by rollin_eng » Sat Feb 18, 2017 2:12 pm

Cool, any idea when this started as I will have to go back and re-encode a few rips?

Thanks.

User avatar
s55
HandBrake Team
Posts: 8688
Joined: Sun Dec 24, 2006 1:05 pm

Re: Fallback issue

Post by s55 » Sat Feb 18, 2017 2:14 pm

The behaviour hasn't changed as far as I know. I simply haven't implemented Passhtru equivalent encoder selection.

rollin_eng
Veteran User
Posts: 2106
Joined: Wed May 04, 2011 11:06 pm

Re: Fallback issue

Post by rollin_eng » Sat Feb 18, 2017 2:45 pm

Maybe I'm just confused then, but I was under the impression that HB would fallback to the relevant encoder if a passthrough was not available.

User avatar
s55
HandBrake Team
Posts: 8688
Joined: Sun Dec 24, 2006 1:05 pm

Re: Fallback issue

Post by s55 » Sat Feb 18, 2017 4:10 pm

Unless I'm mistaken, the Mac/Linux GUI work as follows for a given passthu optin:

1. AC3 Source, AC3 Passthru -> Passthru
2. DTS Source, AC3 Passthru -> AC3 Encoding
3. LPCM Source, AC3 Passthru -> Fallback Encoder (No Equiv Encoder)

Windows GUI skips 2 and that triggers libhb to just drop the track as can be seen in your log:
[17:58:52] Passthru requested and input codec is not the same as output codec for track 2, dropping track
It's not ideal behaviour, so something we are going to change.

User avatar
Rodeo
HandBrake Team
Posts: 11568
Joined: Tue Mar 03, 2009 8:55 pm

Re: Fallback issue

Post by Rodeo » Sat Feb 18, 2017 4:38 pm

s55 wrote:
Sat Feb 18, 2017 4:10 pm
Unless I'm mistaken, the Mac/Linux GUI work as follows for a given passthu optin:

1. AC3 Source, AC3 Passthru -> Passthru
2. DTS Source, AC3 Passthru -> AC3 Encoding
3. LPCM Source, AC3 Passthru -> Fallback Encoder (No Equiv Encoder)
That makes no sense, LPCM sources should behave like (2), we have an AC3 encoder. There's nothing special about PCM sources that makes them different from DTS.

User avatar
s55
HandBrake Team
Posts: 8688
Joined: Sun Dec 24, 2006 1:05 pm

Re: Fallback issue

Post by s55 » Sat Feb 18, 2017 4:51 pm

I guess the example should be something like

LCPM -> DTS Passthru -> Fallback

rollin_eng
Veteran User
Posts: 2106
Joined: Wed May 04, 2011 11:06 pm

Re: Fallback issue

Post by rollin_eng » Sat Feb 18, 2017 6:30 pm

I was under the impression pre v1.0x it was:

1. AC3 Source, AC3 Passthru -> Passthru
2. Any other source HB can understand, AC3 Passthru -> AC3 Encoding

Is this not the case?

User avatar
s55
HandBrake Team
Posts: 8688
Joined: Sun Dec 24, 2006 1:05 pm

Re: Fallback issue

Post by s55 » Sat Feb 18, 2017 7:17 pm

Don't think so. I certianly didn't change that behaviour unless the CLI was doing something different to libhb.

rollin_eng
Veteran User
Posts: 2106
Joined: Wed May 04, 2011 11:06 pm

Re: Fallback issue

Post by rollin_eng » Sat Feb 18, 2017 7:33 pm

This post by rodeo is whats confusing me:

viewtopic.php?f=12&t=35239#p165225
Rodeo wrote:
Mon Oct 17, 2016 8:00 pm
...Codec-specific passthru will always fall back to the encoder for the same format...
This is what I thought should happen and appears to be correct in 0.10.5

Code: Select all

HandBrake 0.10.5.0 - 64bit Version
OS: Microsoft Windows NT 6.2.9200.0 - 64bit
CPU: Intel(R) Core(TM) i7-4770 CPU @ 3.40GHz
Ram: 32719 MB, 
GPU Information:
  AMD Radeon (TM) R9 200 Series - 21.19.411.0
Screen: 1920x1080
Temp Dir: C:\Users\xxx\AppData\Local\Temp\
Install Dir: C:\Program Files\Handbrake
Data Dir: C:\Users\xxx\AppData\Roaming\HandBrake Team\HandBrake\0.10.5.0

-------------------------------------------

CLI Query:  -i "I:\MKV\THE_LORD_OF_THE_RINGS_THE_FELLOWSHIP_OF_THE_RING_(EXT_)_-_PT_1_t00 (1).mkv" -t 1 --angle 1 -c 9 -o "D:\The Lord Of The Rings The Fellowship Of The Ring (ext ) - Pt 1 T00 (1)-1.m4v"  -f mp4  --decomb -w 1920 --crop 140:140:0:0 --loose-anamorphic  --modulus 2 -e x264 -q 20 --vfr -a 1,1 -E av_aac,copy:ac3 -6 dpl2,none -R Auto,Auto -B 160,0 -D 0,0 --gain 0,0 --audio-fallback ac3 --markers="C:\Users\chazzpc\AppData\Local\Temp\The Lord Of The Rings The Fellowship Of The Ring (ext ) - Pt 1 T00 (1)-1-1-chapters.csv" --encoder-level="4.1"  --encoder-profile=high  --verbose=1

[19:28:29] hb_init: starting libhb thread
HandBrake 0.10.5 (2016021100) - MinGW x86_64 - https://handbrake.fr
8 CPUs detected
Opening I:\MKV\THE_LORD_OF_THE_RINGS_THE_FELLOWSHIP_OF_THE_RING_(EXT_)_-_PT_1_t00 (1).mkv...
[19:28:29] CPU: Intel(R) Core(TM) i7-4770 CPU @ 3.40GHz
[19:28:29]  - Intel microarchitecture Haswell
[19:28:29]  - logical processor count: 8
[19:28:30] OpenCL device #1: Advanced Micro Devices, Inc. Pitcairn
[19:28:30]  - OpenCL version: 1.2 AMD-APP (2236.10)
[19:28:30]  - driver version: 2236.10
[19:28:30]  - device type:    GPU
[19:28:30]  - supported:      YES
[19:28:30] Intel Quick Sync Video support: no
[19:28:30] hb_scan: path=I:\MKV\THE_LORD_OF_THE_RINGS_THE_FELLOWSHIP_OF_THE_RING_(EXT_)_-_PT_1_t00 (1).mkv, title_index=1
libbluray/bdnav/index_parse.c:162: indx_parse(): error opening I:\MKV\THE_LORD_OF_THE_RINGS_THE_FELLOWSHIP_OF_THE_RING_(EXT_)_-_PT_1_t00 (1).mkv/BDMV/index.bdmv
libbluray/bdnav/index_parse.c:162: indx_parse(): error opening I:\MKV\THE_LORD_OF_THE_RINGS_THE_FELLOWSHIP_OF_THE_RING_(EXT_)_-_PT_1_t00 (1).mkv/BDMV/BACKUP/index.bdmv
libbluray/bluray.c:2182: nav_get_title_list(I:\MKV\THE_LORD_OF_THE_RINGS_THE_FELLOWSHIP_OF_THE_RING_(EXT_)_-_PT_1_t00 (1).mkv) failed
[19:28:30] bd: not a bd - trying as a stream/file instead
libdvdnav: Using dvdnav version 5.0.1
libdvdread: Encrypted DVD support unavailable.
libdvdread:DVDOpenFileUDF:UDFFindFile /VIDEO_TS/VIDEO_TS.IFO failed
libdvdread:DVDOpenFileUDF:UDFFindFile /VIDEO_TS/VIDEO_TS.BUP failed
libdvdread: Can't open file VIDEO_TS.IFO.
libdvdnav: vm: failed to read VIDEO_TS.IFO
[19:28:30] dvd: not a dvd - trying as a stream/file instead
Input #0, matroska,webm, from 'I:\MKV\THE_LORD_OF_THE_RINGS_THE_FELLOWSHIP_OF_THE_RING_(EXT_)_-_PT_1_t00 (1).mkv':
  Metadata:
    title           : THE LORD OF THE RINGS: THE FELLOWSHIP OF THE RING (EXT.) - PT.1
  Duration: 03:48:17.77, start: 0.000000, bitrate: N/A
    Chapter #0.0: start 0.000000, end 456.789667
    Metadata:
      title           : Chapter 01
    Chapter #0.1: start 456.789667, end 635.551583
    Metadata:
      title           : Chapter 02
    Chapter #0.2: start 635.551583, end 939.813875
    Metadata:
      title           : Chapter 03
    Chapter #0.3: start 939.813875, end 1198.447250
    Metadata:
      title           : Chapter 04
    Chapter #0.4: start 1198.447250, end 1532.572708
    Metadata:
      title           : Chapter 05
    Chapter #0.5: start 1532.572708, end 1797.337208
    Metadata:
      title           : Chapter 06
    Chapter #0.6: start 1797.337208, end 1930.637042
    Metadata:
      title           : Chapter 07
    Chapter #0.7: start 1930.637042, end 2091.756333
    Metadata:
      title           : Chapter 08
    Chapter #0.8: start 2091.756333, end 2178.176000
    Metadata:
      title           : Chapter 09
    Chapter #0.9: start 2178.176000, end 2704.118083
    Metadata:
      title           : Chapter 10
    Chapter #0.10: start 2704.118083, end 2804.259792
    Metadata:
      title           : Chapter 11
    Chapter #0.11: start 2804.259792, end 3081.161417
    Metadata:
      title           : Chapter 12
    Chapter #0.12: start 3081.161417, end 3312.392417
    Metadata:
      title           : Chapter 13
    Chapter #0.13: start 3312.392417, end 3450.029917
    Metadata:
      title           : Chapter 14
    Chapter #0.14: start 3450.029917, end 3811.474333
    Metadata:
      title           : Chapter 15
    Chapter #0.15: start 3811.474333, end 4036.073708
    Metadata:
      title           : Chapter 16
    Chapter #0.16: start 4036.073708, end 4133.420958
    Metadata:
      title           : Chapter 17
    Chapter #0.17: start 4133.420958, end 4235.898333
    Metadata:
      title           : Chapter 18
    Chapter #0.18: start 4235.898333, end 4515.010500
    Metadata:
      title           : Chapter 19
    Chapter #0.19: start 4515.010500, end 4666.578583
    Metadata:
      title           : Chapter 20
    Chapter #0.20: start 4666.578583, end 5051.546500
    Metadata:
      title           : Chapter 21
    Chapter #0.21: start 5051.546500, end 5172.458958
    Metadata:
      title           : Chapter 22
    Chapter #0.22: start 5172.458958, end 5381.542833
    Metadata:
      title           : Chapter 23
    Chapter #0.23: start 5381.542833, end 5594.297042
    Metadata:
      title           : Chapter 24
    Chapter #0.24: start 5594.297042, end 5754.039958
    Metadata:
      title           : Chapter 25
    Chapter #0.25: start 5754.039958, end 5852.930417
    Metadata:
      title           : Chapter 26
    Chapter #0.26: start 5852.930417, end 6343.420417
    Metadata:
      title           : Chapter 27
    Chapter #0.27: start 6343.420708, end 6419.204750
    Metadata:
      title           : Chapter 01
    Chapter #0.28: start 6419.204750, end 6522.599708
    Metadata:
      title           : Chapter 02
    Chapter #0.29: start 6522.599708, end 6600.010375
    Metadata:
      title           : Chapter 03
    Chapter #0.30: start 6600.010375, end 6785.821000
    Metadata:
      title           : Chapter 04
    Chapter #0.31: start 6785.821000, end 7072.107000
    Metadata:
      title           : Chapter 05
    Chapter #0.32: start 7072.107000, end 7457.325167
    Metadata:
      title           : Chapter 06
    Chapter #0.33: start 7457.325167, end 7847.840292
    Metadata:
      title           : Chapter 07
    Chapter #0.34: start 7847.840292, end 8412.279167
    Metadata:
      title           : Chapter 08
    Chapter #0.35: start 8412.279167, end 8993.735042
    Metadata:
      title           : Chapter 09
    Chapter #0.36: start 8993.735042, end 9186.636083
    Metadata:
      title           : Chapter 10
    Chapter #0.37: start 9186.636083, end 9623.364042
    Metadata:
      title           : Chapter 11
    Chapter #0.38: start 9623.364042, end 9963.370375
    Metadata:
      title           : Chapter 12
    Chapter #0.39: start 9963.370375, end 10064.805042
    Metadata:
      title           : Chapter 13
    Chapter #0.40: start 10064.805042, end 10387.544125
    Metadata:
      title           : Chapter 14
    Chapter #0.41: start 10387.544125, end 10679.794417
    Metadata:
      title           : Chapter 15
    Chapter #0.42: start 10679.794417, end 11067.598500
    Metadata:
      title           : Chapter 16
    Chapter #0.43: start 11067.598500, end 11503.534000
    Metadata:
      title           : Chapter 17
    Chapter #0.44: start 11503.534000, end 11665.821125
    Metadata:
      title           : Chapter 18
    Chapter #0.45: start 11665.821125, end 12044.074000
    Metadata:
      title           : Chapter 19
    Chapter #0.46: start 12044.074000, end 12504.534000
    Metadata:
      title           : Chapter 20
    Chapter #0.47: start 12504.534000, end 13697.767708
    Metadata:
      title           : Chapter 21
    Stream #0.0(eng): Video: h264 (High), yuv420p, 1920x1080 [PAR 1:1 DAR 16:9], 23.98 fps, 1k tbn, 47.95 tbc
    Metadata:
      BPS             : 29855489
      BPS-eng         : 29855489
      DURATION        : 03:48:17.768000000
      DURATION-eng    : 03:48:17.768000000
      NUMBER_OF_FRAMES: 328418
      NUMBER_OF_FRAMES-eng: 328418
      NUMBER_OF_BYTES : 51119195614
      NUMBER_OF_BYTES-eng: 51119195614
      _STATISTICS_WRITING_APP: mkvmerge v9.8.0 ('Kuglblids') 64bit
      _STATISTICS_WRITING_APP-eng: mkvmerge v9.8.0 ('Kuglblids') 64bit
      _STATISTICS_WRITING_DATE_UTC: 2017-02-17 17:11:39
      _STATISTICS_WRITING_DATE_UTC-eng: 2017-02-17 17:11:39
      _STATISTICS_TAGS: BPS DURATION NUMBER_OF_FRAMES NUMBER_OF_BYTES
      _STATISTICS_TAGS-eng: BPS DURATION NUMBER_OF_FRAMES NUMBER_OF_BYTES
    Stream #0.1(eng): Audio: dca (DTS-ES), 48000 Hz, 6.1, fltp, 1536 kb/s (default)
    Metadata:
      title           : Surround 5.1
      BPS             : 1508880
      BPS-eng         : 1508880
      DURATION        : 03:48:17.778000000
      DURATION-eng    : 03:48:17.778000000
      NUMBER_OF_FRAMES: 1284065
      NUMBER_OF_FRAMES-eng: 1284065
      NUMBER_OF_BYTES : 2583538780
      NUMBER_OF_BYTES-eng: 2583538780
      _STATISTICS_WRITING_APP: mkvmerge v9.8.0 ('Kuglblids') 64bit
      _STATISTICS_WRITING_APP-eng: mkvmerge v9.8.0 ('Kuglblids') 64bit
      _STATISTICS_WRITING_DATE_UTC: 2017-02-17 17:11:39
      _STATISTICS_WRITING_DATE_UTC-eng: 2017-02-17 17:11:39
      _STATISTICS_TAGS: BPS DURATION NUMBER_OF_FRAMES NUMBER_OF_BYTES
      _STATISTICS_TAGS-eng: BPS DURATION NUMBER_OF_FRAMES NUMBER_OF_BYTES
    Stream #0.2(eng): Subtitle: pgssub
    Metadata:
      BPS             : 10330
      BPS-eng         : 10330
      DURATION        : 03:19:44.327000000
      DURATION-eng    : 03:19:44.327000000
      NUMBER_OF_FRAMES: 3656
      NUMBER_OF_FRAMES-eng: 3656
      NUMBER_OF_BYTES : 15474959
      NUMBER_OF_BYTES-eng: 15474959
      _STATISTICS_WRITING_APP: mkvmerge v9.8.0 ('Kuglblids') 64bit
      _STATISTICS_WRITING_APP-eng: mkvmerge v9.8.0 ('Kuglblids') 64bit
      _STATISTICS_WRITING_DATE_UTC: 2017-02-17 17:11:39
      _STATISTICS_WRITING_DATE_UTC-eng: 2017-02-17 17:11:39
      _STATISTICS_TAGS: BPS DURATION NUMBER_OF_FRAMES NUMBER_OF_BYTES
      _STATISTICS_TAGS-eng: BPS DURATION NUMBER_OF_FRAMES NUMBER_OF_BYTES
    Stream #0.3(eng): Subtitle: pgssub
    Metadata:
      BPS             : 454
      BPS-eng         : 454
      DURATION        : 01:32:49.544000000
      DURATION-eng    : 01:32:49.544000000
      NUMBER_OF_FRAMES: 64
      NUMBER_OF_FRAMES-eng: 64
      NUMBER_OF_BYTES : 316243
      NUMBER_OF_BYTES-eng: 316243
      _STATISTICS_WRITING_APP: mkvmerge v9.8.0 ('Kuglblids') 64bit
      _STATISTICS_WRITING_APP-eng: mkvmerge v9.8.0 ('Kuglblids') 64bit
      _STATISTICS_WRITING_DATE_UTC: 2017-02-17 17:11:39
      _STATISTICS_WRITING_DATE_UTC-eng: 2017-02-17 17:11:39
      _STATISTICS_TAGS: BPS DURATION NUMBER_OF_FRAMES NUMBER_OF_BYTES
      _STATISTICS_TAGS-eng: BPS DURATION NUMBER_OF_FRAMES NUMBER_OF_BYTES
    Stream #0.4(eng): Subtitle: pgssub
    Metadata:
      BPS             : 2351
      BPS-eng         : 2351
      DURATION        : 03:28:22.136000000
      DURATION-eng    : 03:28:22.136000000
      NUMBER_OF_FRAMES: 7436
      NUMBER_OF_FRAMES-eng: 7436
      NUMBER_OF_BYTES : 3674250
      NUMBER_OF_BYTES-eng: 3674250
      _STATISTICS_WRITING_APP: mkvmerge v9.8.0 ('Kuglblids') 64bit
      _STATISTICS_WRITING_APP-eng: mkvmerge v9.8.0 ('Kuglblids') 64bit
      _STATISTICS_WRITING_DATE_UTC: 2017-02-17 17:11:39
      _STATISTICS_WRITING_DATE_UTC-eng: 2017-02-17 17:11:39
      _STATISTICS_TAGS: BPS DURATION NUMBER_OF_FRAMES NUMBER_OF_BYTES
      _STATISTICS_TAGS-eng: BPS DURATION NUMBER_OF_FRAMES NUMBER_OF_BYTES
    Stream #0.5(eng): Subtitle: pgssub
    Metadata:
      BPS             : 1755
      BPS-eng         : 1755
      DURATION        : 03:27:33.254000000
      DURATION-eng    : 03:27:33.254000000
      NUMBER_OF_FRAMES: 4861
      NUMBER_OF_FRAMES-eng: 4861
      NUMBER_OF_BYTES : 2732212
      NUMBER_OF_BYTES-eng: 2732212
      _STATISTICS_WRITING_APP: mkvmerge v9.8.0 ('Kuglblids') 64bit
      _STATISTICS_WRITING_APP-eng: mkvmerge v9.8.0 ('Kuglblids') 64bit
      _STATISTICS_WRITING_DATE_UTC: 2017-02-17 17:11:39
      _STATISTICS_WRITING_DATE_UTC-eng: 2017-02-17 17:11:39
      _STATISTICS_TAGS: BPS DURATION NUMBER_OF_FRAMES NUMBER_OF_BYTES
      _STATISTICS_TAGS-eng: BPS DURATION NUMBER_OF_FRAMES NUMBER_OF_BYTES
    Stream #0.6(eng): Subtitle: pgssub
    Metadata:
      BPS             : 2897
      BPS-eng         : 2897
      DURATION        : 03:28:01.574000000
      DURATION-eng    : 03:28:01.574000000
      NUMBER_OF_FRAMES: 8666
      NUMBER_OF_FRAMES-eng: 8666
      NUMBER_OF_BYTES : 4521300
      NUMBER_OF_BYTES-eng: 4521300
      _STATISTICS_WRITING_APP: mkvmerge v9.8.0 ('Kuglblids') 64bit
      _STATISTICS_WRITING_APP-eng: mkvmerge v9.8.0 ('Kuglblids') 64bit
      _STATISTICS_WRITING_DATE_UTC: 2017-02-17 17:11:39
      _STATISTICS_WRITING_DATE_UTC-eng: 2017-02-17 17:11:39
      _STATISTICS_TAGS: BPS DURATION NUMBER_OF_FRAMES NUMBER_OF_BYTES
      _STATISTICS_TAGS-eng: BPS DURATION NUMBER_OF_FRAMES NUMBER_OF_BYTES
    Stream #0.7(eng): Subtitle: pgssub
    Metadata:
      BPS             : 3819
      BPS-eng         : 3819
      DURATION        : 03:28:41.030000000
      DURATION-eng    : 03:28:41.030000000
      NUMBER_OF_FRAMES: 14291
      NUMBER_OF_FRAMES-eng: 14291
      NUMBER_OF_BYTES : 5978645
      NUMBER_OF_BYTES-eng: 5978645
      _STATISTICS_WRITING_APP: mkvmerge v9.8.0 ('Kuglblids') 64bit
      _STATISTICS_WRITING_APP-eng: mkvmerge v9.8.0 ('Kuglblids') 64bit
      _STATISTICS_WRITING_DATE_UTC: 2017-02-17 17:11:39
      _STATISTICS_WRITING_DATE_UTC-eng: 2017-02-17 17:11:39
      _STATISTICS_TAGS: BPS DURATION NUMBER_OF_FRAMES NUMBER_OF_BYTES
      _STATISTICS_TAGS-eng: BPS DURATION NUMBER_OF_FRAMES NUMBER_OF_BYTES
[19:28:30] scan: decoding previews for title 1
[19:28:30] scan: audio 0x1: dca, rate=48000Hz, bitrate=1536000 English (DTS-ES) (6.1 ch)
Scanning title 1 of 1, preview 2, 20.00 %
Scanning title 1 of 1, preview 5, 50.00 %
Scanning title 1 of 1, preview 8, 80.00 %
Scanning title 1 of 1, preview 10, 100.00 %[19:28:30] scan: 10 previews, 1920x1080, 23.976 fps, autocrop = 140/140/0/0, aspect 16:9, PAR 1:1
[19:28:30] libhb: scan thread found 1 valid title(s)
+ title 1:
  + stream: I:\MKV\THE_LORD_OF_THE_RINGS_THE_FELLOWSHIP_OF_THE_RING_(EXT_)_-_PT_1_t00 (1).mkv
  + duration: 03:48:17
  + size: 1920x1080, pixel aspect: 1/1, display aspect: 1.78, 23.976 fps
  + autocrop: 140/140/0/0
  + support opencl: yes
  + support hwd: yes
  + chapters:
    + 1: cells 0->0, 0 blocks, duration 00:07:37
    + 2: cells 0->0, 0 blocks, duration 00:02:59
    + 3: cells 0->0, 0 blocks, duration 00:05:04
    + 4: cells 0->0, 0 blocks, duration 00:04:19
    + 5: cells 0->0, 0 blocks, duration 00:05:34
    + 6: cells 0->0, 0 blocks, duration 00:04:25
    + 7: cells 0->0, 0 blocks, duration 00:02:13
    + 8: cells 0->0, 0 blocks, duration 00:02:41
    + 9: cells 0->0, 0 blocks, duration 00:01:26
    + 10: cells 0->0, 0 blocks, duration 00:08:46
    + 11: cells 0->0, 0 blocks, duration 00:01:40
    + 12: cells 0->0, 0 blocks, duration 00:04:37
    + 13: cells 0->0, 0 blocks, duration 00:03:51
    + 14: cells 0->0, 0 blocks, duration 00:02:18
    + 15: cells 0->0, 0 blocks, duration 00:06:01
    + 16: cells 0->0, 0 blocks, duration 00:03:45
    + 17: cells 0->0, 0 blocks, duration 00:01:37
    + 18: cells 0->0, 0 blocks, duration 00:01:42
    + 19: cells 0->0, 0 blocks, duration 00:04:39
    + 20: cells 0->0, 0 blocks, duration 00:02:32
    + 21: cells 0->0, 0 blocks, duration 00:06:25
    + 22: cells 0->0, 0 blocks, duration 00:02:01
    + 23: cells 0->0, 0 blocks, duration 00:03:29
    + 24: cells 0->0, 0 blocks, duration 00:03:33
    + 25: cells 0->0, 0 blocks, duration 00:02:40
    + 26: cells 0->0, 0 blocks, duration 00:01:39
    + 27: cells 0->0, 0 blocks, duration 00:08:10
    + 28: cells 0->0, 0 blocks, duration 00:01:16
    + 29: cells 0->0, 0 blocks, duration 00:01:43
    + 30: cells 0->0, 0 blocks, duration 00:01:17
    + 31: cells 0->0, 0 blocks, duration 00:03:06
    + 32: cells 0->0, 0 blocks, duration 00:04:46
    + 33: cells 0->0, 0 blocks, duration 00:06:25
    + 34: cells 0->0, 0 blocks, duration 00:06:31
    + 35: cells 0->0, 0 blocks, duration 00:09:24
    + 36: cells 0->0, 0 blocks, duration 00:09:41
    + 37: cells 0->0, 0 blocks, duration 00:03:13
    + 38: cells 0->0, 0 blocks, duration 00:07:17
    + 39: cells 0->0, 0 blocks, duration 00:05:40
    + 40: cells 0->0, 0 blocks, duration 00:01:41
    + 41: cells 0->0, 0 blocks, duration 00:05:23
    + 42: cells 0->0, 0 blocks, duration 00:04:52
    + 43: cells 0->0, 0 blocks, duration 00:06:28
    + 44: cells 0->0, 0 blocks, duration 00:07:16
    + 45: cells 0->0, 0 blocks, duration 00:02:42
    + 46: cells 0->0, 0 blocks, duration 00:06:18
    + 47: cells 0->0, 0 blocks, duration 00:07:40
    + 48: cells 0->0, 0 blocks, duration 00:19:53
  + audio tracks:
    + 1, English (DTS-ES) (6.1 ch) (iso639-2: eng), 48000Hz, 1536000bps
  + subtitle tracks:
    + 1, English (iso639-2: eng) (Bitmap)(PGS)
    + 2, English (iso639-2: eng) (Bitmap)(PGS)
    + 3, English (iso639-2: eng) (Bitmap)(PGS)
    + 4, English (iso639-2: eng) (Bitmap)(PGS)
    + 5, English (iso639-2: eng) (Bitmap)(PGS)
    + 6, English (iso639-2: eng) (Bitmap)(PGS)
Reading chapter markers from file C:\Users\chazzpc\AppData\Local\Temp\The Lord Of The Rings The Fellowship Of The Ring (ext ) - Pt 1 T00 (1)-1-1-chapters.csv
AC3 Passthru requested and input codec is not compatible for track 2, using AC3 encoder
[19:28:31] 1 job(s) to process
[19:28:31] starting job
[19:28:31] yadif thread started for segment 0
[19:28:31] yadif thread started for segment 4
[19:28:31] yadif thread started for segment 2
[19:28:31] yadif thread started for segment 3
[19:28:31] yadif thread started for segment 1
[19:28:31] yadif thread started for segment 5
[19:28:31] decomb filter thread started for segment 4
[19:28:31] yadif thread started for segment 7
[19:28:31] decomb filter thread started for segment 0
[19:28:31] decomb filter thread started for segment 1
[19:28:31] decomb check thread started for segment 2
[19:28:31] decomb filter thread started for segment 3
[19:28:31] yadif thread started for segment 6
[19:28:31] decomb filter thread started for segment 5
[19:28:31] decomb filter thread started for segment 6
[19:28:31] decomb filter thread started for segment 7
[19:28:31] decomb check thread started for segment 0
[19:28:31] decomb check thread started for segment 1
[19:28:31] decomb filter thread started for segment 2
[19:28:31] decomb check thread started for segment 3
[19:28:31] mask filter thread started for segment 6
[19:28:31] decomb check thread started for segment 5
[19:28:31] decomb check thread started for segment 6
[19:28:31] decomb check thread started for segment 7
[19:28:31] mask filter thread started for segment 0
[19:28:31] mask filter thread started for segment 1
[19:28:31] mask filter thread started for segment 2
[19:28:31] mask filter thread started for segment 3
[19:28:31] mask filter thread started for segment 4
[19:28:31] mask dilate thread started for segment 0
[19:28:31] decomb check thread started for segment 4
[19:28:31] mask dilate thread started for segment 2
[19:28:31] mask erode thread started for segment 0
[19:28:31] mask erode thread started for segment 1
[19:28:31] mask erode thread started for segment 2
[19:28:31] mask erode thread started for segment 3
[19:28:31] mask erode thread started for segment 4
[19:28:31] mask erode thread started for segment 5
[19:28:31] mask erode thread started for segment 6
[19:28:31] mask erode thread started for segment 7
[19:28:31] mask filter thread started for segment 5
[19:28:31] work: mixdown not specified, track 2 setting mixdown 5.1 Channels
[19:28:31] mask dilate thread started for segment 1
[19:28:31] work: bitrate not specified, track 2 setting bitrate 640 Kbps
[19:28:31] mask filter thread started for segment 7
[19:28:31] sync: expecting 2072 video frames
[19:28:31] mask dilate thread started for segment 4
[19:28:31] mask dilate thread started for segment 3
[19:28:31] mask dilate thread started for segment 5
[19:28:31] mask dilate thread started for segment 6
[19:28:31] mask dilate thread started for segment 7
[19:28:31] work: only 1 chapter, disabling chapter markers
[19:28:31] job configuration:
[19:28:31]  * source
[19:28:31]    + I:\MKV\THE_LORD_OF_THE_RINGS_THE_FELLOWSHIP_OF_THE_RING_(EXT_)_-_PT_1_t00 (1).mkv
[19:28:31]    + title 1, chapter(s) 9 to 9
[19:28:31]    + container: matroska,webm
[19:28:31]  * destination
[19:28:31]    + D:\The Lord Of The Rings The Fellowship Of The Ring (ext ) - Pt 1 T00 (1)-1.m4v
[19:28:31]    + container: MPEG-4 (libavformat)
[19:28:31]  * video track
[19:28:31]    + decoder: h264
[19:28:31]    + filters
[19:28:31]      + Decomb (default settings)
[19:28:31]      + Framerate Shaper (0:27000000:1126125)
[19:28:31]        + frame rate: same as source (around 23.976 fps)
[19:28:31]      + Crop and Scale (1920:800:140:140:0:0)
[19:28:31]        + source: 1920 * 1080, crop (140/140/0/0): 1920 * 800, scale: 1920 * 800
[19:28:31]    + loose anamorphic
[19:28:31]      + storage dimensions: 1920 * 800, mod 2
[19:28:31]      + pixel aspect ratio: 1 / 1
[19:28:31]      + display dimensions: 1920 * 800
[19:28:31]    + encoder: H.264 (libx264)
[19:28:31]      + profile: high
[19:28:31]      + level:   4.1
[19:28:31]      + quality: 20.00 (RF)
[19:28:31]  * audio track 1
[19:28:31]    + decoder: English (DTS-ES) (6.1 ch) (track 1, id 0x1)
[19:28:31]      + bitrate: 1536 kbps, samplerate: 48000 Hz
[19:28:31]    + mixdown: Dolby Pro Logic II
[19:28:31]    + encoder: AAC (libavcodec)
[19:28:31]      + bitrate: 160 kbps, samplerate: 48000 Hz
[19:28:31]  * audio track 2
[19:28:31]    + decoder: English (DTS-ES) (6.1 ch) (track 1, id 0x1)
[19:28:31]      + bitrate: 1536 kbps, samplerate: 48000 Hz
[19:28:31]    + mixdown: 5.1 Channels
[19:28:31]    + encoder: AC3 (libavcodec)
[19:28:31]      + bitrate: 640 kbps, samplerate: 48000 Hz
[19:28:31] encx264: min-keyint: 24, keyint: 240
[19:28:31] encx264: encoding at constant RF 20.000000
[19:28:31] encx264: unparsed options: level=4.1:vbv-bufsize=78125:vbv-maxrate=62500
x264 [info]: using SAR=1/1
x264 [info]: using cpu capabilities: MMX2 SSE2Fast SSSE3 SSE4.2 AVX AVX2 FMA3 LZCNT BMI2
x264 [info]: profile High, level 4.1
[19:28:31] reader: first SCR 188258040 id 0x0 DTS 188258040
[h264 @ 000000000517ba00] left block unavailable for requested intra mode at 0 0
[h264 @ 000000000517ba00] error while decoding MB 0 0, bytestream 28189
[h264 @ 000000000517ba00] top block unavailable for requested intra4x4 mode -1 at 1 16
[h264 @ 000000000517ba00] error while decoding MB 1 16, bytestream 68409
[h264 @ 000000000517ba00] top block unavailable for requested intra4x4 mode -1 at 0 34
[h264 @ 000000000517ba00] error while decoding MB 0 34, bytestream 48956
[h264 @ 000000000517ba00] top block unavailable for requested intra4x4 mode -1 at 0 50
[h264 @ 000000000517ba00] error while decoding MB 0 50, bytestream 31333
[19:29:47] reader: end of chapter 9 (media 9) reached at media chapter 10
[19:29:47] reader: done. 1 scr changes
[19:29:50] work: average encoding speed for job is 26.598087 fps
[19:29:50] sync: got 2073 frames, 2072 expected
[19:29:50] decomb: deinterlaced 0 | blended 0 | unfiltered 2072 | total 2072
[19:29:50] render: lost time: 0 (0 frames)
[19:29:50] render: gained time: 0 (0 frames) (0 not accounted for)
[19:29:50] h264-decoder done: 2073 frames, 0 decoder errors, 0 drops
x264 [info]: frame I:25    Avg QP:17.07  size:115451
x264 [info]: frame P:1332  Avg QP:20.11  size: 33123
x264 [info]: frame B:715   Avg QP:21.56  size: 13729
x264 [info]: consecutive B-frames: 37.4% 49.6%  0.9% 12.2%
x264 [info]: mb I  I16..4: 12.7% 68.9% 18.4%
x264 [info]: mb P  I16..4:  2.1%  6.9%  0.6%  P16..4: 49.8% 14.6%  8.3%  0.0%  0.0%    skip:17.7%
x264 [info]: mb B  I16..4:  0.0%  0.4%  0.0%  B16..8: 47.6%  3.6%  0.6%  direct: 4.2%  skip:43.5%  L0:39.0% L1:56.1% BI: 4.9%
x264 [info]: 8x8 transform intra:71.9% inter:80.5%
x264 [info]: coded y,uvDC,uvAC intra: 61.6% 78.1% 50.9% inter: 26.4% 40.0% 10.6%
x264 [info]: i16 v,h,dc,p: 49% 14%  9% 28%
x264 [info]: i8 v,h,dc,ddl,ddr,vr,hd,vl,hu: 18% 10% 27%  6%  8%  9%  7%  8%  6%
x264 [info]: i4 v,h,dc,ddl,ddr,vr,hd,vl,hu: 26% 14% 15%  7% 10% 10%  7%  7%  5%
x264 [info]: i8c dc,h,v,p: 59% 14% 19%  8%
x264 [info]: Weighted P-Frames: Y:2.6% UV:0.5%
x264 [info]: ref P L0: 66.6% 11.8% 14.8%  6.6%  0.1%
x264 [info]: ref B L0: 87.6% 11.3%  1.1%
x264 [info]: ref B L1: 98.5%  1.5%
x264 [info]: kb/s:5260.78
[19:29:50] dca-decoder done: 0 frames, 0 decoder errors, 0 drops
[19:29:50] dca-decoder done: 0 frames, 0 decoder errors, 0 drops
[19:29:50] mux: track 0, 2072 frames, 56822121 bytes, 5262.65 kbps, fifo 512
[19:29:50] mux: track 1, 4049 frames, 1731265 bytes, 160.34 kbps, fifo 2048
[19:29:50] mux: track 2, 2700 frames, 6912000 bytes, 640.16 kbps, fifo 1024
[19:29:50] libhb: work result = 0
Encode done!
HandBrake has exited.


User avatar
Rodeo
HandBrake Team
Posts: 11568
Joined: Tue Mar 03, 2009 8:55 pm

Re: Fallback issue

Post by Rodeo » Sat Feb 18, 2017 7:41 pm

s55 wrote:
Sat Feb 18, 2017 7:17 pm
Don't think so. I certianly didn't change that behaviour unless the CLI was doing something different to libhb.
Yes, the CLI handled codec-specific passthru -> corresponding encoder (whereas libhb doesn't).

Wedge
Posts: 1
Joined: Tue Mar 07, 2017 2:11 am

Re: Fallback issue

Post by Wedge » Tue Mar 07, 2017 2:13 am

***EDITED***

Currently, I am running Handbrake 1.0.3 on Windows 10 using preset Apple 1080p60 Surround. After encoding, I only get a stereo AAC track. No 5.1 or secondary track. Here is a screen grab of the default settings: https://img42.com/b4dXd

After reading some other posts on the forum, I decided to create a modified preset and update the passthru settings per viewtopic.php?f=11&t=35996&p=169431&hilit=ac3#p169431. This seems to work as I have two tracks. Screen shot below: https://img42.com/TB1gn

Question 1 - will I be missing anything / have any negative impacts with this method?
Question 2 - Is there a bug on Github that I can watch for in upcoming releases?
Question 3 - Why does the only effect Windows? I have another computer running Ubuntu and it appears to be unaffected?

mjur08
Posts: 3
Joined: Sat Feb 18, 2017 10:57 pm

Re: Fallback issue

Post by mjur08 » Sat Apr 29, 2017 1:35 pm

Does anyone know if this problem has been resolved yet?

Post Reply