filename settings on windows with {time} does not work

Report and discuss *new*, *consistent*, *reproducible* bugs here
Post Reply
jone
Posts: 4
Joined: Fri Jan 20, 2017 12:46 pm

filename settings on windows with {time} does not work

Post by jone » Fri Jan 20, 2017 1:25 pm

Please describe the problem in as much detail as possible:

output filename setting in settings, when you use {time} it will add : to the filename and it will cut filenames in that point.. i used intel qsv in video settings, don't know is that a case in other encoders..

What are the steps to reproduce this problem:

example add _{time} variable in output filename setting in settings after {source}.

What version of HandBrake you are running:

1.0.1

What operating system and version and you running (e.g. OSX 10.11, Windows 7, Ubuntu 14):

windows 7

If there was any exception or error displayed, please copy it and paste it here:

no, filenames just scrambled in log files and in output filenames and finally after encode, final file (with any name) newer appears in output directory.

Please include the scan or encode log:

Code: Select all

HandBrake 1.0.1 (2016122900) - 64bit
OS: Microsoft Windows NT 6.1.7601 Service Pack 1 - 64bit
CPU: Intel(R) Core(TM) i5-4250U CPU @ 1.30GHz
Ram: 8085 MB, 
GPU Information:
  Intel(R) HD Graphics 5000 - 10.18.14.4414
Screen: 1920x1080
Temp Dir: C:\Users\xxx\AppData\Local\Temp\
Install Dir: C:\Program Files\Handbrake
Data Dir: C:\Users\xxx\AppData\Roaming\HandBrake Team\HandBrake\1.0.1.0

-------------------------------------------


# Starting Encode ...

[05:25:58] hb_init: starting libhb thread
[05:25:58] 1 job(s) to process
[05:25:58] json job:
{
  "Audio": {
    "AudioList": [
      {
        "Bitrate": 160,
        "DRC": 0.0,
        "Encoder": 65536,
        "Gain": 0.0,
        "Mixdown": 4,
        "NormalizeMixLevel": false,
        "Samplerate": 0,
        "Track": 0,
        "DitherMethod": 0
      }
    ],
    "CopyMask": [
      1073807360,
      1073743872,
      1074003968,
      1073750016,
      1090519040,
      1074790400,
      1074266112,
      1107296256
    ],
    "FallbackEncoder": 2048
  },
  "Destination": {
    "ChapterList": [],
    "ChapterMarkers": false,
    "File": "G:\\output4\\capt1_20.1.2017_05:23.mp4",
    "Mp4Options": {
      "IpodAtom": false,
      "Mp4Optimize": false
    },
    "Mux": 131072
  },
  "Filters": {
    "FilterList": [
      {
        "ID": 5,
        "Settings": {
          "mode": "7"
        }
      },
      {
        "ID": 3,
        "Settings": {
          "block-height": "16",
          "block-thresh": "40",
          "block-width": "16",
          "filter-mode": "2",
          "mode": "3",
          "motion-thresh": "1",
          "spatial-metric": "2",
          "spatial-thresh": "1"
        }
      },
      {
        "ID": 8,
        "Settings": {
          "cb-spatial": "1",
          "cb-temporal": "3",
          "cr-spatial": "1",
          "cr-temporal": "3",
          "y-spatial": "2",
          "y-temporal": "2"
        }
      },
      {
        "ID": 11,
        "Settings": {
          "crop-bottom": "0",
          "crop-left": "0",
          "crop-right": "0",
          "crop-top": "0",
          "height": "576",
          "width": "720"
        }
      },
      {
        "ID": 6,
        "Settings": {
          "mode": "1",
          "rate": "27000000/540000"
        }
      }
    ]
  },
  "PAR": {
    "Num": 1,
    "Den": 1
  },
  "Metadata": {},
  "SequenceID": 0,
  "Source": {
    "Angle": 1,
    "Range": {
      "Type": "time",
      "Start": 90000,
      "End": 321750000
    },
    "Title": 1,
    "Path": "G:\\videot_raw\\miniDV_raw\\capt1.avi"
  },
  "Subtitle": {
    "Search": {
      "Burn": false,
      "Default": false,
      "Enable": false,
      "Forced": false
    },
    "SubtitleList": []
  },
  "Video": {
    "Encoder": 256,
    "Level": "4.1",
    "Bitrate": 4000,
    "TwoPass": false,
    "Turbo": false,
    "ColorMatrixCode": 0,
    "Options": "",
    "Preset": "quality",
    "Profile": "high",
    "OpenCL": false,
    "HWDecode": false,
    "QSV": {
      "Decode": true,
      "AsyncDepth": 0
    }
  }
}
[05:25:58] CPU: Intel(R) Core(TM) i5-4250U CPU @ 1.30GHz
[05:25:58]  - Intel microarchitecture Haswell
[05:25:58]  - logical processor count: 4
[05:25:58] OpenCL device #1: Intel(R) Corporation Intel(R) HD Graphics 5000
[05:25:58]  - OpenCL version: 1.2
[05:25:58]  - driver version: 10.18.14.4414
[05:25:58]  - device type:    GPU
[05:25:58]  - supported:      YES
[05:25:58] Intel Quick Sync Video support: yes
[05:25:58]  - Intel Media SDK hardware: API 1.17 (minimum: 1.3)
[05:25:58]  - H.264 encoder: yes
[05:25:58]     - preferred implementation: hardware (any)
[05:25:58]     - capabilities (hardware):  breftype icq+la+i+downs vsinfo opt1 opt2+mbbrc+extbrc+trellis+ib_adapt+nmpslice
[05:25:58]  - H.265 encoder: no
[05:25:58] hb_scan: path=G:\videot_raw\miniDV_raw\capt1.avi, title_index=1
udfread ERROR: ECMA 167 Volume Recognition failed
src/libbluray/disc/disc.c:274: failed opening UDF image G:\videot_raw\miniDV_raw\capt1.avi
src/libbluray/disc/disc.c:352: error opening file BDMV\index.bdmv
src/libbluray/disc/disc.c:352: error opening file BDMV\BACKUP\index.bdmv
[05:25:58] bd: not a bd - trying as a stream/file instead
libdvdnav: Using dvdnav version 5.0.1
libdvdread: Encrypted DVD support unavailable.
libdvdread:DVDOpenFileUDF:UDFFindFile /VIDEO_TS/VIDEO_TS.IFO failed
libdvdread:DVDOpenFileUDF:UDFFindFile /VIDEO_TS/VIDEO_TS.BUP failed
libdvdread: Can't open file VIDEO_TS.IFO.
libdvdnav: vm: failed to read VIDEO_TS.IFO
[05:25:58] dvd: not a dvd - trying as a stream/file instead
Input #0, avi, from 'G:\videot_raw\miniDV_raw\capt1.avi':
  Duration: 01:09:11.44, start: 0.000000, bitrate: 6894 kb/s
    Stream #0:0: Video: mjpeg [MJPG / 0x47504A4D]
      yuvj420p, pc, bt470bg/unknown/unknown
      720x576
      25 fps, 25 tbn
    Stream #0:1: Audio: pcm_s16le [[1][0][0][0] / 0x0001]
      96000 Hz, 2 channels, s16, 3072 kb/s
[05:25:58] scan: decoding previews for title 1
[05:25:58] scan: audio 0x1: pcm_s16le, rate=96000Hz, bitrate=3072000 Unknown (pcm_s16le) (2.0 ch)
[05:25:59] scan: could not get a decoded picture
[05:25:59] scan: could not get a decoded picture
[05:25:59] scan: could not get a decoded picture
[05:26:00] scan: could not get a decoded picture
[05:26:00] scan: could not get a decoded picture
[05:26:00] scan: could not get a decoded picture
[05:26:00] scan: could not get a decoded picture
[05:26:00] scan: 3 previews, 720x576, 25.000 fps, autocrop = 2/2/0/0, aspect 1.25:1, PAR 1:1
[05:26:00] Title is likely interlaced or telecined (1 out of 3 previews). You should do something about that.
[05:26:00] libhb: scan thread found 1 valid title(s)
[05:26:00] starting job
[05:26:00] decomb filter thread started for segment 0
[05:26:00] decomb filter thread started for segment 2
[05:26:00] decomb filter thread started for segment 3
[05:26:00] decomb filter thread started for segment 1
[05:26:00] decomb check thread started for segment 2
[05:26:00] decomb check thread started for segment 3
[05:26:00] mask filter thread started for segment 2
[05:26:00] decomb check thread started for segment 0
[05:26:00] mask filter thread started for segment 3
[05:26:00] mask erode thread started for segment 2
[05:26:00] decomb check thread started for segment 1
[05:26:00] mask erode thread started for segment 3
[05:26:00] mask dilate thread started for segment 2
[05:26:00] mask filter thread started for segment 0
[05:26:00] mask dilate thread started for segment 3
[05:26:00] mask filter thread started for segment 1
[05:26:00] mask erode thread started for segment 0
[05:26:00] mask erode thread started for segment 1
[05:26:00] mask dilate thread started for segment 1
[05:26:00] mask dilate thread started for segment 0
[05:26:00] work: sanitizing track 1 unsupported samplerate 96000 Hz to 48 kHz
[05:26:00] work: track 1, dithering not supported by codec
[05:26:00] job configuration:
[05:26:00]  * source
[05:26:00]    + G:\videot_raw\miniDV_raw\capt1.avi
[05:26:00]    + title 1, start 00:00:1.00 stop 00:59:36.00
[05:26:00]    + container: avi
[05:26:00]    + data rate: 6894 kbps
[05:26:00]  * destination
[05:26:00]    + G:\output4\capt1_20.1.2017_05:23.mp4
[05:26:00]    + container: MPEG-4 (libavformat)
[05:26:00]  * video track
[05:26:00]    + decoder: mjpeg
[05:26:00]    + filters
[05:26:00]      + Comb Detect (mode=3:spatial-metric=2:motion-thresh=1:spatial-thresh=1:filter-mode=2:block-thresh=40:block-width=16:block-height=16)
[05:26:00]      + avfilter (yadif='mode=1:auto=1')
[05:26:00]        + yadif: mode=1, auto=1
[05:26:00]      + Framerate Shaper (mode=1:rate=27000000/540000)
[05:26:00]        + frame rate: 50.000 fps -> constant 50.000 fps
[05:26:00]      + Denoise (hqdn3d) (y-spatial=2:cb-spatial=1:cr-spatial=1:y-temporal=2:cb-temporal=3:cr-temporal=3)
[05:26:00]      + Crop and Scale (width=720:height=576:crop-top=0:crop-bottom=0:crop-left=0:crop-right=0)
[05:26:00]        + source: 720 * 576, crop (0/0/0/0): 720 * 576, scale: 720 * 576
[05:26:00]    + Output geometry
[05:26:00]      + storage dimensions: 720 x 576
[05:26:00]      + pixel aspect ratio: 1 : 1
[05:26:00]      + display dimensions: 720 x 576
[05:26:00]    + encoder: H.264 (Intel Media SDK)
[05:26:00]      + preset:  quality
[05:26:00]      + profile: high
[05:26:00]      + level:   4.1
[05:26:00]      + bitrate: 4000 kbps, pass: 0
[05:26:00]  * audio track 1
[05:26:00]    + decoder: Unknown (pcm_s16le) (2.0 ch) (track 1, id 0x1)
[05:26:00]      + bitrate: 3072 kbps, samplerate: 96000 Hz
[05:26:00]    + mixdown: Stereo
[05:26:00]    + encoder: AAC (libavcodec)
[05:26:00]      + bitrate: 160 kbps, samplerate: 48000 Hz
[05:26:01] sync: expecting 89400 video frames
[05:26:01] encqsvInit: using encode-only path
[05:26:01] encqsvInit: H.264/AVC High profile @ level 4.1
[05:26:01] encqsvInit: TargetUsage 2 AsyncDepth 5
[05:26:01] encqsvInit: GopRefDist 3 GopPicSize 25 NumRefFrame 3
[05:26:01] encqsvInit: BFramesMax 2 BRefType off
[05:26:01] encqsvInit: RateControlMethod LA TargetKbps 4000 LookAheadDepth 40
[05:26:01] sync: first pts video is 0
[05:26:01] sync: Chapter 1 at frame 1 time 0
[05:26:01] sync: first pts audio 0x1 is 953
[05:26:01] qsv_enc_init: using 'hardware (1)' implementation, API: 1.17
[05:33:31] hb_init: starting libhb thread

 # Starting Scan ...

[05:33:31] CPU: Intel(R) Core(TM) i5-4250U CPU @ 1.30GHz
[05:33:31]  - Intel microarchitecture Haswell
[05:33:31]  - logical processor count: 4
[05:33:31] OpenCL device #1: Intel(R) Corporation Intel(R) HD Graphics 5000
[05:33:31]  - OpenCL version: 1.2
[05:33:31]  - driver version: 10.18.14.4414
[05:33:31]  - device type:    GPU
[05:33:31]  - supported:      YES
[05:33:31] Intel Quick Sync Video support: yes
[05:33:31]  - Intel Media SDK hardware: API 1.17 (minimum: 1.3)
[05:33:31]  - H.264 encoder: yes
[05:33:31]     - preferred implementation: hardware (any)
[05:33:31]     - capabilities (hardware):  breftype icq+la+i+downs vsinfo opt1 opt2+mbbrc+extbrc+trellis+ib_adapt+nmpslice
[05:33:31]  - H.265 encoder: no
[05:33:31] hb_scan: path=G:\videot_raw\miniDV_raw\capt2.avi, title_index=0
udfread ERROR: ECMA 167 Volume Recognition failed
src/libbluray/disc/disc.c:274: failed opening UDF image G:\videot_raw\miniDV_raw\capt2.avi
src/libbluray/disc/disc.c:352: error opening file BDMV\index.bdmv
src/libbluray/disc/disc.c:352: error opening file BDMV\BACKUP\index.bdmv
[05:33:31] bd: not a bd - trying as a stream/file instead
libdvdnav: Using dvdnav version 5.0.1
libdvdread: Encrypted DVD support unavailable.
libdvdread:DVDOpenFileUDF:UDFFindFile /VIDEO_TS/VIDEO_TS.IFO failed
libdvdread:DVDOpenFileUDF:UDFFindFile /VIDEO_TS/VIDEO_TS.BUP failed
libdvdread: Can't open file VIDEO_TS.IFO.
libdvdnav: vm: failed to read VIDEO_TS.IFO
[05:33:31] dvd: not a dvd - trying as a stream/file instead
Input #0, avi, from 'G:\videot_raw\miniDV_raw\capt2.avi':
  Duration: 00:35:50.96, start: 0.000000, bitrate: 14043 kb/s
    Stream #0:0: Video: mjpeg [MJPG / 0x47504A4D]
      yuvj420p, pc, bt470bg/unknown/unknown
      720x576
      25 fps, 25 tbn
    Stream #0:1: Audio: pcm_s16le [[1][0][0][0] / 0x0001]
      96000 Hz, 2 channels, s16, 3072 kb/s
[05:33:31] scan: decoding previews for title 1
[05:33:31] scan: audio 0x1: pcm_s16le, rate=96000Hz, bitrate=3072000 Unknown (pcm_s16le) (2.0 ch)
[05:33:44] scan: could not get a decoded picture
[05:33:45] scan: could not get a decoded picture
[05:33:45] scan: could not get a decoded picture
[05:33:46] scan: could not get a decoded picture
[05:33:47] scan: could not get a decoded picture
[05:33:47] scan: 5 previews, 720x576, 25.000 fps, autocrop = 2/2/0/0, aspect 1.25:1, PAR 1:1
[05:33:47] Title is likely interlaced or telecined (2 out of 5 previews). You should do something about that.
[05:33:47] libhb: scan thread found 1 valid title(s)

 # Scan Finished ...


 # Stopping Scan.

[05:53:04] sync: reached video pts 321750000, exiting early
[05:53:04] sync: reached audio 0x1 pts 321750912, exiting early
[05:53:04] work: average encoding speed for job is 55.072563 fps
[05:53:04] comb detect: heavy 34247 | light 5660 | uncombed 49468 | total 89375
[05:53:04] vfr: 178748 frames output, 0 dropped and 49467 duped for CFR/PFR
[05:53:04] vfr: lost time: 0 (0 frames)
[05:53:04] vfr: gained time: 0 (0 frames) (0 not accounted for)
[05:53:04] pcm_s16le-decoder done: 336538 frames, 0 decoder errors
[05:53:04] mjpeg-decoder done: 89472 frames, 0 decoder errors
[05:53:04] sync: got 89375 frames, 89400 expected
[05:53:04] sync: framerate min 25.000 fps, max 25.000 fps, avg 25.000 fps
[05:53:04] libhb: work result = 0

# Encode Completed ...


Post Reply