Tags copied anyway when all blanked

Archive of historical bug reports.
Please use the GitHub link above to report issues.
Forum rules
*******************************
Please be aware we are now using GitHub for issue tracking and feature requests.
- This section of the forum is now closed to new topics.

*******************************
Post Reply
ginjabunny
Posts: 1
Joined: Mon Jan 02, 2017 12:52 pm

Tags copied anyway when all blanked

Post by ginjabunny » Mon Jan 02, 2017 1:19 pm

Please describe the problem in as much detail as possible: On the "Tags" tab if I clear all the fields so they are blank it still copies the tags from the original file, I was trying to get rid of them all (can we have a tick box or option to turn off all tags?).

What are the steps to reproduce this problem: Happens every time, video files from different sources, tried different profiles with the same results

What version of HandBrake you are running: 1.0.1 (x86_64)

What operating system and version and you running (e.g. OSX 10.11, Windows 7, Ubuntu 14): Linux Mint 18.1

If there was any exception or error displayed, please copy it and paste it here: no errors

Please include the scan or encode log: see below, also included general info from before and after files using Mediainfo which show the "Movie name" has been copied

Log

Code: Select all

 
 [12:48:24] gtkgui: HandBrake 1.0.1 (2016122900) - Linux x86_64 - https://handbrake.fr
[12:48:24] hb_init: starting libhb thread
[12:48:24] hb_init: starting libhb thread
[12:48:24] hb_init: starting libhb thread
[12:48:25] CPU: Intel(R) Core(TM) i5-3210M CPU @ 2.50GHz
[12:48:25]  - Intel microarchitecture Ivy Bridge
[12:48:25]  - logical processor count: 4
[12:48:25] OpenCL: library not available
[12:48:25] hb_scan: path=/home/temp/Vid_raw/Taking the Plunge.mp4, title_index=0
udfread ERROR: ECMA 167 Volume Recognition failed
disc.c:274: failed opening UDF image /home/temp/Vid_raw/Taking the Plunge.mp4
disc.c:352: error opening file BDMV/index.bdmv
disc.c:352: error opening file BDMV/BACKUP/index.bdmv
[12:48:25] bd: not a bd - trying as a stream/file instead
libdvdnav: Using dvdnav version 5.0.1
libdvdread:DVDOpenFileUDF:UDFFindFile /VIDEO_TS/VIDEO_TS.IFO failed
libdvdread:DVDOpenFileUDF:UDFFindFile /VIDEO_TS/VIDEO_TS.BUP failed
libdvdread: Can't open file VIDEO_TS.IFO.
libdvdnav: vm: failed to read VIDEO_TS.IFO
[12:48:25] dvd: not a dvd - trying as a stream/file instead
Input #0, mov,mp4,m4a,3gp,3g2,mj2, from '/home/temp/Vid_raw/Taking the Plunge.mp4':
  Metadata:
    major_brand     : isom
    minor_version   : 512
    compatible_brands: isomiso2avc1mp41
    title           : 597365623764450
    encoder         : Lavf56.4.101
  Duration: 00:06:43.12, start: 0.160998, bitrate: 1085 kb/s
    Stream #0:0(und): Video: h264 (High) [avc1 / 0x31637661]
      yuv420p, 1280x720 [PAR 1:1 DAR 16:9], 1062 kb/s
      24 fps, 90k tbn (default)
    Metadata:
      handler_name    : VideoHandler
    Stream #0:1(eng): Audio: aac (HE-AACv2) [mp4a / 0x6134706D]
      44100 Hz, stereo, fltp, 19 kb/s (default)
    Metadata:
      handler_name    : SoundHandler
[12:48:25] scan: decoding previews for title 1
[12:48:25] scan: audio 0x1: aac, rate=44100Hz, bitrate=19993 English (AAC) (2.0 ch)
[12:48:25] scan: 20 previews, 1280x720, 24.000 fps, autocrop = 0/0/0/0, aspect 16:9, PAR 1:1
[12:48:25] libhb: scan thread found 1 valid title(s)
[12:48:56] gtkgui: Custom Preset: /New_q22@96-718x404
[12:48:56] 1 job(s) to process
[12:48:56] json job:
{
    "Audio": {
        "AudioList": [
            {
                "Bitrate": 96,
                "CompressionLevel": -1.0,
                "DRC": 0.0,
                "DitherMethod": "auto",
                "Encoder": "ac3",
                "Gain": 0.0,
                "Mixdown": "stereo",
                "NormalizeMixLevel": false,
                "PresetEncoder": "copy:ac3",
                "Quality": -3.0,
                "Samplerate": "Auto",
                "Track": 0
            }
        ],
        "CopyMask": [
            "copy:mp3",
            "copy:aac",
            "copy:ac3",
            "copy:dts",
            "copy:dtshd"
        ],
        "FallbackEncoder": "ac3"
    },
    "Destination": {
        "ChapterList": [
            {
                "Name": ""
            }
        ],
        "ChapterMarkers": false,
        "File": "/home/temp/Vid_re-encoded/Taking the Plunge.m4v",
        "Mp4Options": {
            "IpodAtom": false,
            "Mp4Optimize": false
        },
        "Mux": "m4v"
    },
    "Filters": {
        "FilterList": [
            {
                "ID": 6,
                "Settings": {
                    "mode": 1
                }
            },
            {
                "ID": 11,
                "Settings": {
                    "crop-bottom": 0,
                    "crop-left": 0,
                    "crop-right": 0,
                    "crop-top": 0,
                    "height": 404,
                    "width": 718
                }
            }
        ]
    },
    "Metadata": {},
    "PAR": {
        "Den": 1,
        "Num": 1
    },
    "SequenceID": 0,
    "Source": {
        "Angle": 0,
        "Path": "/home/temp/Vid_raw/Taking the Plunge.mp4",
        "Range": {
            "End": 1,
            "Start": 1,
            "Type": "chapter"
        },
        "Title": 1
    },
    "Subtitle": {
        "Search": {
            "Burn": true,
            "Default": false,
            "Enable": false,
            "Forced": false
        },
        "SubtitleList": []
    },
    "Video": {
        "ColorMatrixCode": 0,
        "Encoder": "x264",
        "OpenCL": false,
        "Options": "ref=5:deblock=1,1,1:analyse=0x3,0x133:me=umh:subme=8:psy=0:chroma_me=1:fast_pskip=0:chroma_qp_offset=0:threads=12:sliced_threads=0:nr=0:interlaced=0:bluray_compat=0:constrained_intra=0:b_pyramid=2:b_bias=0:weightb=1:open_gop=0:keyint=250:keyint_min=23:scenecut=40:intra_refresh=0:rc_lookahead=40:mbtree=0:crf=26.0:qcomp=0.60:qpmin=0:qpmax=69:qpstep=4:vbv_maxrate=1500:vbv_bufsize=62500:crf_max=0.0:nal_hrd=none",
        "QSV": {
            "AsyncDepth": 4,
            "Decode": false
        },
        "Quality": 22.0,
        "Turbo": false,
        "TwoPass": false
    }
}
[12:48:56] CPU: Intel(R) Core(TM) i5-3210M CPU @ 2.50GHz
[12:48:56]  - Intel microarchitecture Ivy Bridge
[12:48:56]  - logical processor count: 4
[12:48:56] OpenCL: library not available
[12:48:56] hb_scan: path=/home/temp/Vid_raw/Taking the Plunge.mp4, title_index=1
udfread ERROR: ECMA 167 Volume Recognition failed
disc.c:274: failed opening UDF image /home/temp/Vid_raw/Taking the Plunge.mp4
disc.c:352: error opening file BDMV/index.bdmv
disc.c:352: error opening file BDMV/BACKUP/index.bdmv
[12:48:56] bd: not a bd - trying as a stream/file instead
libdvdnav: Using dvdnav version 5.0.1
libdvdread:DVDOpenFileUDF:UDFFindFile /VIDEO_TS/VIDEO_TS.IFO failed
libdvdread:DVDOpenFileUDF:UDFFindFile /VIDEO_TS/VIDEO_TS.BUP failed
libdvdread: Can't open file VIDEO_TS.IFO.
libdvdnav: vm: failed to read VIDEO_TS.IFO
[12:48:56] dvd: not a dvd - trying as a stream/file instead
Input #0, mov,mp4,m4a,3gp,3g2,mj2, from '/home/temp/Vid_raw/Taking the Plunge.mp4':
  Metadata:
    major_brand     : isom
    minor_version   : 512
    compatible_brands: isomiso2avc1mp41
    title           : 597365623764450
    encoder         : Lavf56.4.101
  Duration: 00:06:43.12, start: 0.160998, bitrate: 1085 kb/s
    Stream #0:0(und): Video: h264 (High) [avc1 / 0x31637661]
      yuv420p, 1280x720 [PAR 1:1 DAR 16:9], 1062 kb/s
      24 fps, 90k tbn (default)
    Metadata:
      handler_name    : VideoHandler
    Stream #0:1(eng): Audio: aac (HE-AACv2) [mp4a / 0x6134706D]
      44100 Hz, stereo, fltp, 19 kb/s (default)
    Metadata:
      handler_name    : SoundHandler
[12:48:56] scan: decoding previews for title 1
[12:48:56] scan: audio 0x1: aac, rate=44100Hz, bitrate=19993 English (AAC) (2.0 ch)
[12:48:56] scan: 10 previews, 1280x720, 24.000 fps, autocrop = 0/0/0/0, aspect 16:9, PAR 1:1
[12:48:56] libhb: scan thread found 1 valid title(s)
[12:48:56] starting job
[12:48:56] job configuration:
[12:48:56]  * source
[12:48:56]    + /home/temp/Vid_raw/Taking the Plunge.mp4
[12:48:56]    + title 1, chapter(s) 1 to 1
[12:48:56]    + container: mov,mp4,m4a,3gp,3g2,mj2
[12:48:56]    + data rate: 1085 kbps
[12:48:56]  * destination
[12:48:56]    + /home/temp/Vid_re-encoded/Taking the Plunge.m4v
[12:48:56]    + container: MPEG-4 (libavformat)
[12:48:56]  * video track
[12:48:56]    + decoder: h264
[12:48:56]      + bitrate 1062 kbps
[12:48:56]    + filters
[12:48:56]      + Framerate Shaper (mode=1)
[12:48:56]        + frame rate: 24.000 fps -> constant 24.000 fps
[12:48:56]      + Crop and Scale (width=718:height=404:crop-top=0:crop-bottom=0:crop-left=0:crop-right=0)
[12:48:56]        + source: 1280 * 720, crop (0/0/0/0): 1280 * 720, scale: 718 * 404
[12:48:56]    + Output geometry
[12:48:56]      + storage dimensions: 718 x 404
[12:48:56]      + pixel aspect ratio: 1 : 1
[12:48:56]      + display dimensions: 718 x 404
[12:48:56]    + encoder: H.264 (libx264)
[12:48:56]      + options: ref=5:deblock=1,1,1:analyse=0x3,0x133:me=umh:subme=8:psy=0:chroma_me=1:fast_pskip=0:chroma_qp_offset=0:threads=12:sliced_threads=0:nr=0:interlaced=0:bluray_compat=0:constrained_intra=0:b_pyramid=2:b_bias=0:weightb=1:open_gop=0:keyint=250:keyint_min=23:scenecut=40:intra_refresh=0:rc_lookahead=40:mbtree=0:crf=26.0:qcomp=0.60:qpmin=0:qpmax=69:qpstep=4:vbv_maxrate=1500:vbv_bufsize=62500:crf_max=0.0:nal_hrd=none
[12:48:56]      + quality: 22.00 (RF)
[12:48:56]  * audio track 1
[12:48:56]    + decoder: English (AAC) (2.0 ch) (track 1, id 0x1)
[12:48:56]      + bitrate: 19 kbps, samplerate: 44100 Hz
[12:48:56]    + mixdown: Stereo
[12:48:56]    + encoder: AC3 (libavcodec)
[12:48:56]      + bitrate: 96 kbps, samplerate: 44100 Hz
[12:48:56] sync: expecting 9674 video frames
[12:48:56] encx264: min-keyint: 23, keyint: 250
[12:48:56] encx264: encoding at constant RF 22.000000
[12:48:56] encx264: unparsed options: psy=0:vbv_bufsize=62500:bluray_compat=0:sliced_threads=0:mbtree=0:ref=5:rc_lookahead=40:deblock=1,1:subme=8:analyse=none:me=umh:fast_pskip=0:b_pyramid=2:chroma_me=1:nr=0:qpmax=69:constrained_intra=0:chroma_qp_offset=0:threads=12:crf_max=0.0:qpmin=0:b_bias=0:vbv-bufsize=62500:open_gop=0:keyint=250:fast-pskip=0:keyint_min=23:intra_refresh=0:qpstep=4:vbv_maxrate=1500:nal_hrd=none:vbv-maxrate=1500
x264 [info]: using SAR=1/1
x264 [info]: using cpu capabilities: MMX2 SSE2Fast SSSE3 SSE4.2 AVX
x264 [info]: profile High, level 4.1
[12:48:56] sync: first pts audio 0x1 is 0
[12:48:56] sync: first pts video is 14489
[12:48:56] sync: Chapter 1 at frame 1 time 14489
[12:51:28] reader: done. 1 scr changes
[12:51:29] work: average encoding speed for job is 63.186398 fps
[12:51:29] vfr: 9667 frames output, 0 dropped and 3 duped for CFR/PFR
[12:51:29] vfr: lost time: 0 (0 frames)
[12:51:29] vfr: gained time: 0 (0 frames) (0 not accounted for)
[12:51:29] aac-decoder done: 8677 frames, 0 decoder errors
[12:51:29] h264-decoder done: 9664 frames, 0 decoder errors
[12:51:29] sync: got 9664 frames, 9674 expected
[12:51:29] sync: framerate min 23.994 fps, max 24.000 fps, avg 24.000 fps
x264 [info]: frame I:117   Avg QP:16.79  size: 17618
x264 [info]: frame P:4459  Avg QP:19.80  size:  7111
x264 [info]: frame B:5091  Avg QP:22.34  size:  1741
x264 [info]: consecutive B-frames: 20.0% 23.3% 18.0% 38.7%
x264 [info]: mb I  I16..4: 15.8% 64.9% 19.3%
x264 [info]: mb P  I16..4: 15.7%  0.0%  0.0%  P16..4: 67.3%  0.0%  0.0%  0.0%  0.0%    skip:17.0%
x264 [info]: mb B  I16..4:  0.6%  0.0%  0.0%  B16..8: 35.6%  0.0%  0.0%  direct: 1.9%  skip:61.9%  L0:33.1% L1:54.5% BI:12.3%
x264 [info]: 8x8 transform intra:9.0% inter:82.0%
x264 [info]: coded y,uvDC,uvAC intra: 46.9% 83.4% 48.3% inter: 20.6% 23.1% 2.1%
x264 [info]: i16 v,h,dc,p: 28% 24% 24% 23%
x264 [info]: i8 v,h,dc,ddl,ddr,vr,hd,vl,hu: 25% 24% 14%  5%  5%  5%  6%  6%  8%
x264 [info]: i4 v,h,dc,ddl,ddr,vr,hd,vl,hu: 37% 22% 10%  5%  6%  6%  5%  4%  5%
x264 [info]: i8c dc,h,v,p: 36% 26% 20% 18%
x264 [info]: Weighted P-Frames: Y:2.6% UV:2.2%
x264 [info]: ref P L0: 61.4% 13.3% 15.1%  4.8%  3.9%  1.5%  0.0%
x264 [info]: ref B L0: 88.7%  8.2%  2.6%  0.5%
x264 [info]: ref B L1: 96.5%  3.5%
x264 [info]: kb/s:846.71
[12:51:29] mux: track 0, 9667 frames, 42626702 bytes, 846.28 kbps, fifo 4096
[12:51:29] mux: track 1, 11569 frames, 4835368 bytes, 96.00 kbps, fifo 4096
[12:51:29] libhb: work result = 0
 
Input files properties

Code: Select all

General
Complete name                            : /home/temp/Vid_raw/Taking the Plunge.mp4
Format                                   : MPEG-4
Format profile                           : Base Media
Codec ID                                 : isom (isom/iso2/avc1/mp41)
File size                                : 52.1 MiB
Duration                                 : 6mn 43s
Overall bit rate                         : 1 085 Kbps
Movie name                               : 597365623764450
Encoded date                             : UTC 1904-01-01 00:00:00
Tagged date                              : UTC 1904-01-01 00:00:00
Writing application                      : Lavf56.4.101
Output file properties - "Movie name" has been copied

Code: Select all

General
Complete name                            : /home/temp/Vid_re-encoded/Taking the Plunge.m4v
Format                                   : MPEG-4
Format profile                           : Base Media / Version 2
Codec ID                                 : mp42 (isom/iso2/avc1/mp41)
File size                                : 45.6 MiB
Duration                                 : 6mn 42s
Overall bit rate                         : 949 Kbps
Movie name                               : 597365623764450
Encoded date                             : UTC 2017-01-02 12:48:56
Tagged date                              : UTC 2017-01-02 12:48:56
Writing application                      : HandBrake 1.0.1 2016122900

Post Reply