With NLMeans + HQDN3D it stops immediately

Archive of historical bug reports.
Please use the GitHub link above to report issues.
Forum rules
*******************************
Please be aware we are now using GitHub for issue tracking and feature requests.
- This section of the forum is now closed to new topics.

*******************************
linuxuser
Bright Spark User
Posts: 184
Joined: Fri Jan 06, 2012 7:47 pm

With NLMeans + HQDN3D it stops immediately

Post by linuxuser »

I use this kdenlive-file
$ mediainfo /videos/movies/source.mkv
General
Unique ID : 233916186973503341475433439516670773789 (0xAFFA9E70073B0BF9EF09CACA67734A1D)
Complete name : /videos/movies/source.mkv
Format : Matroska
Format version : Version 2
File size : 976 MiB
Duration : 59mn 47s
Overall bit rate : 2 282 Kbps
Writing application : Lavf54.20.4
Writing library : Lavf54.20.4

Video
ID : 1
Format : AVC
Format/Info : Advanced Video Codec
Format profile : High@L3.0
Format settings, CABAC : Yes
Format settings, ReFrames : 4 frames
Codec ID : V_MPEG4/ISO/AVC
Duration : 59mn 47s
Bit rate : 1 789 Kbps
Width : 720 pixels
Height : 576 pixels
Display aspect ratio : 16:9
Frame rate mode : Constant
Frame rate : 25.000 fps
Standard : PAL
Color space : YUV
Chroma subsampling : 4:2:0
Bit depth : 8 bits
Scan type : MBAFF
Bits/(Pixel*Frame) : 0.173
Stream size : 765 MiB (78%)
Writing library : x264 core 142 r2389 956c8d8
Encoding settings : cabac=1 / ref=3 / deblock=1:0:0 / analyse=0x3:0x113 / me=hex / subme=7 / psy=1 / psy_rd=1,00:0,00 / mixed_ref=1 / me_range=16 / chroma_me=1 / trellis=1 / 8x8dct=1 / cqm=0 / deadzone=21,11 / fast_pskip=1 / chroma_qp_offset=-2 / threads=12 / lookahead_threads=2 / sliced_threads=0 / nr=0 / decimate=1 / interlaced=tff / bluray_compat=0 / constrained_intra=0 / bframes=3 / b_pyramid=2 / b_adapt=1 / b_bias=0 / direct=1 / weightb=1 / open_gop=0 / weightp=0 / keyint=250 / keyint_min=25 / scenecut=40 / intra_refresh=0 / rc_lookahead=40 / rc=crf / mbtree=1 / crf=18,0 / qcomp=0,60 / qpmin=0 / qpmax=69 / qpstep=4 / ip_ratio=1,25 / aq=1:1,00
Default : Yes
Forced : No

Audio
ID : 2
Format : AC-3
Format/Info : Audio Coding 3
Mode extension : CM (complete main)
Format settings, Endianness : Big
Codec ID : A_AC3
Duration : 59mn 47s
Bit rate mode : Constant
Bit rate : 448 Kbps
Channel(s) : 2 channels
Channel positions : Front: L R
Sampling rate : 48.0 KHz
Bit depth : 16 bits
Compression mode : Lossy
Delay relative to video : 1mn 5s
Stream size : 192 MiB (20%)
Default : Yes
Forced : No
A default "high profile" works fine, which you see at the beginnung of the following log. If I stop it and add NLMeans ultralight / film filter, it says immediately that the the encoding is ended, after encoding is started.

[22:57:14] gtkgui: HandBrake svn6983 (2015031201) - Linux x86_64 - https://handbrake.fr
[22:57:14] hb_init: starting libhb thread
[22:57:14] hb_init: starting libhb thread
[22:57:14] hb_init: starting libhb thread

(ghb:5197): Gdk-WARNING **: gdk_window_set_icon_list: icons too large
[22:57:25] CPU:
[22:57:25] - logical processor count: 8
[22:57:25] hb_scan: path=/videos/movies/source.mkv, title_index=0
libbluray/bdnav/index_parse.c:162: indx_parse(): error opening /videos/movies/source.mkv/BDMV/index.bdmv
libbluray/bdnav/index_parse.c:162: indx_parse(): error opening /videos/movies/source.mkv/BDMV/BACKUP/index.bdmv
libbluray/bluray.c:2182: nav_get_title_list(/videos/movies/source.mkv) failed
[22:57:25] bd: not a bd - trying as a stream/file instead
libdvdnav: Using dvdnav version 5.0.1
libdvdread:DVDOpenFileUDF:UDFFindFile /VIDEO_TS/VIDEO_TS.IFO failed
libdvdread:DVDOpenFileUDF:UDFFindFile /VIDEO_TS/VIDEO_TS.BUP failed
libdvdread: Can't open file VIDEO_TS.IFO.
libdvdnav: vm: failed to read VIDEO_TS.IFO
[22:57:25] dvd: not a dvd - trying as a stream/file instead
Input #0, matroska,webm, from '/videos/movies/source.mkv':
Metadata:
ENCODER : Lavf54.20.4
Duration: 00:59:47.53, start: 0.000000, bitrate: N/A
Stream #0.0: Video: h264 (High), yuv420p, 720x576 [PAR 64:45 DAR 16:9], 25 fps, 1k tbn, 50 tbc (default)
Stream #0.1: Audio: ac3, 48000 Hz, stereo, fltp, 448 kb/s (default)
[22:57:25] scan: decoding previews for title 1
[22:57:25] scan: audio 0x1: ac3, rate=48000Hz, bitrate=448000 Unknown (AC3) (2.0 ch)
[22:57:25] scan: 10 previews, 720x576, 25,000 fps, autocrop = 0/0/0/0, aspect 16:9, PAR 64:45
[22:57:25] libhb: scan thread found 1 valid title(s)
[22:58:07] gtkgui: Modified Preset: Regular->High Profile
[22:58:07] 1 job(s) to process
[22:58:07] CPU:
[22:58:07] - logical processor count: 8
[22:58:07] hb_scan: path=/videos/movies/source.mkv, title_index=1
libbluray/bdnav/index_parse.c:162: indx_parse(): error opening /videos/movies/source.mkv/BDMV/index.bdmv
libbluray/bdnav/index_parse.c:162: indx_parse(): error opening /videos/movies/source.mkv/BDMV/BACKUP/index.bdmv
libbluray/bluray.c:2182: nav_get_title_list(/videos/movies/source.mkv) failed
[22:58:07] bd: not a bd - trying as a stream/file instead
libdvdnav: Using dvdnav version 5.0.1
libdvdread:DVDOpenFileUDF:UDFFindFile /VIDEO_TS/VIDEO_TS.IFO failed
libdvdread:DVDOpenFileUDF:UDFFindFile /VIDEO_TS/VIDEO_TS.BUP failed
libdvdread: Can't open file VIDEO_TS.IFO.
libdvdnav: vm: failed to read VIDEO_TS.IFO
[22:58:07] dvd: not a dvd - trying as a stream/file instead
Input #0, matroska,webm, from '/videos/movies/source.mkv':
Metadata:
ENCODER : Lavf54.20.4
Duration: 00:59:47.53, start: 0.000000, bitrate: N/A
Stream #0.0: Video: h264 (High), yuv420p, 720x576 [PAR 64:45 DAR 16:9], 25 fps, 1k tbn, 50 tbc (default)
Stream #0.1: Audio: ac3, 48000 Hz, stereo, fltp, 448 kb/s (default)
[22:58:07] scan: decoding previews for title 1
[22:58:07] scan: audio 0x1: ac3, rate=48000Hz, bitrate=448000 Unknown (AC3) (2.0 ch)
[22:58:07] scan: 10 previews, 720x576, 25,000 fps, autocrop = 0/0/0/0, aspect 16:9, PAR 64:45
[22:58:07] libhb: scan thread found 1 valid title(s)
[22:58:07] starting job
[22:58:07] yadif thread started for segment 0
[22:58:07] yadif thread started for segment 1
[22:58:07] yadif thread started for segment 2
[22:58:07] yadif thread started for segment 3
[22:58:07] yadif thread started for segment 4
[22:58:07] yadif thread started for segment 5
[22:58:07] yadif thread started for segment 6
[22:58:07] yadif thread started for segment 7
[22:58:07] decomb filter thread started for segment 2
[22:58:07] decomb filter thread started for segment 1
[22:58:07] decomb filter thread started for segment 4
[22:58:07] decomb filter thread started for segment 3
[22:58:07] decomb filter thread started for segment 7
[22:58:07] decomb filter thread started for segment 5
[22:58:07] decomb filter thread started for segment 6
[22:58:07] decomb filter thread started for segment 0
[22:58:07] decomb check thread started for segment 0
[22:58:07] decomb check thread started for segment 7
[22:58:07] decomb check thread started for segment 2
[22:58:07] decomb check thread started for segment 3
[22:58:07] mask filter thread started for segment 4
[22:58:07] decomb check thread started for segment 5
[22:58:07] decomb check thread started for segment 6
[22:58:07] decomb check thread started for segment 1
[22:58:07] mask filter thread started for segment 0
[22:58:07] mask erode thread started for segment 1
[22:58:07] mask erode thread started for segment 2
[22:58:07] mask filter thread started for segment 3
[22:58:07] mask erode thread started for segment 4
[22:58:07] mask filter thread started for segment 5
[22:58:07] mask erode thread started for segment 7
[22:58:07] mask filter thread started for segment 7
[22:58:07] mask erode thread started for segment 0
[22:58:07] mask filter thread started for segment 1
[22:58:07] mask dilate thread started for segment 4
[22:58:07] mask erode thread started for segment 3
[22:58:07] mask dilate thread started for segment 7
[22:58:07] mask erode thread started for segment 5
[22:58:07] mask erode thread started for segment 6
[22:58:07] mask filter thread started for segment 6
[22:58:07] mask dilate thread started for segment 0
[22:58:07] mask dilate thread started for segment 1
[22:58:07] mask dilate thread started for segment 3
[22:58:07] mask dilate thread started for segment 2
[22:58:07] mask filter thread started for segment 2
[22:58:07] mask dilate thread started for segment 5
[22:58:07] mask dilate thread started for segment 6
[22:58:07] decomb check thread started for segment 4
[22:58:07] sync: expecting 89688 video frames
[22:58:07] job configuration:
[22:58:07] * source
[22:58:07] + /videos/movies/source.mkv
[22:58:07] + title 1, chapter(s) 1 to 1
[22:58:07] + container: matroska,webm
[22:58:07] * destination
[22:58:07] + /tapes/source_highprofile_default.m4v
[22:58:07] + container: MPEG-4 (libavformat)
[22:58:07] * video track
[22:58:07] + decoder: h264
[22:58:07] + filters
[22:58:07] + Decomb (default settings)
[22:58:07] + Framerate Shaper (0)
[22:58:07] + frame rate: same as source (around 25,000 fps)
[22:58:07] + Crop and Scale (768:432:0:0:0:0)
[22:58:07] + source: 720 * 576, crop (0/0/0/0): 720 * 576, scale: 768 * 432
[22:58:07] + Output geometry
[22:58:07] + storage dimensions: 768 x 432
[22:58:07] + pixel aspect ratio: 1 : 1
[22:58:07] + display dimensions: 768 x 432
[22:58:07] + encoder: H.264 (libx264)
[22:58:07] + preset: medium
[22:58:07] + profile: high
[22:58:07] + level: 4.1
[22:58:07] + quality: 20,00 (RF)
[22:58:07] * audio track 1
[22:58:07] + decoder: Unknown (AC3) (2.0 ch) (track 1, id 0x1)
[22:58:07] + bitrate: 448 kbps, samplerate: 48000 Hz
[22:58:07] + mixdown: Stereo
[22:58:07] + encoder: AAC (libavcodec)
[22:58:07] + bitrate: 96 kbps, samplerate: 48000 Hz
[22:58:07] * audio track 2
[22:58:07] + decoder: Unknown (AC3) (2.0 ch) (track 1, id 0x1)
[22:58:07] + bitrate: 448 kbps, samplerate: 48000 Hz
[22:58:07] + AC3 Passthru
[22:58:07] reader: first SCR 7200 id 0x0 DTS 7200
[22:58:07] encx264: encoding at constant RF 20,000000
[22:58:07] encx264: unparsed options: level=4.1:vbv-maxrate=62500:vbv-bufsize=78125
x264 [info]: using SAR=1/1
x264 [info]: using cpu capabilities: MMX2 SSE2Fast SSSE3 SSE4.2 AVX XOP FMA4 FMA3 LZCNT BMI1
x264 [info]: profile High, level 4.1
[22:58:58] work: average encoding speed for job is 113,897476 fps
[22:58:58] sync: got 5764 frames, 89688 expected
[22:58:58] decomb: deinterlaced 2931 | blended 564 | unfiltered 2265 | total 5760
[22:58:58] reader: done. 1 scr changes
[22:58:58] render: lost time: 0 (0 frames)
[22:58:58] render: gained time: 0 (0 frames) (0 not accounted for)
[22:58:58] h264-decoder done: 5790 frames, 0 decoder errors, 0 drops
x264 [info]: frame I:36 Avg QP:15,17 size: 26065
x264 [info]: frame P:2200 Avg QP:18,27 size: 6672
x264 [info]: frame B:3464 Avg QP:20,04 size: 1455
x264 [info]: consecutive B-frames: 5,1% 34,4% 21,3% 39,2%
x264 [info]: mb I I16..4: 20,1% 53,4% 26,5%
x264 [info]: mb P I16..4: 2,8% 4,5% 0,4% P16..4: 41,6% 14,6% 9,6% 0,0% 0,0% skip:26,4%
x264 [info]: mb B I16..4: 0,1% 0,1% 0,0% B16..8: 34,6% 2,8% 0,4% direct: 2,9% skip:58,9% L0:38,5% L1:53,6% BI: 7,9%
x264 [info]: 8x8 transform intra:56,6% inter:76,6%
x264 [info]: coded y,uvDC,uvAC intra: 31,0% 52,4% 27,3% inter: 12,7% 20,6% 0,6%
x264 [info]: i16 v,h,dc,p: 51% 27% 12% 10%
x264 [info]: i8 v,h,dc,ddl,ddr,vr,hd,vl,hu: 16% 13% 47% 3% 4% 5% 5% 4% 3%
x264 [info]: i4 v,h,dc,ddl,ddr,vr,hd,vl,hu: 29% 18% 17% 5% 8% 8% 6% 6% 4%
x264 [info]: i8c dc,h,v,p: 56% 23% 17% 4%
x264 [info]: Weighted P-Frames: Y:2,1% UV:1,9%
x264 [info]: ref P L0: 58,8% 8,6% 21,7% 10,9% 0,0%
x264 [info]: ref B L0: 80,2% 16,7% 3,1%
x264 [info]: ref B L1: 94,2% 5,8%
x264 [info]: kb/s:724,76
[22:58:58] ac3-decoder done: 0 frames, 0 decoder errors, 0 drops
[22:58:58] ac3-decoder done: 0 frames, 0 decoder errors, 0 drops
[22:58:58] mux: track 0, 4092 frames, 14876845 bytes, 726,94 kbps, fifo 2048
[22:58:58] mux: track 1, 7674 frames, 1971579 bytes, 96,34 kbps, fifo 4096
[22:58:58] mux: track 2, 5115 frames, 9166080 bytes, 447,89 kbps, fifo 4096
[22:58:58] libhb: work result = 0
[22:59:27] gtkgui: Modified Preset: Regular->High Profile
[22:59:27] 0 job(s) to process
[22:59:27] libhb: work result = 0
Last edited by linuxuser on Sun Apr 12, 2015 9:34 am, edited 1 time in total.
mduell
Veteran User
Posts: 7258
Joined: Sat Apr 21, 2007 8:54 pm

Re: With NLMeans it stops immediately

Post by mduell »

Need the log from when you used nlmeans.
linuxuser
Bright Spark User
Posts: 184
Joined: Fri Jan 06, 2012 7:47 pm

Re: With NLMeans it stops immediately

Post by linuxuser »

I added all the log I have. I am not very sure, but I think the 2nd encoding with nlmeans started after 22:59, so the last 3 lines should be from the 2nd encoding with nlmeans. Same behaviour, when the encoded file ist mkv. As alreday said, I start the encoding and within a second it says that encoding is finished.

Please let me know, how I can give you more informations. All I can say, that my "standard settings", which use always ultralight denoising worked with HandBrake 6945svn 2015022701. Now 6983svnppa1~trusty1 is installed, and I think the 2 versions before had the same problem, but I don't know the exact version, but my system is updated every few days normally.
linuxuser
Bright Spark User
Posts: 184
Joined: Fri Jan 06, 2012 7:47 pm

Re: With NLMeans it stops immediately

Post by linuxuser »

Don't know if it helps and IMHO there is no more info. I updated to the version svn6984 and the situation is the same as before. Encoding immediately stops, when I use NLMeans

Image

This is the log:
[14:17:57] gtkgui: HandBrake svn6984 (2015031301) - Linux x86_64 - https://handbrake.fr
[14:17:58] hb_init: starting libhb thread
[14:17:58] hb_init: starting libhb thread
[14:17:58] hb_init: starting libhb thread

(ghb:11353): Gdk-WARNING **: gdk_window_set_icon_list: icons too large
[14:18:10] CPU:
[14:18:10] - logical processor count: 8
[14:18:10] hb_scan: path=/tapes/test.mkv, title_index=0
libbluray/bdnav/index_parse.c:162: indx_parse(): error opening /tapes/test.mkv/BDMV/index.bdmv
libbluray/bdnav/index_parse.c:162: indx_parse(): error opening /tapes/test.mkv/BDMV/BACKUP/index.bdmv
libbluray/bluray.c:2182: nav_get_title_list(/tapes/test.mkv) failed
[14:18:10] bd: not a bd - trying as a stream/file instead
libdvdnav: Using dvdnav version 5.0.1
libdvdread:DVDOpenFileUDF:UDFFindFile /VIDEO_TS/VIDEO_TS.IFO failed
libdvdread:DVDOpenFileUDF:UDFFindFile /VIDEO_TS/VIDEO_TS.BUP failed
libdvdread: Can't open file VIDEO_TS.IFO.
libdvdnav: vm: failed to read VIDEO_TS.IFO
[14:18:10] dvd: not a dvd - trying as a stream/file instead
Input #0, matroska,webm, from '/tapes/test.mkv':
Metadata:
ENCODER : Lavf54.20.4
Duration: 00:59:47.53, start: 0.000000, bitrate: N/A
Stream #0.0: Video: h264 (High), yuv420p, 720x576 [PAR 64:45 DAR 16:9], 25 fps, 1k tbn, 50 tbc (default)
Stream #0.1: Audio: ac3, 48000 Hz, stereo, fltp, 448 kb/s (default)
[14:18:10] scan: decoding previews for title 1
[14:18:10] scan: audio 0x1: ac3, rate=48000Hz, bitrate=448000 Unknown (AC3) (2.0 ch)
[14:18:10] scan: 10 previews, 720x576, 25,000 fps, autocrop = 0/0/0/0, aspect 16:9, PAR 64:45
[14:18:10] libhb: scan thread found 1 valid title(s)
[14:19:29] gtkgui: Modified Preset: Regular->High Profile
[14:19:29] 0 job(s) to process
[14:19:29] libhb: work result = 0
Encoding started after 14:19 and again there are only 3 lines after I pressed the start button.
User avatar
JohnAStebbins
HandBrake Team
Posts: 5583
Joined: Sat Feb 09, 2008 7:21 pm

Re: With NLMeans it stops immediately

Post by JohnAStebbins »

Since the encode isn't really even starting, the encode settings are not getting written to the log. Could you try something else for me please. Set up the job the same way, add the job to the queue. Then quit the gui. This will leave a queue file in ~/.config/ghb/queue.???? with all the encoder settings. If you could post this file (in

Code: Select all

 please instead of [quote]) I will be able to see your exact settings and possibly reproduce the issue.

Thanks.
linuxuser
Bright Spark User
Posts: 184
Joined: Fri Jan 06, 2012 7:47 pm

Re: With NLMeans it stops immediately

Post by linuxuser »

What I did first was to do "rm -r ~/.config/ghb/" to delete files which could be the problem, unfortunately it did not help. I like also to mention, that I had similar behaviour before with presets, but then I found out, that the problem was solved when I created new presets and this happened only with some media-files downloaded from youtube, no idea what was the difference between working and not working.

I also checked, if the problem exists when I reduce my setting. Now I did nothing else than starting handbrake, activating NLMeans and starting the encoding. It stopped again immediately and when I quit and start handbrake again, I am asked what to do with the queued job.

Here is what you wanted, I deleted .config/ghb/, started handbrake, stored the job and this is in the queue:

This is a recording from a DVB-settopbox of a discussion, cut by Kdenlive and since I cannot tag it with Kdenlive it is recoded with handbrake. If It could help I could create a short clip of the original recording, so you can test with this file.

Code: Select all

[
    {
        "PictureLeftCrop": 0.0,
        "audio_list": [
            {
                "AudioTrackQualityEnable": false,
                "AudioEncoder": "av_aac",
                "AudioTrack": 0,
                "AudioTrackGainSlider": 0.0,
                "AudioTrackQuality": -1.0,
                "AudioTrackDRCSlider": 0.0,
                "AudioBitrate": "160",
                "AudioTrackName": "",
                "AudioSamplerate": "source",
                "AudioMixdown": "stereo",
                "AudioTrackDescription": "1 - Unknown (AC3) (2.0 ch)"
            }
        ],
        "scale_height": 576.0,
        "SrtOffset": 0.0,
        "AudioTrackQualityEnable": false,
        "AudioTrackGainSlider": 0.0,
        "UsesPictureFilters": 1,
        "AudioBitrate": "192",
        "PtoPType": "chapter",
        "SubtitleAddForeignAudioSubtitle": false,
        "AudioSamplerate": "source",
        "end_point": 1.0,
        "autoscale": false,
        "AudioTrack": "0",
        "dest_dir": "/home/ab",
        "MetaDescription": "",
        "x264FastDecode": false,
        "VideoProfile": "main",
        "title": "1",
        "title_selected": false,
        "VideoFrameratePFR": false,
        "source_width": 720,
        "PictureModulus": "2",
        "start_point": 1.0,
        "SrtCodeset": "ISO-8859-1",
        "Folder": false,
        "AudioTrackDRCSlider": 0.90000000000000002,
        "SrtFile": "",
        "PictureDisplayHeight": 576.0,
        "subtitle_list": [],
        "SubtitleAddCC": false,
        "MetaName": "test",
        "VideoQualitySlider": 20,
        "AudioEncoder": "copy:ac3",
        "MetaComment": "",
        "PresetBuildNumber": "",
        "VideoFramerateCFR": false,
        "VideoLevel": "4.0",
        "PictureHeight": 0.0,
        "vquality_type_bitrate": false,
        "angle": 1.0,
        "PictureDisplayWidth": 1024.0,
        "angle_count": 1,
        "PictureDenoiseFilter": "nlmeans",
        "MetaLongDescription": "",
        "AudioTrackQuality": -3.0,
        "AudioMixdown": "dpl2",
        "single_title": 1.0,
        "PictureDeblock": 4,
        "AudioTrackName": "",
        "preset_modified": true,
        "VideoFramerateVFR": true,
        "PictureRightCrop": 0.0,
        "preset_selection": [
            "Regular",
            "Normal"
        ],
        "dest_file": "test.m4v",
        "PictureTopCrop": 0.0,
        "VideoFramerateMode": "vfr",
        "MetaReleaseDate": "",
        "PictureDenoiseTune": "film",
        "PicturePAR": "2",
        "MetaArtist": "",
        "Default": 1,
        "VideoTurboTwoPass": false,
        "PictureBottomCrop": 0.0,
        "MetaAlbumArtist": "",
        "PictureDeinterlace": "off",
        "PictureDetelecine": "off",
        "AudioAllowMP3Pass": true,
        "scale_width": 720.0,
        "UsesPictureSettings": 1,
        "PictureLooseCrop": false,
        "PictureWidth": 0.0,
        "MetaGenre": "",
        "SubtitleBurnDVDSub": false,
        "preset": [
            "Regular",
            "Normal"
        ],
        "preset_reload": false,
        "Mp4iPodCompatible": false,
        "VideoOptionExtra": "",
        "volume_label": "test",
        "AudioList": [
            {
                "AudioTrackDRCSlider": 0.0,
                "AudioBitrate": "160",
                "AudioTrackQualityEnable": false,
                "AudioEncoder": "av_aac",
                "AudioTrack": 1,
                "AudioTrackGainSlider": 0.0,
                "AudioTrackQuality": -1.0,
                "AudioMixdown": "dpl2",
                "AudioSamplerate": "source"
            }
        ],
        "start_frame": -1,
        "PictureDeinterlaceDecomb": false,
        "AudioTrackSelectionBehavior": "first",
        "PicturePARHeight": 45.0,
        "FileFormat": "av_mp4",
        "chapter_list": [
            "Kapitel  1"
        ],
        "vquality_type_constant": true,
        "PresetDescription": "HandBrake's normal, default settings.",
        "PictureDeinterlaceCustom": "",
        "SrtLanguage": "und",
        "PictureDetelecineCustom": "",
        "VideoPresetSlider": 2,
        "PictureDenoisePreset": "ultralight",
        "AudioEncoderFallback": "ac3",
        "x264ZeroLatency": false,
        "PictureDecombCustom": "",
        "AudioAllowAC3Pass": true,
        "AudioAllowDTSPass": true,
        "AudioAllowAACPass": true,
        "Mp4HttpOptimize": false,
        "PictureAutoCrop": true,
        "ChapterMarkers": true,
        "VideoGrayScale": false,
        "PicturePARWidth": 64.0,
        "SubtitleLanguageList": [
            "und"
        ],
        "VideoAvgBitrate": 2500.0,
        "VideoFramerate": "source",
        "PresetName": "Normal",
        "PictureKeepRatio": true,
        "destination": "/home/ab/test.m4v",
        "PictureDenoiseCustom": "",
        "AudioLanguageList": [
            "und"
        ],
        "PictureDecomb": "off",
        "PictureDecombDeinterlace": true,
        "AudioSecondaryEncoderMode": true,
        "AudioAllowDTSHDPass": true,
        "Type": 0,
        "VideoPreset": "veryfast",
        "SubtitleTrackSelectionBehavior": "none",
        "SubtitleBurnBDSub": false,
        "SubtitleAddForeignAudioSearch": false,
        "SubtitleBurnBehavior": "none",
        "VideoTwoPass": false,
        "VideoEncoder": "x264",
        "preview_frame": 2,
        "VideoQualityType": 2,
        "VideoTune": "none",
        "x264UseAdvancedOptions": false,
        "PreferredLanguage": "und",
        "source_height": 576,
        "source": "/tapes/test.mkv",
        "display_aspect": "16,00 : 9",
        "Preferences": {
            "live_duration": 15.0,
            "last_update_check": 0,
            "reduce_hd_preview": true,
            "AutoScan": false,
            "LogLongevity": "immortal",
            "HideAdvancedVideoSettings": true,
            "use_dvdnav": true,
            "MinTitleDuration": 10.0,
            "auto_name_template": "{source}",
            "RemoveFinishedJobs": false,
            "version": "0.1",
            "update_skip_version": 0,
            "default_source": "/tapes/test.mkv",
            "allow_tweaks": false,
            "preview_fullscreen": false,
            "destination_dir": "/home/ab",
            "EncodeLogLocation": false,
            "hbfd": false,
            "AddCC": false,
            "ExportDirectory": "/home/ab/Schreibtisch",
            "window_height": 614,
            "check_updates": "weekly",
            "hbfd_feature": false,
            "LoggingLevel": "1",
            "preview_count": 10.0,
            "preview_show_crop": false,
            "preview_x": -1,
            "preview_y": -1,
            "show_presets": true,
            "UseM4v": true,
            "auto_name": true,
            "WhenComplete": "notify",
            "VideoQualityGranularity": "1",
            "PreferredLanguage": "und",
            "SrtDir": "/home/ab",
            "window_width": 1048
        },
        "job_status": 0,
        "job_unique_id": 0
    }
]
linuxuser
Bright Spark User
Posts: 184
Joined: Fri Jan 06, 2012 7:47 pm

Re: With NLMeans it stops immediately

Post by linuxuser »

Here is a short sample with 30 seconds, which cannot be coded when NlMeans is activated: http://www.file-upload.net/download-104 ... v.zip.html

Password will be sent by private note to John (still in outbox, don't know if I forget to click a button to send the mail) If anyone else likes to check, please send me a private note.
User avatar
JohnAStebbins
HandBrake Team
Posts: 5583
Joined: Sat Feb 09, 2008 7:21 pm

Re: With NLMeans it stops immediately

Post by JohnAStebbins »

This is a stumper. I used your queue file (modified the file paths manually but left all settings the same) and your video sample. Open the queue pane, load the queue file with the "Load Queue File" button, and press start. Works perfectly for me. No indication of any problem here.
linuxuser
Bright Spark User
Posts: 184
Joined: Fri Jan 06, 2012 7:47 pm

Re: With NLMeans it stops immediately

Post by linuxuser »

Thanks for testing. If I change to HQDN3D everything is fine. What can I do to remove all files which have to do with NLMeans? I use Xubuntu 14.04.
User avatar
JohnAStebbins
HandBrake Team
Posts: 5583
Joined: Sat Feb 09, 2008 7:21 pm

Re: With NLMeans it stops immediately

Post by JohnAStebbins »

There are no files specific to nlmeans.
linuxuser
Bright Spark User
Posts: 184
Joined: Fri Jan 06, 2012 7:47 pm

Re: With NLMeans it stops immediately

Post by linuxuser »

For information: I installed the pc completely new and the behaviour did not change. Very very rarely it works with NLMeans, but most times it stops immediately, while it always works with HQDN3D.
User avatar
Rodeo
HandBrake Team
Posts: 12619
Joined: Tue Mar 03, 2009 8:55 pm

Re: With NLMeans it stops immediately

Post by Rodeo »

Have you tried the 0.10.1 release instead of a nightly?
linuxuser
Bright Spark User
Posts: 184
Joined: Fri Jan 06, 2012 7:47 pm

Re: With NLMeans it stops immediately

Post by linuxuser »

No, is it possible to tag with the stable version? AFAIK only the nightly can create tags. Tags are very important for me. If you think it helps, I can remove the nightly repo and try it. There is a good chance that it works, since it worked for a long time.
User avatar
Rodeo
HandBrake Team
Posts: 12619
Joined: Tue Mar 03, 2009 8:55 pm

Re: With NLMeans it stops immediately

Post by Rodeo »

It has less tagging features, but it would rule out the new assembly code which is not in the 0.10.x branch.
User avatar
JohnAStebbins
HandBrake Team
Posts: 5583
Joined: Sat Feb 09, 2008 7:21 pm

Re: With NLMeans it stops immediately

Post by JohnAStebbins »

Can you start ghb from an xterm and see if there are any messages getting logged to the terminal? It looks like I accidentally sent several of my error log messages to stdout instead of stderr, so an error message may not be getting written to the activity log.
linuxuser
Bright Spark User
Posts: 184
Joined: Fri Jan 06, 2012 7:47 pm

Re: With NLMeans it stops immediately

Post by linuxuser »

I do not use the latest handbrake at the moment, but I will updated for testing of course.

dpkg -l | grep -i handbrake
ii handbrake-cli 7008svnppa1~trusty1 amd64 versatile DVD ripper and video transcoder - command line
ii handbrake-gtk 7008svnppa1~trusty1 amd64 versatile DVD ripper and video transcoder - GTK GUI

~$ ghb
Gtk: Failed to set text from markup due to error parsing markup: Fehler in Zeile 1, Zeichen 35: Element »markup« wurde geschlossen, aber das derzeit offene Element ist »b«

Maybe this occurs since 3 other Handbrake encodings are running at the moment.

In a terminal I can start HandBrakeCLI too, just an info.

I am guessing, I hope I didn't mix stable and unstable versions somehow.

I will test ASAP, at the moment I am encoding 3 dvb-recordings. Probably tomorrow evening.
linuxuser
Bright Spark User
Posts: 184
Joined: Fri Jan 06, 2012 7:47 pm

Re: With NLMeans it stops immediately

Post by linuxuser »

Unfortunately there is no more info started ghb in a shell:

~$ ghb
Gtk: Failed to set text from markup due to error parsing markup: Fehler in Zeile 1, Zeichen 35: Element »markup« wurde geschlossen, aber das derzeit offene Element ist »b«
linuxuser
Bright Spark User
Posts: 184
Joined: Fri Jan 06, 2012 7:47 pm

Re: With NLMeans + HQDN3D it stops immediately

Post by linuxuser »

I changed the title of the thread. Now with HandBrake svn7085 (2015041201) and HQDN3D the encoding doesn't start too. If I disable denoise everything seems to be fine.
Last edited by linuxuser on Sun Apr 12, 2015 9:55 am, edited 2 times in total.
linuxuser
Bright Spark User
Posts: 184
Joined: Fri Jan 06, 2012 7:47 pm

Re: With NLMeans + HQDN3D it stops immediately

Post by linuxuser »

I removed the snapshot repo and try now HandBrake 0.10.1 (2015030800) - Linux x86_64. For the moment NLMeans works, which didn't with svn7085 (2015041201). Let me know, if you need some info.
linuxuser
Bright Spark User
Posts: 184
Joined: Fri Jan 06, 2012 7:47 pm

Re: With NLMeans + HQDN3D it stops immediately

Post by linuxuser »

HandBrake 0.10.1 (2015030800) doesn't write metatags, like title, year, a.s.o which is very important for me.

Edit: This cannot be said generally. for the stable version. Now one encoding contained metatags.
linuxuser
Bright Spark User
Posts: 184
Joined: Fri Jan 06, 2012 7:47 pm

Re: With NLMeans + HQDN3D it stops immediately

Post by linuxuser »

In the meantime I encoded a few very problematic dvb-streams, eg they could not be played with vlc or only partially, crashed with kdenlive, a.s.o.
HandBrake 0.10.1 (2015030800) encoded them all as expected, no problems detected. So IMHO there must be a bug with the development versions.
linuxuser
Bright Spark User
Posts: 184
Joined: Fri Jan 06, 2012 7:47 pm

Re: With NLMeans + HQDN3D it stops immediately

Post by linuxuser »

I think this log is related to this topic, although encoding took 10 minutes, but at the end the filesize was 5,2kb

I will wait until tomorrow and use the unstable repo then.


Code: Select all

[15:23:46] gtkgui: HandBrake 0.10.1 (2015030800) - Linux x86_64 - https://handbrake.fr
[15:23:46] hb_init: starting libhb thread
[15:23:46] hb_init: starting libhb thread

(ghb:8485): Gdk-WARNING **: gdk_window_set_icon_list: icons too large
[15:25:33] CPU: 
[15:25:33]  - logical processor count: 8
[15:25:33] OpenCL: library not available
[15:25:33] hb_scan: path=/tapes/tempmkvsource/20150419-0227---hr-fernsehen-hd---der-schwarze-blitz~16.9_1280x720p_v_8349kbps_vmpg4_mp3_48khz_1h33mn.mkv, title_index=0
libbluray/bdnav/index_parse.c:162: indx_parse(): error opening /tapes/tempmkvsource/20150419-0227---hr-fernsehen-hd---der-schwarze-blitz~16.9_1280x720p_v_8349kbps_vmpg4_mp3_48khz_1h33mn.mkv/BDMV/index.bdmv
libbluray/bdnav/index_parse.c:162: indx_parse(): error opening /tapes/tempmkvsource/20150419-0227---hr-fernsehen-hd---der-schwarze-blitz~16.9_1280x720p_v_8349kbps_vmpg4_mp3_48khz_1h33mn.mkv/BDMV/BACKUP/index.bdmv
libbluray/bluray.c:2182: nav_get_title_list(/tapes/tempmkvsource/20150419-0227---hr-fernsehen-hd---der-schwarze-blitz~16.9_1280x720p_v_8349kbps_vmpg4_mp3_48khz_1h33mn.mkv) failed
[15:25:33] bd: not a bd - trying as a stream/file instead
libdvdnav: Using dvdnav version 5.0.1
libdvdread:DVDOpenFileUDF:UDFFindFile /VIDEO_TS/VIDEO_TS.IFO failed
libdvdread:DVDOpenFileUDF:UDFFindFile /VIDEO_TS/VIDEO_TS.BUP failed
libdvdread: Can't open file VIDEO_TS.IFO.
libdvdnav: vm: failed to read VIDEO_TS.IFO
[15:25:33] dvd: not a dvd - trying as a stream/file instead
Input #0, matroska,webm, from '/tapes/tempmkvsource/20150419-0227---hr-fernsehen-hd---der-schwarze-blitz~16.9_1280x720p_v_8349kbps_vmpg4_mp3_48khz_1h33mn.mkv':
  Duration: 01:33:56.90, start: 0.000000, bitrate: N/A
    Stream #0.0: Video: h264 (High), yuv420p, 1280x720 [PAR 1:1 DAR 16:9], 50 fps, 1k tbn, 100 tbc (default)
    Stream #0.1(ger): Audio: mp2, 48000 Hz, 2 channels, s16p, 192 kb/s (default)
    Stream #0.2(mis): Audio: mp2, 48000 Hz, 2 channels, s16p, 192 kb/s
    Stream #0.3(ger): Audio: ac3, 48000 Hz, stereo, fltp, 448 kb/s
[15:25:34] scan: decoding previews for title 1
[15:25:34] scan: audio 0x3: ac3, rate=48000Hz, bitrate=448000 Deutsch (AC3) (2.0 ch)
[15:25:34] scan: audio 0x1: mp2, rate=48000Hz, bitrate=192000 Deutsch (MPEG) (2.0 ch)
[15:25:34] scan: audio 0x2: mp2, rate=48000Hz, bitrate=192000 Unknown (MPEG) (2.0 ch)
[15:25:44] scan: 30 previews, 1280x720, 50,000 fps, autocrop = 4/2/172/168, aspect 16:9, PAR 1:1
[15:25:44] libhb: scan thread found 1 valid title(s)

** (ghb:8485): WARNING **: Inhibit failed: The name org.freedesktop.PowerManagement was not provided by any .service files
[15:33:29] CPU: 
[15:33:29]  - logical processor count: 8
[15:33:29] OpenCL: library not available
[15:33:29] hb_scan: path=/tapes/tempmkvsource/20150419-0227---hr-fernsehen-hd---der-schwarze-blitz~16.9_1280x720p_v_8349kbps_vmpg4_mp3_48khz_1h33mn.mkv, title_index=1
libbluray/bdnav/index_parse.c:162: indx_parse(): error opening /tapes/tempmkvsource/20150419-0227---hr-fernsehen-hd---der-schwarze-blitz~16.9_1280x720p_v_8349kbps_vmpg4_mp3_48khz_1h33mn.mkv/BDMV/index.bdmv
libbluray/bdnav/index_parse.c:162: indx_parse(): error opening /tapes/tempmkvsource/20150419-0227---hr-fernsehen-hd---der-schwarze-blitz~16.9_1280x720p_v_8349kbps_vmpg4_mp3_48khz_1h33mn.mkv/BDMV/BACKUP/index.bdmv
libbluray/bluray.c:2182: nav_get_title_list(/tapes/tempmkvsource/20150419-0227---hr-fernsehen-hd---der-schwarze-blitz~16.9_1280x720p_v_8349kbps_vmpg4_mp3_48khz_1h33mn.mkv) failed
[15:33:29] bd: not a bd - trying as a stream/file instead
libdvdnav: Using dvdnav version 5.0.1
libdvdread:DVDOpenFileUDF:UDFFindFile /VIDEO_TS/VIDEO_TS.IFO failed
libdvdread:DVDOpenFileUDF:UDFFindFile /VIDEO_TS/VIDEO_TS.BUP failed
libdvdread: Can't open file VIDEO_TS.IFO.
libdvdnav: vm: failed to read VIDEO_TS.IFO
[15:33:29] dvd: not a dvd - trying as a stream/file instead
Input #0, matroska,webm, from '/tapes/tempmkvsource/20150419-0227---hr-fernsehen-hd---der-schwarze-blitz~16.9_1280x720p_v_8349kbps_vmpg4_mp3_48khz_1h33mn.mkv':
  Duration: 01:33:56.90, start: 0.000000, bitrate: N/A
    Stream #0.0: Video: h264 (High), yuv420p, 1280x720 [PAR 1:1 DAR 16:9], 50 fps, 1k tbn, 100 tbc (default)
    Stream #0.1(ger): Audio: mp2, 48000 Hz, 2 channels, s16p, 192 kb/s (default)
    Stream #0.2(mis): Audio: mp2, 48000 Hz, 2 channels, s16p, 192 kb/s
    Stream #0.3(ger): Audio: ac3, 48000 Hz, stereo, fltp, 448 kb/s
[15:33:29] scan: decoding previews for title 1
[15:33:29] scan: audio 0x3: ac3, rate=48000Hz, bitrate=448000 Deutsch (AC3) (2.0 ch)
[15:33:29] scan: audio 0x1: mp2, rate=48000Hz, bitrate=192000 Deutsch (MPEG) (2.0 ch)
[15:33:29] scan: audio 0x2: mp2, rate=48000Hz, bitrate=192000 Unknown (MPEG) (2.0 ch)
[15:33:33] scan: 10 previews, 1280x720, 50,000 fps, autocrop = 4/2/172/168, aspect 16:9, PAR 1:1
[15:33:33] libhb: scan thread found 1 valid title(s)
[15:33:35] gtkgui: Modified Custom Preset: DVB 50-25fps col
[15:33:35] 1 job(s) to process
[15:33:35] starting job
[15:33:35] yadif thread started for segment 0
[15:33:35] yadif thread started for segment 1
[15:33:35] yadif thread started for segment 2
[15:33:35] yadif thread started for segment 6
[15:33:35] yadif thread started for segment 7
[15:33:35] mask erode thread started for segment 3
[15:33:35] mask erode thread started for segment 4
[15:33:35] mask erode thread started for segment 5
[15:33:35] NLMeans Denoise thread started for segment 1
[15:33:35] NLMeans Denoise thread started for segment 2
[15:33:35] NLMeans Denoise thread started for segment 3
[15:33:35] NLMeans Denoise thread started for segment 4
[15:33:35] NLMeans Denoise thread started for segment 5
[15:33:35] NLMeans Denoise thread started for segment 6
[15:33:35] NLMeans Denoise thread started for segment 7
[15:33:35] decomb filter thread started for segment 0
[15:33:35] mask erode thread started for segment 0
[15:33:35] yadif thread started for segment 5
[15:33:35] decomb filter thread started for segment 1
[15:33:35] decomb filter thread started for segment 2
[15:33:35] decomb filter thread started for segment 3
[15:33:35] yadif thread started for segment 4
[15:33:35] yadif thread started for segment 3
[15:33:35] decomb check thread started for segment 4
[15:33:35] decomb check thread started for segment 5
[15:33:35] decomb check thread started for segment 6
[15:33:35] decomb filter thread started for segment 4
[15:33:35] decomb check thread started for segment 7
[15:33:35] decomb filter thread started for segment 5
[15:33:35] mask filter thread started for segment 0
[15:33:35] mask filter thread started for segment 1
[15:33:35] decomb filter thread started for segment 6
[15:33:35] mask filter thread started for segment 2
[15:33:35] decomb filter thread started for segment 7
[15:33:35] mask filter thread started for segment 3
[15:33:35] decomb check thread started for segment 0
[15:33:35] mask filter thread started for segment 4
[15:33:35] decomb check thread started for segment 1
[15:33:35] mask filter thread started for segment 5
[15:33:35] decomb check thread started for segment 2
[15:33:35] mask dilate thread started for segment 4
[15:33:35] mask dilate thread started for segment 5
[15:33:35] mask dilate thread started for segment 6
[15:33:35] mask dilate thread started for segment 7
[15:33:35] NLMeans Denoise thread started for segment 0
[15:33:35] mask erode thread started for segment 1
[15:33:35] sync: expecting 269850 video frames
[15:33:35] job configuration:
[15:33:35]  * source
[15:33:35]    + /tapes/tempmkvsource/20150419-0227---hr-fernsehen-hd---der-schwarze-blitz~16.9_1280x720p_v_8349kbps_vmpg4_mp3_48khz_1h33mn.mkv
[15:33:35]    + title 1, start 00:00:2,00 stop 01:29:58,00
[15:33:35]    + container: matroska,webm
[15:33:35]  * destination
[15:33:35]    + /videos/movies/20150419-0227---hr-fernsehen-hd---der-schwarze-blitz~16.9_1280x720p_v_8349kbps_vmpg4_mp3_48khz_1h33mn.mkv
[15:33:35]    + container: Matroska (libavformat)
[15:33:35]  * video track
[15:33:35]    + decoder: h264
[15:33:35]    + filters
[15:33:35]      + Decomb (default settings)
[15:33:35]      + Framerate Shaper (1:27000000:1080000)
[15:33:35]        + frame rate: 50,000 fps -> constant 25,000 fps
[15:33:35]      + Denoise (nlmeans) (default settings)
[15:33:35]      + Crop and Scale (1024:566:80:124:174:174)
[15:33:35]        + source: 1280 * 720, crop (80/124/174/174): 932 * 516, scale: 1024 * 566
[15:33:35]    + dimensions: 1024 * 566, mod 2
[15:33:35]    + encoder: H.264 (libx264)
[15:33:35]      + preset:  medium
[15:33:35]      + tune:    film
[15:33:35]      + quality: 25,00 (RF)
[15:33:35]  * audio track 1
[15:33:35]    + decoder: Deutsch (MPEG) (2.0 ch) (track 1, id 0x1)
[15:33:35]      + bitrate: 192 kbps, samplerate: 48000 Hz
[15:33:35]    + mixdown: Stereo
[15:33:35]    + encoder: AAC (libavcodec)
[15:33:35]      + bitrate: 160 kbps, samplerate: 48000 Hz
[15:33:35] mask erode thread started for segment 6
[15:33:35] mask erode thread started for segment 7
[15:33:35] mask dilate thread started for segment 0
[15:33:35] mask dilate thread started for segment 1
[15:33:35] mask dilate thread started for segment 2
[15:33:35] mask dilate thread started for segment 3
[15:33:35] mask erode thread started for segment 2
[15:33:35] decomb check thread started for segment 3
[15:33:35] mask filter thread started for segment 7
[15:33:35] mask filter thread started for segment 6
[15:33:35] encx264: encoding at constant RF 25,000000
[15:33:35] encx264: unparsed options: deblock=-1,-1:psy-rd=1,00,0,15
x264 [info]: using cpu capabilities: MMX2 SSE2Fast SSSE3 SSE4.2 AVX XOP FMA4 FMA3 LZCNT BMI1
[15:33:35] reader: first SCR 146610 id 0x0 DTS 146610
x264 [info]: profile High, level 3.1
[15:33:35] sync: adding 768 ms of silence to audio 0x1  start 69120, next 0
[15:33:35] sync: first pts is 34200
[15:35:01] work: average encoding speed for job is 14,095265 fps
[15:35:01] reader: done. 1 scr changes
[15:35:01] sync: got 1207 frames, 269850 expected
[15:35:01] decomb: deinterlaced 0 | blended 0 | unfiltered 1189 | total 1189
[15:35:01] render: 591 frames output, 590 dropped and 0 duped for CFR/PFR
[15:35:01] render: lost time: 0 (0 frames)
[15:35:01] render: gained time: 0 (0 frames) (0 not accounted for)
[15:35:01] h264-decoder done: 1252 frames, 0 decoder errors, 0 drops
x264 [info]: frame I:3     Avg QP:26,12  size: 37740
x264 [info]: frame P:267   Avg QP:27,41  size: 13743
x264 [info]: frame B:244   Avg QP:31,18  size:  4086
x264 [info]: consecutive B-frames:  4,9% 95,1%  0,0%  0,0%
x264 [info]: mb I  I16..4:  4,2% 74,8% 21,0%
x264 [info]: mb P  I16..4:  0,7%  6,3%  1,7%  P16..4: 44,0% 18,8% 10,2%  0,0%  0,0%    skip:18,3%
x264 [info]: mb B  I16..4:  0,0%  0,4%  0,1%  B16..8: 35,4%  8,2%  2,3%  direct: 2,1%  skip:51,5%  L0:29,1% L1:58,4% BI:12,5%
x264 [info]: 8x8 transform intra:72,8% inter:72,0%
x264 [info]: coded y,uvDC,uvAC intra: 74,3% 58,2% 8,8% inter: 21,5% 17,7% 0,0%
x264 [info]: i16 v,h,dc,p: 36% 28% 14% 22%
x264 [info]: i8 v,h,dc,ddl,ddr,vr,hd,vl,hu: 23% 16% 15%  5%  7%  9%  8%  9%  8%
x264 [info]: i4 v,h,dc,ddl,ddr,vr,hd,vl,hu: 26% 16% 14%  5%  8% 10%  8%  8%  5%
x264 [info]: i8c dc,h,v,p: 58% 16% 19%  6%
x264 [info]: Weighted P-Frames: Y:26,6% UV:6,4%
x264 [info]: ref P L0: 62,0% 21,8% 10,8%  4,2%  1,2%
x264 [info]: ref B L0: 95,3%  4,7%
x264 [info]: kb/s:1859,76
[15:35:02] mp2-decoder done: 0 frames, 0 decoder errors, 0 drops
[15:35:02] mux: track 0, 0 frames, 0 bytes, 0,00 kbps, fifo 512
[15:35:02] mux: track 1, 0 frames, 0 bytes, 0,00 kbps, fifo 2048
[15:35:02] libhb: work result = 0
User avatar
JohnAStebbins
HandBrake Team
Posts: 5583
Joined: Sat Feb 09, 2008 7:21 pm

Re: With NLMeans + HQDN3D it stops immediately

Post by JohnAStebbins »

@linuxuser, FYI surrounding logs in "code" blocks instead of "quote" blocks is better for formatting. It doesn't force everyone to scroll past the full log text to see the next post. It also preserves the formatting of the log better so we can see indentation. quote blocks strip white space.

This particular encode finished early for some reason. The log doesn't really show the reason.

Code: Select all

[15:35:01] sync: got 1207 frames, 269850 expected
The timestamps in the log also indicates that it didn't encode for 10 minutes. The enocde lasted from 15:33:35 to 15:35:01. So only 1 minute 26 seconds. Are you sure you posted the correct log?
linuxuser
Bright Spark User
Posts: 184
Joined: Fri Jan 06, 2012 7:47 pm

Re: With NLMeans + HQDN3D it stops immediately

Post by linuxuser »

Ok, I will use "code" next time. Yes, I double checked, that I posted the whole log. I will shutdown the pc now and try to encode the file again, let's see what happens. Since Denoise take a long time, my next reply could take a while.
linuxuser
Bright Spark User
Posts: 184
Joined: Fri Jan 06, 2012 7:47 pm

Re: With NLMeans + HQDN3D it stops immediately

Post by linuxuser »

Trying now svn7105 (2015042001) with the dvb-source from above (der-schwarze-blitz), encoding wasn't stopped till now and the borders are cut off as desired.
Post Reply