AC3 5.1 pass through ends in AC3 2.0

Archive of historical bug reports.
Please use the GitHub link above to report issues.
Forum rules
*******************************
Please be aware we are now using GitHub for issue tracking and feature requests.
- This section of the forum is now closed to new topics.

*******************************
Post Reply
Vietwoojagig
Posts: 49
Joined: Thu Dec 17, 2009 8:38 am

AC3 5.1 pass through ends in AC3 2.0

Post by Vietwoojagig » Wed Sep 03, 2014 10:29 pm

Hi,

again a transport stream problem.

Handbrake identifies the following file as file with two audio tracks.
https://www.dropbox.com/s/vh4gkt75dcklh ... 10000bk.ts
Its the first 10000 blocks of an original file extracted with dd if=.. of=.. count=10000

Track 0: MPEG (2.0ch)
Track 1: AC3 (5.1ch)

I selected preset AppleTV2 and choose in Audio:
1. Track 1 AC3 (5.1ch) to AAC Dolby Pro Logic II
2. Track 1 AC3 (5.1ch) to AC3 pass through

The produced file has two audio tracks, first AAC (2ch) which is ok, but the second ends as AC3 (2ch).
Quicktime 7 sais, that data rate of AC3 (2ch) is 368.79kBit/s which is close to the original 384kbit/s of the original AC3 (5.1).

The file was initially cut at the Kathrein, and it looked to me, that it starts with the first key frame with 5.1 after BBC One switched from 2.0 to 5.1. So the key frame earlier was still 2.0.
I am sure, that if i would take the next key frame, that everything would be ok, but it will take approx. 4 seconds until the next key frame shows up.

Code: Select all

[00:03:03] macgui: Handbrake Version: 6360svn x86_64 (2014082501)
[00:03:03] hb_init: starting libhb thread
[00:03:03] hb_init: starting libhb thread
[00:03:04] macgui: built in presets updated to build number: 2014082501
[00:03:04] macgui: hbInstances path to this instance: /Users/******/Desktop/HandBrake.app
[00:03:04] macgui: hbInstance found instance pidnum: 2105 at path: /Users/******/Desktop/HandBrake.app
[00:03:04] macgui: hbInstance MATCH FOUND, our pidnum is: 2105
[00:03:04] macgui: Pid for this instance: 2105
[00:03:04] macgui: HBQueueController : My Pidnum is 2105
[00:03:11] macgui: trying to open video_ts folder (parent directory chosen)
[00:03:11] macgui: scanning titles with a duration of 10 seconds or more
[00:03:12] CPU: Intel(R) Core(TM)2 Duo CPU     P8600  @ 2.40GHz
[00:03:12]  - logical processor count: 2
[00:03:12] OpenCL device #1: NVIDIA GeForce 320M
[00:03:12]  - OpenCL version: 1.0 
[00:03:12]  - driver version: 8.24.15 310.90.9.05f01
[00:03:12]  - device type:    GPU
[00:03:12]  - supported:      no
[00:03:12] hb_scan: path=/Users/******/Dropbox/Videos/8.02-10000bk.ts, title_index=0
libbluray/bdnav/index_parse.c:162: indx_parse(): error opening /Users/******/Dropbox/Videos/8.02-10000bk.ts/BDMV/index.bdmv
libbluray/bdnav/index_parse.c:162: indx_parse(): error opening /Users/******/Dropbox/Videos/8.02-10000bk.ts/BDMV/BACKUP/index.bdmv
libbluray/bluray.c:2182: nav_get_title_list(/Users/******/Dropbox/Videos/8.02-10000bk.ts) failed
[00:03:12] bd: not a bd - trying as a stream/file instead
libdvdnav: Using dvdnav version 5.0.0
libdvdread:DVDOpenFileUDF:UDFFindFile /VIDEO_TS/VIDEO_TS.IFO failed
libdvdread:DVDOpenFileUDF:UDFFindFile /VIDEO_TS/VIDEO_TS.BUP failed
libdvdread: Can't open file VIDEO_TS.IFO.
libdvdnav: vm: failed to read VIDEO_TS.IFO
[00:03:12] dvd: not a dvd - trying as a stream/file instead
[00:03:12] file is MPEG Transport Stream with 188 byte packets offset 0 bytes
[00:03:12] Found the following PIDS
[00:03:12]     Video PIDS : 
[00:03:12]       0x1518 type H.264 (0x1b) (PCR)
[00:03:12]     Audio PIDS : 
[00:03:12]       0x151a type MPEG1 (0x3)
[00:03:12]       0x1519 type AC3 (0x81)
[00:03:12]     Subtitle PIDS : 
[00:03:12]     Other PIDS : 
[00:03:12]       0x151b type DVB Teletext (0x0)
[00:03:12]       0xf06 type ISO 13818-6 DSM-CC U-N msgs (0xb)
[00:03:12]       0xf07 type ISO 13818-6 DSM-CC U-N msgs (0xb)
[00:03:12]       0xf09 type ISO 13818-6 DSM-CC U-N msgs (0xb)
[00:03:12]       0x151c type DVB Subtitling (0x0)
[00:03:12]       0xf00 type ISO 13818-1 private section (0x5)
[00:03:12]       0xf01 type ISO 13818-1 private section (0x5)
[00:03:12]       0xf02 type ISO 13818-1 private section (0x5)
[00:03:12]       0xf03 type ISO 13818-1 private section (0x5)
[00:03:12]       0xf04 type ISO 13818-1 private section (0x5)
[00:03:12]       0x911 type ISO 13818-1 private section (0x5)
[00:03:12]       0x912 type ISO 13818-1 private section (0x5)
[00:03:12]       0x913 type ISO 13818-1 private section (0x5)
[00:03:12]       0x919 type ISO 13818-1 private section (0x5)
[00:03:12]       0x91a type ISO 13818-1 private section (0x5)
[00:03:12] stream id 0x151a (type 0x3 substream 0x0) audio 0x151a
[00:03:12] stream id 0x1519 (type 0x81 substream 0x0) audio 0x1519
[00:03:12] stream: error near frame 0: next_packet: sync lost @ 771176, regained after 188 bytes
[00:03:12] hb_ts_stream_getPEStype: EOF while searching for PID 0x1518
[00:03:12] hb_sample_pts: couldn't find video packet near 5100000
[00:03:12] scan: decoding previews for title 1
[00:03:12] scan: audio 0x1519: ac3, rate=48000Hz, bitrate=384000 English (AC3) (5.1 ch)
[00:03:12] scan: audio 0x151a: mp2, rate=48000Hz, bitrate=200000 Unknown (MPEG) (2.0 ch)
[00:03:12] stream: error near frame 0: next_packet: sync lost @ 771176, regained after 188 bytes
[00:03:12] stream: error near frame 0: next_packet: sync lost @ 771176, regained after 188 bytes
[00:03:12] stream: error near frame 0: next_packet: sync lost @ 771176, regained after 188 bytes
[00:03:12] stream: error near frame 0: next_packet: sync lost @ 771176, regained after 188 bytes
[00:03:12] stream: error near frame 5: next_packet: sync lost @ 1542164, regained after 188 bytes
[00:03:12] stream: error near frame 5: next_packet: sync lost @ 1542164, regained after 188 bytes
[00:03:12] stream: error near frame 5: next_packet: sync lost @ 1542164, regained after 188 bytes
[00:03:13] stream: error near frame 3: next_packet: sync lost @ 1542164, regained after 188 bytes
[00:03:13] stream: error near frame 0: next_packet: sync lost @ 1542164, regained after 188 bytes
[00:03:14] hb_ts_stream_decode - eof
[00:03:14] Warning: Could not read data for preview 29, skipped
[00:03:14] hb_ts_stream_decode - eof
[00:03:14] Warning: Could not read data for preview 30, skipped
[00:03:14] scan: 28 previews, 1920x1080, 25.000 fps, autocrop = 0/0/0/0, aspect 16:9, PAR 1:1
[00:03:14] stream: 7 good frames, 0 errors (0%)
[00:03:14] libhb: scan thread found 1 valid title(s)
[00:03:15] macgui: ScanDone state received from fHandle
[00:03:15] macgui: showNewScan: This is a new source item scan
[00:03:57] macgui: Rip: Pending queue count is 0
[00:03:57] macgui: getNextPendingQueueIndex next pending encode index is:0
[00:03:57] macgui: scanning specifically for title: 1
[00:03:57] CPU: Intel(R) Core(TM)2 Duo CPU     P8600  @ 2.40GHz
[00:03:57]  - logical processor count: 2
[00:03:57] OpenCL device #1: NVIDIA GeForce 320M
[00:03:57]  - OpenCL version: 1.0 
[00:03:57]  - driver version: 8.24.15 310.90.9.05f01
[00:03:57]  - device type:    GPU
[00:03:57]  - supported:      no
[00:03:57] hb_scan: path=/Users/******/Dropbox/Videos/8.02-10000bk.ts, title_index=1
libbluray/bdnav/index_parse.c:162: indx_parse(): error opening /Users/******/Dropbox/Videos/8.02-10000bk.ts/BDMV/index.bdmv
libbluray/bdnav/index_parse.c:162: indx_parse(): error opening /Users/******/Dropbox/Videos/8.02-10000bk.ts/BDMV/BACKUP/index.bdmv
libbluray/bluray.c:2182: nav_get_title_list(/Users/******/Dropbox/Videos/8.02-10000bk.ts) failed
[00:03:57] bd: not a bd - trying as a stream/file instead
libdvdnav: Using dvdnav version 5.0.0
libdvdread:DVDOpenFileUDF:UDFFindFile /VIDEO_TS/VIDEO_TS.IFO failed
libdvdread:DVDOpenFileUDF:UDFFindFile /VIDEO_TS/VIDEO_TS.BUP failed
libdvdread: Can't open file VIDEO_TS.IFO.
libdvdnav: vm: failed to read VIDEO_TS.IFO
[00:03:57] dvd: not a dvd - trying as a stream/file instead
[00:03:57] file is MPEG Transport Stream with 188 byte packets offset 0 bytes
[00:03:57] Found the following PIDS
[00:03:57]     Video PIDS : 
[00:03:57]       0x1518 type H.264 (0x1b) (PCR)
[00:03:57]     Audio PIDS : 
[00:03:57]       0x151a type MPEG1 (0x3)
[00:03:57]       0x1519 type AC3 (0x81)
[00:03:57]     Subtitle PIDS : 
[00:03:57]     Other PIDS : 
[00:03:57]       0x151b type DVB Teletext (0x0)
[00:03:57]       0xf06 type ISO 13818-6 DSM-CC U-N msgs (0xb)
[00:03:57]       0xf07 type ISO 13818-6 DSM-CC U-N msgs (0xb)
[00:03:57]       0xf09 type ISO 13818-6 DSM-CC U-N msgs (0xb)
[00:03:57]       0x151c type DVB Subtitling (0x0)
[00:03:57]       0xf00 type ISO 13818-1 private section (0x5)
[00:03:57]       0xf01 type ISO 13818-1 private section (0x5)
[00:03:57]       0xf02 type ISO 13818-1 private section (0x5)
[00:03:57]       0xf03 type ISO 13818-1 private section (0x5)
[00:03:57]       0xf04 type ISO 13818-1 private section (0x5)
[00:03:57]       0x911 type ISO 13818-1 private section (0x5)
[00:03:57]       0x912 type ISO 13818-1 private section (0x5)
[00:03:57]       0x913 type ISO 13818-1 private section (0x5)
[00:03:57]       0x919 type ISO 13818-1 private section (0x5)
[00:03:57]       0x91a type ISO 13818-1 private section (0x5)
[00:03:57] stream id 0x151a (type 0x3 substream 0x0) audio 0x151a
[00:03:57] stream id 0x1519 (type 0x81 substream 0x0) audio 0x1519
[00:03:57] stream: error near frame 0: next_packet: sync lost @ 771176, regained after 188 bytes
[00:03:57] hb_ts_stream_getPEStype: EOF while searching for PID 0x1518
[00:03:57] hb_sample_pts: couldn't find video packet near 5100000
[00:03:57] scan: decoding previews for title 1
[00:03:57] scan: audio 0x1519: ac3, rate=48000Hz, bitrate=384000 English (AC3) (5.1 ch)
[00:03:57] scan: audio 0x151a: mp2, rate=48000Hz, bitrate=200000 Unknown (MPEG) (2.0 ch)
[00:03:57] stream: error near frame 0: next_packet: sync lost @ 771176, regained after 188 bytes
[00:03:57] stream: error near frame 5: next_packet: sync lost @ 1542164, regained after 188 bytes
[00:03:58] stream: error near frame 2: next_packet: sync lost @ 1542164, regained after 188 bytes
[00:03:58] macgui: Queue reloaded
[00:03:58] scan: 10 previews, 1920x1080, 25.000 fps, autocrop = 0/0/0/0, aspect 16:9, PAR 1:1
[00:03:58] stream: 14 good frames, 0 errors (0%)
[00:03:58] libhb: scan thread found 1 valid title(s)
[00:03:58] macgui: ScanDone state received from fQueueEncodeLibhb
[00:03:58] macgui: Preset: Custom
[00:03:58] macgui: processNewQueueEncode number of passes expected is: 1
[00:03:58] macgui: Start / Stop set to chapters
[00:03:58] macgui: prepareJob exiting
[00:03:58] 1 job(s) to process
[00:03:58] starting job
[00:03:58] sync: expecting 177 video frames
[00:03:58] job configuration:
[00:03:58]  * source
[00:03:58]    + /Users/******/Dropbox/Videos/8.02-10000bk.ts
[00:03:58]    + title 1, chapter(s) 1 to 1
[00:03:58]  * destination
[00:03:58]    + /Users/******/Desktop/8.02-10000bk.m4v
[00:03:58]    + container: MPEG-4 (libavformat)
[00:03:58]  * video track
[00:03:58]    + decoder: h264
[00:03:58]      + bitrate 200 kbps
[00:03:58]    + filters
[00:03:58]      + Framerate Shaper (0:27000000:1080000)
[00:03:58]        + frame rate: same as source (around 25.000 fps)
[00:03:58]      + Crop and Scale (1280:720:0:0:0:0)
[00:03:58]        + source: 1920 * 1080, crop (0/0/0/0): 1920 * 1080, scale: 1280 * 720
[00:03:58]    + loose anamorphic
[00:03:58]      + storage dimensions: 1280 * 720, mod 2
[00:03:58]      + pixel aspect ratio: 1 / 1
[00:03:58]      + display dimensions: 1280 * 720
[00:03:58]    + encoder: H.264 (libx264)
[00:03:58]      + preset:  medium
[00:03:58]      + profile: high
[00:03:58]      + level:   3.1
[00:03:58]      + quality: 20.00 (RF)
[00:03:58]  * audio track 1
[00:03:58]    + decoder: English (AC3) (5.1 ch) (track 2, id 0x1519)
[00:03:58]      + bitrate: 384 kbps, samplerate: 48000 Hz
[00:03:58]    + mixdown: Dolby Pro Logic II
[00:03:58]    + encoder: AAC (Apple AudioToolbox)
[00:03:58]      + bitrate: 160 kbps, samplerate: 48000 Hz
[00:03:58]  * audio track 2
[00:03:58]    + decoder: English (AC3) (5.1 ch) (track 2, id 0x1519)
[00:03:58]      + bitrate: 384 kbps, samplerate: 48000 Hz
[00:03:58]    + AC3 Passthru
[00:03:58] file is MPEG Transport Stream with 188 byte packets offset 0 bytes
[00:03:58] stream: error near frame 0: next_packet: sync lost @ 771176, regained after 188 bytes
[00:03:58] reader: first SCR 5247927611 id 0x1518 DTS 5247927611
[00:03:58] encx264: encoding at constant RF 20.000000
[00:03:58] encx264: unparsed options: level=3.1:vbv-bufsize=17500:vbv-maxrate=17500
[00:03:58] h264: "Chapter 1" (1) at frame 0 time 36000
x264 [info]: using SAR=1/1
x264 [info]: using cpu capabilities: MMX2 SSE2Fast SSSE3 SSE4.1 Cache64
x264 [info]: profile High, level 3.1
[00:03:58] macgui: Queue reloaded
[00:03:59] sync: first pts is 36000
[00:04:00] hb_ts_stream_decode - eof
[00:04:00] reader: done. 2 scr changes
[00:04:13] work: average encoding speed for job is 16.278273 fps
[00:04:13] sync: got 100 frames, 177 expected
[00:04:13] render: lost time: 0 (0 frames)
[00:04:13] render: gained time: 0 (0 frames) (0 not accounted for)
[00:04:13] h264-decoder done: 100 frames, 0 decoder errors, 0 drops
x264 [info]: frame I:3     Avg QP:15.10  size: 78586
x264 [info]: frame P:69    Avg QP:19.80  size: 20325
x264 [info]: frame B:28    Avg QP:21.13  size:  7017
x264 [info]: consecutive B-frames: 50.0% 38.0%  0.0% 12.0%
x264 [info]: mb I  I16..4: 10.7% 74.3% 15.0%
x264 [info]: mb P  I16..4:  3.4% 13.3%  1.8%  P16..4: 46.3% 15.2%  8.6%  0.0%  0.0%    skip:11.4%
x264 [info]: mb B  I16..4:  0.0%  0.3%  0.1%  B16..8: 47.3%  6.1%  1.1%  direct: 2.8%  skip:42.3%  L0:32.9% L1:57.1% BI:10.0%
x264 [info]: 8x8 transform intra:72.2% inter:72.9%
x264 [info]: coded y,uvDC,uvAC intra: 55.7% 82.4% 45.8% inter: 24.8% 39.0% 3.9%
x264 [info]: i16 v,h,dc,p: 19% 23% 13% 44%
x264 [info]: i8 v,h,dc,ddl,ddr,vr,hd,vl,hu: 15% 28% 23%  4%  6%  5% 11%  4%  6%
x264 [info]: i4 v,h,dc,ddl,ddr,vr,hd,vl,hu: 16% 34% 18%  4%  7%  4% 11%  3%  4%
x264 [info]: i8c dc,h,v,p: 48% 25% 15% 12%
x264 [info]: Weighted P-Frames: Y:4.3% UV:4.3%
x264 [info]: ref P L0: 75.4%  8.0% 12.0%  4.6%  0.0%
x264 [info]: ref B L0: 93.6%  6.0%  0.4%
x264 [info]: ref B L1: 99.3%  0.7%
x264 [info]: kb/s:3111.65
[00:04:13] ac3-decoder done: 0 frames, 0 decoder errors, 0 drops
[00:04:13] ac3-decoder done: 0 frames, 0 decoder errors, 0 drops
[00:04:13] mux: track 0, 100 frames, 1834558 bytes, 3136.00 kbps, fifo 128
[00:04:13] mux: track 1, 193 frames, 75945 bytes, 129.82 kbps, fifo 256
[00:04:13] mux: track 2, 128 frames, 187392 bytes, 320.33 kbps, fifo 256
[00:04:13] stream: 108 good frames, 3 errors (3%)
[00:04:13] libhb: work result = 0
[00:04:14] macgui: incrementQueueItemDone there are no more pending encodes
[00:04:17] macgui: Queue reloaded

User avatar
Rodeo
HandBrake Team
Posts: 12160
Joined: Tue Mar 03, 2009 8:55 pm

Re: AC3 5.1 pass through ends in AC3 2.0

Post by Rodeo » Wed Sep 03, 2014 10:46 pm

QuickTime must be reporting the wrong layout.

Vietwoojagig
Posts: 49
Joined: Thu Dec 17, 2009 8:38 am

Re: AC3 5.1 pass through ends in AC3 2.0

Post by Vietwoojagig » Thu Sep 04, 2014 7:36 am

Handbrake also thinks its 2.0. And so Subler, VLC, ...

User avatar
Rodeo
HandBrake Team
Posts: 12160
Joined: Tue Mar 03, 2009 8:55 pm

Re: AC3 5.1 pass through ends in AC3 2.0

Post by Rodeo » Thu Sep 04, 2014 10:42 am

Can you post a MediaInfo report, and a HandBrake scan log for the output file?

Vietwoojagig
Posts: 49
Joined: Thu Dec 17, 2009 8:38 am

Re: AC3 5.1 pass through ends in AC3 2.0

Post by Vietwoojagig » Thu Sep 04, 2014 11:11 am

Mediareport of the original transport stream:

Code: Select all

General
Count                                    : 290
Count of stream of this kind             : 1
Kind of stream                           : General
Kind of stream                           : General
Stream identifier                        : 0
ID                                       : 2050
ID                                       : 2050 (0x802)
Count of video streams                   : 1
Count of audio streams                   : 2
Count of text streams                    : 2
Count of menu streams                    : 1
Video_Format_List                        : AVC
Video_Format_WithHint_List               : AVC
Codecs Video                             : AVC
Audio_Format_List                        : AC-3 / MPEG Audio
Audio_Format_WithHint_List               : AC-3 / MPEG Audio
Audio codecs                             : AC3 / MPEG-1 Audio layer 2
Audio_Language_List                      : English / nar
Text_Format_List                         : Teletext / DVB Subtitle
Text_Format_WithHint_List                : Teletext / DVB Subtitle
Text codecs                              : Teletext / DVB Subtitle
Text_Language_List                       : English / English
Menu_Format_List                         : AVC / MPEG Audio /  /  /  /  / DVB Subtitle /  /  /  /  /  /  /  /  / AC-3 /  / 
Menu_Format_WithHint_List                : AVC / MPEG Audio /  /  /  /  / DVB Subtitle /  /  /  /  /  /  /  /  / AC-3 /  / 
Menu codecs                              : AVC / MPA1L2 /  /  /  /  / DVB Subtitle /  /  /  /  /  /  /  /  / AC3 /  / 
Menu_Language_List                       :  / nar /  /  /  /  / English /  /  /  /  /  /  /  /  / English
Complete name                            : 8.02-10000bk.ts
File name                                : 8.02-10000bk
File extension                           : ts
Format                                   : MPEG-TS
Format                                   : MPEG-TS
Format/Extensions usually used           : ts m2t m2s m2ts m4t m4s ts tp trp
Commercial name                          : MPEG-TS
Internet media type                      : video/MP2T
Codec                                    : MPEG-TS
Codec                                    : MPEG-TS
Codec/Extensions usually used            : ts m2t m2s m2ts m4t m4s ts tp trp
File size                                : 5120000
File size                                : 4.88 MiB
File size                                : 5 MiB
File size                                : 4.9 MiB
File size                                : 4.88 MiB
File size                                : 4.883 MiB
Duration                                 : 3115.181333
Duration                                 : 3s 115ms
Duration                                 : 3s 115ms
Duration                                 : 3s 115ms
Duration                                 : 00:00:03.115
Overall bit rate mode                    : VBR
Overall bit rate mode                    : Variable
Overall bit rate                         : 6451133
Overall bit rate                         : 6 451 Kbps
Stream size                              : 3388471
Stream size                              : 3.23 MiB (66%)
Stream size                              : 3 MiB
Stream size                              : 3.2 MiB
Stream size                              : 3.23 MiB
Stream size                              : 3.231 MiB
Stream size                              : 3.23 MiB (66%)
Proportion of this stream                : 0.66181
File last modification date              : UTC 2014-09-03 21:56:22
File last modification date (local)      : 2014-09-03 23:56:22

Video
Count                                    : 277
Count of stream of this kind             : 1
Kind of stream                           : Video
Kind of stream                           : Video
Stream identifier                        : 0
StreamOrder                              : 1-0
ID                                       : 5400
ID                                       : 5400 (0x1518)
Menu ID                                  : 6941
Menu ID                                  : 6941 (0x1B1D)
Format                                   : AVC
Format/Info                              : Advanced Video Codec
Format/Url                               : http://developers.videolan.org/x264.html
Commercial name                          : AVC
Format profile                           : High@L4.0
Format settings                          : CABAC / 4 Ref Frames
Format settings, CABAC                   : Yes
Format settings, CABAC                   : Yes
Format settings, ReFrames                : 4
Format settings, ReFrames                : 4 frames
Internet media type                      : video/H264
Codec ID                                 : 27
Codec                                    : AVC
Codec                                    : AVC
Codec/Family                             : AVC
Codec/Info                               : Advanced Video Codec
Codec/Url                                : http://developers.videolan.org/x264.html
Codec profile                            : High@L4.0
Codec settings                           : CABAC / 4 Ref Frames
Codec settings, CABAC                    : Yes
Codec_Settings_RefFrames                 : 4
Duration                                 : 2160
Duration                                 : 2s 160ms
Duration                                 : 2s 160ms
Duration                                 : 2s 160ms
Duration                                 : 00:00:02.160
Bit rate                                 : 5485780
Bit rate                                 : 5 486 Kbps
Width                                    : 1920
Width                                    : 1 920 pixels
Height                                   : 1080
Height                                   : 1 080 pixels
Pixel aspect ratio                       : 1.000
Display aspect ratio                     : 1.778
Display aspect ratio                     : 16:9
Frame rate                               : 25.000
Frame rate                               : 25.000 fps
Frame count                              : 54
Standard                                 : Component
Resolution                               : 8
Resolution                               : 8 bits
Colorimetry                              : 4:2:0
Color space                              : YUV
Chroma subsampling                       : 4:2:0
Bit depth                                : 8
Bit depth                                : 8 bits
Scan type                                : MBAFF
Scan type                                : MBAFF
Interlacement                            : MBAFF
Interlacement                            : MBAFF
Bits/(Pixel*Frame)                       : 0.106
Delay                                    : 58311426.789
Delay                                    : 16h 11mn
Delay                                    : 16h 11mn 51s 427ms
Delay                                    : 16h 11mn
Delay                                    : 16:11:51.427
Delay, origin                            : Container
Delay, origin                            : Container
Stream size                              : 1481161
Stream size                              : 1.41 MiB (29%)
Stream size                              : 1 MiB
Stream size                              : 1.4 MiB
Stream size                              : 1.41 MiB
Stream size                              : 1.413 MiB
Stream size                              : 1.41 MiB (29%)
Proportion of this stream                : 0.28929
colour_description_present               : Yes
Color primaries                          : BT.709
Transfer characteristics                 : BT.709
Matrix coefficients                      : BT.709

Audio #1
Count                                    : 251
Count of stream of this kind             : 2
Kind of stream                           : Audio
Kind of stream                           : Audio
Stream identifier                        : 0
Stream identifier                        : 1
StreamOrder                              : 1-15
ID                                       : 5401
ID                                       : 5401 (0x1519)
Menu ID                                  : 6941
Menu ID                                  : 6941 (0x1B1D)
Format                                   : AC-3
Format/Info                              : Audio Coding 3
Commercial name                          : AC-3
Mode extension                           : CM (complete main)
Format settings, Endianness              : Big
Codec ID                                 : 6
Codec                                    : AC3
Codec                                    : AC3
Duration                                 : 3136
Duration                                 : 3s 136ms
Duration                                 : 3s 136ms
Duration                                 : 3s 136ms
Duration                                 : 00:00:03.136
Bit rate mode                            : CBR
Bit rate mode                            : Constant
Bit rate                                 : 384000
Bit rate                                 : 384 Kbps
Channel(s)                               : 6
Channel(s)                               : 6 channels
Channel positions                        : Front: L C R, Side: L R, LFE
Channel positions                        : 3/2/0.1
ChannelLayout                            : L C R LFE Ls Rs
Sampling rate                            : 48000
Sampling rate                            : 48.0 KHz
Samples count                            : 150528
Frame count                              : 98
Resolution                               : 16
Resolution                               : 16 bits
Bit depth                                : 16
Bit depth                                : 16 bits
Compression mode                         : Lossy
Compression mode                         : Lossy
Delay                                    : 58310949.956
Delay                                    : 16h 11mn
Delay                                    : 16h 11mn 50s 950ms
Delay                                    : 16h 11mn
Delay                                    : 16:11:50.950
Delay, origin                            : Container
Delay, origin                            : Container
Delay relative to video                  : -478
Video0 delay                             : -478
Stream size                              : 150528
Stream size                              : 147 KiB (3%)
Stream size                              : 147 KiB
Stream size                              : 147 KiB
Stream size                              : 147 KiB
Stream size                              : 147.0 KiB
Stream size                              : 147 KiB (3%)
Proportion of this stream                : 0.02940
Language                                 : en
Language                                 : English
Language                                 : English
Language                                 : en
Language                                 : eng
Language                                 : en
bsid                                     : 6
dialnorm                                 : -23
dialnorm/String                          : -23 dB
compr                                    : -0.28
compr/String                             : -0.28 dB
acmod                                    : 7
lfeon                                    : 1
dialnorm_Average                         : -23
dialnorm_Average/String                  : -23 dB
dialnorm_Minimum                         : -23
dialnorm_Minimum/String                  : -23 dB
dialnorm_Maximum                         : -23
dialnorm_Maximum/String                  : -23 dB
dialnorm_Count                           : 98
compr_Average                            : -0.28
compr_Average/String                     : -0.28 dB
compr_Minimum                            : -0.28
compr_Minimum/String                     : -0.28 dB
compr_Maximum                            : -0.28
compr_Maximum/String                     : -0.28 dB
compr_Count                              : 98

Audio #2
Count                                    : 230
Count of stream of this kind             : 2
Kind of stream                           : Audio
Kind of stream                           : Audio
Stream identifier                        : 1
Stream identifier                        : 2
StreamOrder                              : 1-1
ID                                       : 5402
ID                                       : 5402 (0x151A)
Menu ID                                  : 6941
Menu ID                                  : 6941 (0x1B1D)
Format                                   : MPEG Audio
Commercial name                          : MPEG Audio
Format version                           : Version 1
Format profile                           : Layer 2
Internet media type                      : audio/mpeg
Codec ID                                 : 3
Codec                                    : MPA1L2
Codec                                    : MPEG-1 Audio layer 2
Duration                                 : 3120
Duration                                 : 3s 120ms
Duration                                 : 3s 120ms
Duration                                 : 3s 120ms
Duration                                 : 00:00:03.120
Bit rate mode                            : CBR
Bit rate mode                            : Constant
Bit rate                                 : 256000
Bit rate                                 : 256 Kbps
Channel(s)                               : 2
Channel(s)                               : 2 channels
Sampling rate                            : 48000
Sampling rate                            : 48.0 KHz
Samples count                            : 149760
Frame count                              : 130
Compression mode                         : Lossy
Compression mode                         : Lossy
Delay                                    : 58310995.878
Delay                                    : 16h 11mn
Delay                                    : 16h 11mn 50s 996ms
Delay                                    : 16h 11mn
Delay                                    : 16:11:50.996
Delay, origin                            : Container
Delay, origin                            : Container
Delay relative to video                  : -432
Video0 delay                             : -432
Stream size                              : 99840
Stream size                              : 97.5 KiB (2%)
Stream size                              : 98 KiB
Stream size                              : 98 KiB
Stream size                              : 97.5 KiB
Stream size                              : 97.50 KiB
Stream size                              : 97.5 KiB (2%)
Proportion of this stream                : 0.01950
Language                                 : nar
Language                                 : nar
Language                                 : nar
Language                                 : nar

Text #1
Count                                    : 195
Count of stream of this kind             : 2
Kind of stream                           : Text
Kind of stream                           : Text
Stream identifier                        : 0
Stream identifier                        : 1
ID                                       : 5403-888
ID                                       : 5403 (0x151B)-888
Menu ID                                  : 6941
Menu ID                                  : 6941 (0x1B1D)
Format                                   : Teletext
Commercial name                          : Teletext
Codec                                    : Teletext
Codec                                    : Teletext
Language                                 : en
Language                                 : English
Language                                 : English
Language                                 : en
Language                                 : eng
Language                                 : en

Text #2
Count                                    : 203
Count of stream of this kind             : 2
Kind of stream                           : Text
Kind of stream                           : Text
Stream identifier                        : 1
Stream identifier                        : 2
StreamOrder                              : 1-6
ID                                       : 5404
ID                                       : 5404 (0x151C)
Menu ID                                  : 6941
Menu ID                                  : 6941 (0x1B1D)
Format                                   : DVB Subtitle
Commercial name                          : DVB Subtitle
Codec ID                                 : 6
Codec                                    : DVB Subtitle
Codec                                    : DVB Subtitle
Delay                                    : 58313820.067
Delay                                    : 16h 11mn
Delay                                    : 16h 11mn 53s 820ms
Delay                                    : 16h 11mn
Delay                                    : 16:11:53.820
Delay, origin                            : Container
Delay, origin                            : Container
Delay relative to video                  : 2393
Delay relative to video                  : 2s 393ms
Delay relative to video                  : 2s 393ms
Delay relative to video                  : 2s 393ms
Delay relative to video                  : 00:00:02.393
Video0 delay                             : 2393
Video0 delay                             : 2s 393ms
Video0 delay                             : 2s 393ms
Video0 delay                             : 2s 393ms
Video0 delay                             : 00:00:02.393
Language                                 : en
Language                                 : English
Language                                 : English
Language                                 : en
Language                                 : eng
Language                                 : en
subtitle_stream_id                       : 0 / 0 / 0
page_id                                  : 1 / 1 / 1
region_id                                : 0 / 1 / 2
region_horizontal_address                : 0 / 0
region_vertical_address                  : 848 / 906
region_width                             : 1920 / 1920 / 1920
region_height                            : 58 / 58 / 58
region_depth                             : 4 / 4 / 4

Menu
Count                                    : 78
Count of stream of this kind             : 1
Kind of stream                           : Menu
Kind of stream                           : Menu
Stream identifier                        : 0
StreamOrder                              : 1
ID                                       : 260
ID                                       : 260 (0x104)
Menu ID                                  : 6941
Menu ID                                  : 6941 (0x1B1D)
Format                                   : AVC / MPEG Audio /  /  /  /  / DVB Subtitle /  /  /  /  /  /  /  /  / AC-3 /  / 
Commercial name                          : AVC / MPEG Audio /  /  /  /  / DVB Subtitle /  /  /  /  /  /  /  /  / AC-3 /  / 
Codec                                    : AVC / MPA1L2 /  /  /  /  / DVB Subtitle /  /  /  /  /  /  /  /  / AC3 /  / 
Codec                                    : AVC / MPA1L2 /  /  /  /  / DVB Subtitle /  /  /  /  /  /  /  /  / AC3 /  / 
Duration                                 : 3115.181333
Duration                                 : 3s 115ms
Duration                                 : 3s 115ms
Duration                                 : 3s 115ms
Duration                                 : 00:00:03.115
Delay                                    : 58310906.572926
Delay                                    : 16h 11mn
Delay                                    : 16h 11mn 50s 907ms
Delay                                    : 16h 11mn
Delay                                    : 16:11:50.907
List_StreamKind                          : 1 / 2 /  /  /  /  / 3 /  /  /  /  /  /  /  /  / 2 /  / 
List_StreamPos                           : 0 / 1 /  /  /  /  / 1 /  /  /  /  /  /  /  /  / 0 /  / 
List                                     : 5400 / 5402 / 5403 / 3846 / 3847 / 3849 / 5404 / 3840 / 3841 / 3842 / 3843 / 3844 / 2321 / 2322 / 2323 / 5401 / 2329 / 2330
List                                     : 5400 (0x1518) (AVC) / 5402 (0x151A) (MPEG Audio, nar) / 5403 (0x151B) () / 3846 (0xF06) () / 3847 (0xF07) () / 3849 (0xF09) () / 5404 (0x151C) (DVB Subtitle, English) / 3840 (0xF00) () / 3841 (0xF01) () / 3842 (0xF02) () / 3843 (0xF03) () / 3844 (0xF04) () / 2321 (0x911) () / 2322 (0x912) () / 2323 (0x913) () / 5401 (0x1519) (AC-3, English) / 2329 (0x919) () / 2330 (0x91A) ()
Language                                 :  / nar /  /  /  /  / en /  /  /  /  /  /  /  /  / en
Language                                 :  / nar /  /  /  /  / English /  /  /  /  /  /  /  /  / English
Language                                 :  / nar /  /  /  /  / English /  /  /  /  /  /  /  /  / English
Language                                 :  /  /  /  /  /  / en /  /  /  /  /  /  /  /  / en
Language                                 :  / nar /  /  /  /  / eng /  /  /  /  /  /  /  /  / eng
Language                                 :  /  /  /  /  /  / en /  /  /  /  /  /  /  /  / en
section_length                           : 387
Scan of the encoded file:

Code: Select all

[13:01:04] macgui: Handbrake Version: 6360svn x86_64 (2014082501)
[13:01:04] hb_init: starting libhb thread
[13:01:04] thread 103f9e000 started ("libhb")
[13:01:04] hb_init: starting libhb thread
[13:01:04] thread 1073d5000 started ("libhb")
[13:01:04] macgui: hbInstances path to this instance: /Users/******/Desktop/HandBrake.app
[13:01:04] macgui: hbInstance found instance pidnum: 63269 at path: /Users/******/Desktop/HandBrake.app
[13:01:04] macgui: hbInstance MATCH FOUND, our pidnum is: 63269
[13:01:04] macgui: Pid for this instance: 63269
[13:01:04] macgui: HBQueueController : My Pidnum is 63269
[13:01:16] macgui: trying to open video_ts folder (parent directory chosen)
[13:01:16] macgui: scanning titles with a duration of 10 seconds or more
[13:01:16] CPU: Intel(R) Core(TM) i7-4650U CPU @ 1.70GHz
[13:01:16]  - Intel microarchitecture Haswell
[13:01:16]  - logical processor count: 4
[13:01:16] OpenCL device #1: Intel HD Graphics 5000
[13:01:16]  - OpenCL version: 1.2 
[13:01:16]  - driver version: 1.2(Jun  9 2014 13:24:19)
[13:01:16]  - device type:    GPU
[13:01:16]  - supported:      YES
[13:01:16] hb_scan: path=/Users/******/Desktop/8.02-10000bk 1.m4v, title_index=0
[13:01:16] thread 10a5f5000 started ("scan")
libbluray/bdnav/index_parse.c:162: indx_parse(): error opening /Users/******/Desktop/8.02-10000bk 1.m4v/BDMV/index.bdmv
libbluray/bdnav/index_parse.c:162: indx_parse(): error opening /Users/******/Desktop/8.02-10000bk 1.m4v/BDMV/BACKUP/index.bdmv
libbluray/bluray.c:2182: nav_get_title_list(/Users/******/Desktop/8.02-10000bk 1.m4v) failed
[13:01:16] bd: not a bd - trying as a stream/file instead
libdvdnav: Using dvdnav version 5.0.0
libdvdread: Encrypted DVD support unavailable.
libdvdread:DVDOpenFileUDF:UDFFindFile /VIDEO_TS/VIDEO_TS.IFO failed
libdvdread:DVDOpenFileUDF:UDFFindFile /VIDEO_TS/VIDEO_TS.BUP failed
libdvdread: Can't open file VIDEO_TS.IFO.
libdvdnav: vm: failed to read VIDEO_TS.IFO
[13:01:16] dvd: not a dvd - trying as a stream/file instead
Input #0, mov,mp4,m4a,3gp,3g2,mj2, from '/Users/******/Desktop/8.02-10000bk 1.m4v':
  Metadata:
    major_brand     : mp42
    minor_version   : 512
    compatible_brands: isomiso2avc1mp41
    encoder         : HandBrake 6360svn 2014082501
  Duration: 00:00:06.23, start: 0.796000, bitrate: 2701 kb/s
    Stream #0.0(und): Video: h264 (High), yuv420p, 1280x720 [PAR 1:1 DAR 16:9], 2701 kb/s, 12.17 fps, 90k tbn, 180k tbc (default)
    Stream #0.1(eng): Audio: aac, 48000 Hz, stereo, fltp, 148 kb/s (default)
    Stream #0.2(eng): Audio: ac3, 48000 Hz, stereo, fltp, 366 kb/s
[13:01:16] Found ffmpeg 0 chapters, container=mov,mp4,m4a,3gp,3g2,mj2
[13:01:16] scan: decoding previews for title 1
[13:01:16] scan: preview 1
[13:01:16] fifo_close: trashing 0 buffer(s)
[13:01:16] scan: audio 0x1: aac, rate=48000Hz, bitrate=148330 English (AAC) (2.0 ch)
[13:01:16] fifo_close: trashing 0 buffer(s)
[13:01:16] scan: audio 0x2: ac3, rate=48000Hz, bitrate=192000 English (AC3) (2.0 ch)
[13:01:16] scan: preview 2
[13:01:17] scan: preview 3
[13:01:17] scan: preview 4
[13:01:17] scan: preview 5
[13:01:17] scan: preview 6
[13:01:17] scan: preview 7
[13:01:17] scan: preview 8
[13:01:17] scan: preview 9
[13:01:17] scan: preview 10
[13:01:17] scan: 10 previews, 1280x720, 18.404 fps, autocrop = 0/0/0/0, aspect 16:9, PAR 1:1
[13:01:17] Freed 1 buffers of size 1024
[13:01:17] Freed 1 buffers of size 2048
[13:01:17] Freed 1 buffers of size 32768
[13:01:17] Freed 1 buffers of size 65536
[13:01:17] Freed 1 buffers of size 262144
[13:01:17] Freed 1 buffers of size 2097152
[13:01:17] Allocated 2460672 bytes of buffers on this pass and Freed 2460672 bytes, 0 bytes leaked
[13:01:17] thread 10a5f5000 exited ("scan")
[13:01:17] thread 10a5f5000 joined ("scan")
[13:01:17] libhb: scan thread found 1 valid title(s)
[13:01:18] macgui: ScanDone state received from fHandle
[13:01:18] macgui: showNewScan: This is a new source item scan
Mediareport of the encoded file:

Code: Select all

General
Count                                    : 290
Count of stream of this kind             : 1
Kind of stream                           : General
Kind of stream                           : General
Stream identifier                        : 0
Count of video streams                   : 1
Count of audio streams                   : 2
Video_Format_List                        : AVC
Video_Format_WithHint_List               : AVC
Codecs Video                             : AVC
Audio_Format_List                        : AAC / AC-3
Audio_Format_WithHint_List               : AAC / AC-3
Audio codecs                             : AAC LC / AC3
Audio_Language_List                      : English / English
Complete name                            : 8.02-10000bk 1.m4v
File name                                : 8.02-10000bk 1
File extension                           : m4v
Format                                   : MPEG-4
Format                                   : MPEG-4
Format/Extensions usually used           : mp4 m4v m4a m4b m4p 3gpp 3gp 3gpp2 3g2 k3g jpm jpx mqv ismv isma f4v
Commercial name                          : MPEG-4
Format profile                           : Base Media / Version 2
Internet media type                      : video/mp4
Codec ID                                 : mp42
Codec ID/Url                             : http://www.apple.com/quicktime/download/standalone.html
Codec                                    : MPEG-4
Codec                                    : MPEG-4
Codec/Extensions usually used            : mp4 m4v m4a m4b m4p 3gpp 3gp 3gpp2 3g2 k3g jpm jpx mqv ismv isma f4v
File size                                : 2103734
File size                                : 2.01 MiB
File size                                : 2 MiB
File size                                : 2.0 MiB
File size                                : 2.01 MiB
File size                                : 2.006 MiB
Duration                                 : 5434
Duration                                 : 5s 434ms
Duration                                 : 5s 434ms
Duration                                 : 5s 434ms
Duration                                 : 00:00:05.434
Overall bit rate mode                    : VBR
Overall bit rate mode                    : Variable
Overall bit rate                         : 3097142
Overall bit rate                         : 3 097 Kbps
Stream size                              : 5733
Stream size                              : 5.60 KiB (0%)
Stream size                              : 6 KiB
Stream size                              : 5.6 KiB
Stream size                              : 5.60 KiB
Stream size                              : 5.599 KiB
Stream size                              : 5.60 KiB (0%)
Proportion of this stream                : 0.00273
HeaderSize                               : 40
DataSize                                 : 2098009
FooterSize                               : 5685
IsStreamable                             : No
Encoded date                             : UTC 1904-01-01 00:00:00
Tagged date                              : UTC 1904-01-01 00:00:00
File last modification date              : UTC 2014-09-04 10:58:59
File last modification date (local)      : 2014-09-04 12:58:59
Writing application                      : HandBrake 6360svn 2014082501

Video
Count                                    : 277
Count of stream of this kind             : 1
Kind of stream                           : Video
Kind of stream                           : Video
Stream identifier                        : 0
StreamOrder                              : 0
ID                                       : 1
ID                                       : 1
Format                                   : AVC
Format/Info                              : Advanced Video Codec
Format/Url                               : http://developers.videolan.org/x264.html
Commercial name                          : AVC
Format profile                           : High@L3.1
Format settings                          : CABAC / 4 Ref Frames
Format settings, CABAC                   : Yes
Format settings, CABAC                   : Yes
Format settings, ReFrames                : 4
Format settings, ReFrames                : 4 frames
Internet media type                      : video/H264
Codec ID                                 : avc1
Codec ID/Info                            : Advanced Video Coding
Codec ID/Url                             : http://www.apple.com/quicktime/download/standalone.html
Codec                                    : AVC
Codec                                    : AVC
Codec/Family                             : AVC
Codec/Info                               : Advanced Video Codec
Codec/Url                                : http://developers.videolan.org/x264.html
Codec/CC                                 : avc1
Codec profile                            : High@L3.1
Codec settings                           : CABAC / 4 Ref Frames
Codec settings, CABAC                    : Yes
Codec_Settings_RefFrames                 : 4
Duration                                 : 5434
Duration                                 : 5s 434ms
Duration                                 : 5s 434ms
Duration                                 : 5s 434ms
Duration                                 : 00:00:05.434
Bit rate                                 : 2701213
Bit rate                                 : 2 701 Kbps
Width                                    : 1280
Width                                    : 1 280 pixels
Height                                   : 720
Height                                   : 720 pixels
Pixel aspect ratio                       : 1.000
Display aspect ratio                     : 1.778
Display aspect ratio                     : 16:9
Rotation                                 : 0.000
Frame rate mode                          : VFR
Frame rate mode                          : Variable
Frame rate                               : 18.404
Frame rate                               : 18.404 fps
Minimum frame rate                       : 1.321
Minimum frame rate                       : 1.321 fps
Maximum frame rate                       : 25.000
Maximum frame rate                       : 25.000 fps
Frame count                              : 100
Resolution                               : 8
Resolution                               : 8 bits
Colorimetry                              : 4:2:0
Color space                              : YUV
Chroma subsampling                       : 4:2:0
Bit depth                                : 8
Bit depth                                : 8 bits
Scan type                                : Progressive
Scan type                                : Progressive
Interlacement                            : PPF
Interlacement                            : Progressive
Bits/(Pixel*Frame)                       : 0.159
Stream size                              : 1834664
Stream size                              : 1.75 MiB (87%)
Stream size                              : 2 MiB
Stream size                              : 1.7 MiB
Stream size                              : 1.75 MiB
Stream size                              : 1.750 MiB
Stream size                              : 1.75 MiB (87%)
Proportion of this stream                : 0.87210
Writing library                          : x264 - core 142 r2431 ac76440
Writing library                          : x264 core 142 r2431 ac76440
Writing library/Name                     : x264
Writing library/Version                  : core 142 r2431 ac76440
Encoding settings                        : cabac=1 / ref=3 / deblock=1:0:0 / analyse=0x3:0x113 / me=hex / subme=7 / psy=1 / psy_rd=1.00:0.00 / mixed_ref=1 / me_range=16 / chroma_me=1 / trellis=1 / 8x8dct=1 / cqm=0 / deadzone=21,11 / fast_pskip=1 / chroma_qp_offset=-2 / threads=6 / lookahead_threads=1 / sliced_threads=0 / nr=0 / decimate=1 / interlaced=0 / bluray_compat=0 / constrained_intra=0 / bframes=3 / b_pyramid=2 / b_adapt=1 / b_bias=0 / direct=1 / weightb=1 / open_gop=0 / weightp=2 / keyint=250 / keyint_min=25 / scenecut=40 / intra_refresh=0 / rc_lookahead=40 / rc=crf / mbtree=1 / crf=20.0 / qcomp=0.60 / qpmin=0 / qpmax=69 / qpstep=4 / vbv_maxrate=17500 / vbv_bufsize=17500 / crf_max=0.0 / nal_hrd=none / filler=0 / ip_ratio=1.40 / aq=1:1.00
Encoded date                             : UTC 1904-01-01 00:00:00
Tagged date                              : UTC 1904-01-01 00:00:00
colour_description_present               : Yes
Color primaries                          : BT.709
Transfer characteristics                 : BT.709
Matrix coefficients                      : BT.709

Audio #1
Count                                    : 230
Count of stream of this kind             : 2
Kind of stream                           : Audio
Kind of stream                           : Audio
Stream identifier                        : 0
Stream identifier                        : 1
StreamOrder                              : 1
ID                                       : 2
ID                                       : 2
Format                                   : AAC
Format/Info                              : Advanced Audio Codec
Commercial name                          : AAC
Format profile                           : LC
Codec ID                                 : 40
Codec                                    : AAC LC
Codec                                    : AAC LC
Codec/Family                             : AAC
Codec/CC                                 : 40
Duration                                 : 4096
Duration                                 : 4s 96ms
Duration                                 : 4s 96ms
Duration                                 : 4s 96ms
Duration                                 : 00:00:04.096
Bit rate mode                            : VBR
Bit rate mode                            : Variable
Bit rate                                 : 148330
Bit rate                                 : 148 Kbps
Channel(s)                               : 2
Channel(s)                               : 2 channels
Channel positions                        : Front: L R
Channel positions                        : 2/0/0
ChannelLayout                            : L R
Sampling rate                            : 48000
Sampling rate                            : 48.0 KHz
Samples count                            : 196608
Frame count                              : 193
Compression mode                         : Lossy
Compression mode                         : Lossy
Stream size                              : 75945
Stream size                              : 74.2 KiB (4%)
Stream size                              : 74 KiB
Stream size                              : 74 KiB
Stream size                              : 74.2 KiB
Stream size                              : 74.17 KiB
Stream size                              : 74.2 KiB (4%)
Proportion of this stream                : 0.03610
Title                                    : Stereo
Language                                 : en
Language                                 : English
Language                                 : English
Language                                 : en
Language                                 : eng
Language                                 : en
Encoded date                             : UTC 1904-01-01 00:00:00
Tagged date                              : UTC 1904-01-01 00:00:00

Audio #2
Count                                    : 253
Count of stream of this kind             : 2
Kind of stream                           : Audio
Kind of stream                           : Audio
Stream identifier                        : 1
Stream identifier                        : 2
StreamOrder                              : 2
ID                                       : 3
ID                                       : 3
Format                                   : AC-3
Format/Info                              : Audio Coding 3
Commercial name                          : AC-3
Mode extension                           : CM (complete main)
Format settings, Endianness              : Big
Codec ID                                 : ac-3
Codec                                    : AC3
Codec                                    : AC3
Codec/CC                                 : ac-3
Duration                                 : 4096
Duration                                 : 4s 96ms
Duration                                 : 4s 96ms
Duration                                 : 4s 96ms
Duration                                 : 00:00:04.096
Bit rate mode                            : CBR
Bit rate mode                            : Constant
Bit rate                                 : 384000
Bit rate                                 : 384 Kbps
Channel(s)                               : 2
Channel(s)                               : 2 channels
Channel positions                        : Front: L R
Channel positions                        : 2/0/0
ChannelLayout                            : L R
Sampling rate                            : 48000
Sampling rate                            : 48.0 KHz
Samples count                            : 196608
Frame count                              : 128
Resolution                               : 16
Resolution                               : 16 bits
Bit depth                                : 16
Bit depth                                : 16 bits
Compression mode                         : Lossy
Compression mode                         : Lossy
Stream size                              : 187392
Stream size                              : 183 KiB (9%)
Stream size                              : 183 KiB
Stream size                              : 183 KiB
Stream size                              : 183 KiB
Stream size                              : 183.0 KiB
Stream size                              : 183 KiB (9%)
Proportion of this stream                : 0.08908
Title                                    : Surround
Language                                 : en
Language                                 : English
Language                                 : English
Language                                 : en
Language                                 : eng
Language                                 : en
Encoded date                             : UTC 1904-01-01 00:00:00
Tagged date                              : UTC 1904-01-01 00:00:00
bsid                                     : 6
dialnorm                                 : -23
dialnorm/String                          : -23 dB
compr                                    : -0.28
compr/String                             : -0.28 dB
dsurmod                                  : 1
dsurmod/String                           : Not Dolby Surround encoded
acmod                                    : 2
lfeon                                    : 0
dialnorm_Average                         : -23
dialnorm_Average/String                  : -23 dB
dialnorm_Minimum                         : -23
dialnorm_Minimum/String                  : -23 dB
dialnorm_Maximum                         : -23
dialnorm_Maximum/String                  : -23 dB
dialnorm_Count                           : 32
compr_Average                            : -0.28
compr_Average/String                     : -0.28 dB
compr_Minimum                            : -0.28
compr_Minimum/String                     : -0.28 dB
compr_Maximum                            : -0.28
compr_Maximum/String                     : -0.28 dB
compr_Count                              : 32

User avatar
Rodeo
HandBrake Team
Posts: 12160
Joined: Tue Mar 03, 2009 8:55 pm

Re: AC3 5.1 pass through ends in AC3 2.0

Post by Rodeo » Thu Sep 04, 2014 3:42 pm

Hmm, maybe it's the new MP4 muxer. Sorry I failed to notice you provided a sample, got the sample and will take a look later.

User avatar
JohnAStebbins
HandBrake Team
Posts: 5440
Joined: Sat Feb 09, 2008 7:21 pm

Re: AC3 5.1 pass through ends in AC3 2.0

Post by JohnAStebbins » Thu Sep 04, 2014 4:50 pm

The clip starts out stereo and changes to 5.1 about 400ms after the start of the clip.

You can just clip some data off the front of the file to eliminate the incorrect segment of audio.

Vietwoojagig
Posts: 49
Joined: Thu Dec 17, 2009 8:38 am

Re: AC3 5.1 pass through ends in AC3 2.0

Post by Vietwoojagig » Thu Sep 04, 2014 9:07 pm

Thank now it works.
I skipped the first 2096 blocks with dd and now the result is ok (except that i miss another key frame).
Funny, that all programs ignore the stereo at the beginning while reporting the file type.

Post Reply