AC3 from DTS not correct Builds 4582 thru 4686 maybe more

Archive of historical bug reports.
Please use the GitHub link above to report issues.
Forum rules
*******************************

Please be aware we are now using GitHub for issue tracking and feature requests.

- This forum is now closed to new topics.
- Existing topics will remain open for a short while as the transition over occurs.
*******************************
Post Reply
nathug
Bright Spark User
Posts: 204
Joined: Fri Apr 11, 2008 10:21 pm

AC3 from DTS not correct Builds 4582 thru 4686 maybe more

Post by nathug » Wed May 23, 2012 2:35 am

I have had a lot of encodes now from .mkv's via MakeMKV, that for sure in Builds 4582 thru 4686, the audio conversion to AC3 is not correct but the AAC mixdown is fine. I found this after installing a new Denon AVR-1713 receiver today, previously I just ran my systems in Stereo. On the ATV I can hear the difference by turning the Dolby on and off, and I get the same via VLC on my Win7 machine with the same files.

Thing is its not all files, I thought it was just DTS conversions, but then I found a couple that the orginal files look the same DTS encodes, one plays fine in AC3 the other doesn't. Maybe I'm missing something.

The audio sounds flat and thin, seems like the Left and Right Audio is missing.

Here are the logs:

Ponyo - This one seems to be just fine.

Code: Select all

HandBrake svn4686 2012051901
OS: Microsoft Windows NT 6.1.7601 Service Pack 1
CPU: Intel(R) Core(TM) i5-2500 CPU @ 3.30GHz
Ram: 16295 MB, Screen: 1680x1050
Temp Dir: C:\Users\HTPC\AppData\Local\Temp\
Install Dir: C:\Program Files\Handbrake
Data Dir: C:\Users\HTPC\AppData\Roaming\HandBrake\HandBrake\0.9.6.4682

-------------------------------------------

CLI Query:  -i "D:\Ponyo_t01.mkv" -t 1 -c 1-21 -o "F:\Ponyo.m4v"  -f mp4 -4  --detelecine --decomb -w 1920 --loose-anamorphic  -e x264 -q 20 --vfr  -a 1,1 -E faac,ffac3 -B 160,0 -6 dpl2,auto -R Auto,Auto -D 0,0 --gain=0,0 --audio-copy-mask none --audio-fallback ffac3 --markers="C:\Users\HTPC\AppData\Local\Temp\Ponyo-1-chapters.csv" -x b-adapt=2:rc-lookahead=50 --verbose=1
User Query: False

[10:34:02] hb_init: starting libhb thread
HandBrake svn4686 (2012051901) - MinGW x86_64 - http://handbrake.fr
4 CPUs detected
Opening D:\Ponyo_t01.mkv...
[10:34:02] hb_scan: path=D:\Ponyo_t01.mkv, title_index=1
libbluray/bdnav/index_parse.c:157: indx_parse(): error opening D:\Ponyo_t01.mkv/BDMV/index.bdmv
libbluray/bluray.c:1471: nav_get_title_list(D:\Ponyo_t01.mkv) failed (000000000031DEA0)
[10:34:02] bd: not a bd - trying as a stream/file instead
libdvdnav: Using dvdnav version 4.1.3
libdvdread: Encrypted DVD support unavailable.
libdvdnav:DVDOpenFileUDF:UDFFindFile /VIDEO_TS/VIDEO_TS.IFO failed
libdvdnav:DVDOpenFileUDF:UDFFindFile /VIDEO_TS/VIDEO_TS.BUP failed
libdvdread: Can't open file VIDEO_TS.IFO.
libdvdnav: vm: failed to read VIDEO_TS.IFO
[10:34:02] dvd: not a dvd - trying as a stream/file instead
Input #0, matroska,webm, from 'D:\Ponyo_t01.mkv':
  Metadata:
    title           : Ponyo
  Duration: 01:41:24.87, start: 0.000000, bitrate: 1536 kb/s
    Chapter #0.0: start 0.000000, end 307.849178
    Metadata:
      title           : Chapter 00
    Chapter #0.1: start 307.849178, end 437.854044
    Metadata:
      title           : Chapter 01
    Chapter #0.2: start 437.854044, end 782.531689
    Metadata:
      title           : Chapter 02
    Chapter #0.3: start 782.531689, end 1071.236756
    Metadata:
      title           : Chapter 03
    Chapter #0.4: start 1071.236756, end 1370.368911
    Metadata:
      title           : Chapter 04
    Chapter #0.5: start 1370.368911, end 1838.461556
    Metadata:
      title           : Chapter 05
    Chapter #0.6: start 1838.461556, end 2415.830000
    Metadata:
      title           : Chapter 06
    Chapter #0.7: start 2415.830000, end 2918.123444
    Metadata:
      title           : Chapter 07
    Chapter #0.8: start 2918.123444, end 3354.517733
    Metadata:
      title           : Chapter 08
    Chapter #0.9: start 3354.517733, end 3753.541356
    Metadata:
      title           : Chapter 09
    Chapter #0.10: start 3753.541356, end 3907.862178
    Metadata:
      title           : Chapter 10
    Chapter #0.11: start 3907.862178, end 4166.036756
    Metadata:
      title           : Chapter 11
    Chapter #0.12: start 4166.036756, end 4539.409756
    Metadata:
      title           : Chapter 12
    Chapter #0.13: start 4539.409756, end 4795.790889
    Metadata:
      title           : Chapter 13
    Chapter #0.14: start 4795.790889, end 5097.425556
    Metadata:
      title           : Chapter 14
    Chapter #0.15: start 5097.425556, end 5202.280289
    Metadata:
      title           : Chapter 15
    Chapter #0.16: start 5202.280289, end 5381.751244
    Metadata:
      title           : Chapter 16
    Chapter #0.17: start 5381.751244, end 5668.913111
    Metadata:
      title           : Chapter 17
    Chapter #0.18: start 5668.913111, end 5982.768378
    Metadata:
      title           : Chapter 18
    Chapter #0.19: start 5982.768378, end 6081.867378
    Metadata:
      title           : Chapter 19
    Chapter #0.20: start 6081.867378, end 6084.870000
    Metadata:
      title           : Chapter 20
    Stream #0.0(eng): Video: h264 (High), yuv420p, 1920x1080 [PAR 1:1 DAR 16:9], 23.98 fps, 23.98 tbr, 1k tbn, 47.95 tbc
    Stream #0.1(eng): Audio: dca (DTS), 48000 Hz, 5.1, s16, 1536 kb/s (default)
    Metadata:
      title           : 3/2+1
[10:34:02] scan: decoding previews for title 1
[10:34:02] scan: audio 0x1: DCA, rate=48000Hz, bitrate=1536000 English (DTS) (5.1 ch)
Scanning title 1...
Scanning title 1...
Scanning title 1...
Scanning title 1...
Scanning title 1...
Scanning title 1...
Scanning title 1...
Scanning title 1...
Scanning title 1...
Scanning title 1...
Scanning title 1...
Scanning title 1...
Scanning title 1...
Scanning title 1...
Scanning title 1...
Scanning title 1...
Scanning title 1...
Scanning title 1...
[10:34:06] scan: 10 previews, 1920x1080, 23.976 fps, autocrop = 22/22/0/0, aspect 16:9, PAR 1:1
[10:34:06] scan: title (0) job->width:1920, job->height:1040
[10:34:06] libhb: scan thread found 1 valid title(s)
+ title 1:
  + stream: D:\Ponyo_t01.mkv
  + duration: 01:41:24
  + size: 1920x1080, pixel aspect: 1/1, display aspect: 1.78, 23.976 fps
  + autocrop: 22/22/0/0
  + chapters:
    + 1: cells 0->0, 0 blocks, duration 00:05:08
    + 2: cells 0->0, 0 blocks, duration 00:02:10
    + 3: cells 0->0, 0 blocks, duration 00:05:45
    + 4: cells 0->0, 0 blocks, duration 00:04:49
    + 5: cells 0->0, 0 blocks, duration 00:04:59
    + 6: cells 0->0, 0 blocks, duration 00:07:48
    + 7: cells 0->0, 0 blocks, duration 00:09:37
    + 8: cells 0->0, 0 blocks, duration 00:08:22
    + 9: cells 0->0, 0 blocks, duration 00:07:16
    + 10: cells 0->0, 0 blocks, duration 00:06:39
    + 11: cells 0->0, 0 blocks, duration 00:02:34
    + 12: cells 0->0, 0 blocks, duration 00:04:18
    + 13: cells 0->0, 0 blocks, duration 00:06:13
    + 14: cells 0->0, 0 blocks, duration 00:04:16
    + 15: cells 0->0, 0 blocks, duration 00:05:02
    + 16: cells 0->0, 0 blocks, duration 00:01:45
    + 17: cells 0->0, 0 blocks, duration 00:02:59
    + 18: cells 0->0, 0 blocks, duration 00:04:47
    + 19: cells 0->0, 0 blocks, duration 00:05:14
    + 20: cells 0->0, 0 blocks, duration 00:01:39
    + 21: cells 0->0, 0 blocks, duration 00:00:03
  + audio tracks:
    + 1, English (DTS) (5.1 ch) (iso639-2: eng), 48000Hz, 1536000bps
  + subtitle tracks:
Reading chapter markers from file C:\Users\HTPC\AppData\Local\Temp\Ponyo-1-chapters.csv
[10:34:06] 1 job(s) to process
[10:34:06] starting job
[10:34:06] yadif thread started for segment 0
[10:34:06] yadif thread started for segment 1
[10:34:06] yadif thread started for segment 2
[10:34:06] yadif thread started for segment 3
[10:34:06] decomb thread started for segment 0
[10:34:06] decomb thread started for segment 1
[10:34:06] decomb thread started for segment 2
[10:34:06] decomb thread started for segment 3
[10:34:06] work: mixdown not specified, track 2 setting mixdown 6-channel discrete
[10:34:06] work: bitrate not specified, track 2 setting bitrate 640
[10:34:06] sync: expecting 145890 video frames
[10:34:06] job configuration:
[10:34:06]  * source
[10:34:06]    + D:\Ponyo_t01.mkv
[10:34:06]    + title 1, chapter(s) 1 to 21
[10:34:06]    + container: matroska,webm
[10:34:06]    + data rate: 1536 kbps
[10:34:06]  * destination
[10:34:06]    + F:\Ponyo.m4v
[10:34:06]    + container: MPEG-4 (.mp4 and .m4v)
[10:34:06]      + 64-bit formatting
[10:34:06]      + chapter markers
[10:34:06]  * video track
[10:34:06]    + decoder: h264
[10:34:06]    + frame rate: same as source (around 23.976 fps)
[10:34:06]    + filters
[10:34:06]      + Detelecine (pullup) (default settings)
[10:34:06]      + Decomb (default settings)
[10:34:06]      + Framerate Shaper (0:27000000:1126125)
[10:34:06]        + frame rate: same as source (around 23.976 fps)
[10:34:06]      + Crop and Scale (1920:1040:22:22:0:0)
[10:34:06]        + source: 1920 * 1080, crop (22/22/0/0): 1920 * 1036, scale: 1920 * 1040
[10:34:06]    + loose anamorphic
[10:34:06]      + storage dimensions: 1920 * 1040, mod 0
[10:34:06]      + pixel aspect ratio: 260 / 259
[10:34:06]      + display dimensions: 1927 * 1040
[10:34:06]    + encoder: H.264 (x264)
[10:34:06]      + options: b-adapt=2:rc-lookahead=50
[10:34:06]      + quality: 20.00 (RF)
[10:34:06]  * audio track 1
[10:34:06]    + decoder: English (DTS) (5.1 ch) (track 1, id 0x1)
[10:34:06]      + bitrate: 1536 kbps, samplerate: 48000 Hz
[10:34:06]    + mixdown: Dolby Pro Logic II
[10:34:06]    + encoder: AAC (faac)
[10:34:06]      + bitrate: 160 kbps, samplerate: 48000 Hz
[10:34:06]  * audio track 2
[10:34:06]    + decoder: English (DTS) (5.1 ch) (track 1, id 0x1)
[10:34:06]      + bitrate: 1536 kbps, samplerate: 48000 Hz
[10:34:06]    + mixdown: 6-channel discrete
[10:34:06]    + encoder: AC3 (ffmpeg)
[10:34:06]      + bitrate: 640 kbps, samplerate: 48000 Hz
[10:34:06] reader: first SCR 0 id 0x0 DTS 0
[10:34:06] encx264: min-keyint: 24, keyint: 240
[10:34:06] encx264: encoding with stored aspect 260/259
[10:34:06] encx264: Encoding at constant RF 20.000000
x264 [warning]: --psnr used with psy on: results will be invalid!
x264 [warning]: --tune psnr should be used if attempting to benchmark psnr!
x264 [info]: using SAR=260/259
x264 [info]: using cpu capabilities: MMX2 SSE2Fast SSSE3 FastShuffle SSE4.2 AVX
x264 [info]: profile High, level 4.0
Stream with high frequencies VQ coding
Stream with high frequencies VQ coding
[10:43:29] h264: "Chapter 2" (2) at frame 7391 time 27713970
[10:47:38] h264: "Chapter 3" (3) at frame 10508 time 39414420
[10:57:49] h264: "Chapter 4" (4) at frame 18770 time 70427880
[11:06:03] h264: "Chapter 5" (5) at frame 25692 time 96411330
[11:13:58] h264: "Chapter 6" (6) at frame 32864 time 123333210
[11:26:36] h264: "Chapter 7" (7) at frame 44087 time 165461580
[11:44:05] h264: "Chapter 8" (8) at frame 57930 time 217424700
[12:02:12] h264: "Chapter 9" (9) at frame 69973 time 262631160
[12:15:14] h264: "Chapter 10" (10) at frame 80436 time 301906620
[12:26:20] h264: "Chapter 11" (11) at frame 90005 time 337826250
[12:30:38] h264: "Chapter 12" (12) at frame 93705 time 351715140
[12:38:07] h264: "Chapter 13" (13) at frame 99893 time 374943330
[12:48:50] h264: "Chapter 14" (14) at frame 108845 time 408546900
[12:56:04] h264: "Chapter 15" (15) at frame 114992 time 431621190
[13:04:29] h264: "Chapter 16" (16) at frame 122224 time 458768340
[13:07:11] h264: "Chapter 17" (17) at frame 124740 time 468212760
[13:12:03] h264: "Chapter 18" (18) at frame 129043 time 484365150
[13:20:09] h264: "Chapter 19" (19) at frame 135928 time 510209730
[13:29:11] h264: "Chapter 20" (20) at frame 143453 time 538456680
[13:32:14] h264: "Chapter 21" (21) at frame 145830 time 547379370
[13:32:16] reader: done. 1 scr changes
[13:32:19] work: average encoding speed for job is 13.642200 fps
[13:32:19] sync: got 145891 frames, 145890 expected
[13:32:19] decomb: deinterlaced 0 | blended 39 | unfiltered 145828 | total 145867
[13:32:19] render: lost time: 86400 (0 frames)
[13:32:19] render: gained time: 86400 (92 frames) (0 not accounted for)
[13:32:19] h264-decoder done: 145891 frames, 0 decoder errors, 0 drops
x264 [info]: frame I:1256  Avg QP:15.62  size:278604  PSNR Mean Y:47.85 U:50.91 V:50.69 Avg:48.61 Global:48.04
x264 [info]: frame P:43581 Avg QP:19.18  size: 55801  PSNR Mean Y:44.91 U:48.10 V:47.82 Avg:45.68 Global:45.25
x264 [info]: frame B:101030 Avg QP:21.76  size: 12754  PSNR Mean Y:44.57 U:47.95 V:47.62 Avg:45.37 Global:44.87
x264 [info]: consecutive B-frames:  3.2% 10.8%  8.2% 77.9%
x264 [info]: mb I  I16..4:  3.0% 76.1% 20.9%
x264 [info]: mb P  I16..4:  1.1%  6.4%  2.7%  P16..4: 39.1% 20.0% 13.2%  0.0%  0.0%    skip:17.6%
x264 [info]: mb B  I16..4:  0.1%  0.6%  0.3%  B16..8: 39.3%  4.2%  1.1%  direct: 1.4%  skip:52.9%  L0:50.1% L1:46.7% BI: 3.2%
x264 [info]: 8x8 transform intra:65.2% inter:74.3%
x264 [info]: coded y,uvDC,uvAC intra: 73.0% 75.2% 52.4% inter: 17.5% 12.5% 3.1%
x264 [info]: i16 v,h,dc,p: 34% 28%  8% 30%
x264 [info]: i8 v,h,dc,ddl,ddr,vr,hd,vl,hu: 15% 18% 25%  7%  7%  6%  7%  6%  8%
x264 [info]: i4 v,h,dc,ddl,ddr,vr,hd,vl,hu: 20% 19% 19%  7%  8%  7%  8%  6%  5%
x264 [info]: i8c dc,h,v,p: 50% 24% 18%  7%
x264 [info]: Weighted P-Frames: Y:1.2% UV:0.9%
x264 [info]: ref P L0: 56.8% 10.1% 19.7% 13.3%  0.1%
x264 [info]: ref B L0: 81.9% 12.7%  5.4%
x264 [info]: ref B L1: 92.9%  7.1%
x264 [info]: SSIM Mean Y:0.9833445 (17.784db)
x264 [info]: PSNR Mean Y:44.698 U:48.019 V:47.706 Avg:45.490 Global:44.996 kb/s:5351.39
[13:32:21] mux: track 0, 145867 frames, 4070229642 bytes, 5351.24 kbps, fifo 1024
[13:32:21] mux: track 1, 285230 frames, 121685461 bytes, 159.98 kbps, fifo 2048
[13:32:21] mux: track 2, 190152 frames, 486789120 bytes, 639.99 kbps, fifo 2048
[13:32:21] libhb: work result = 0
Encode done!
HandBrake has exited.
Here is Mr.Poppers Penguins - This is not fine, it sounds flat and thin, and is missing the L&R audio.

Code: Select all

HandBrake svn4686 2012051901
OS: Microsoft Windows NT 6.1.7601 Service Pack 1
CPU: Intel(R) Core(TM) i5-2500 CPU @ 3.30GHz
Ram: 16295 MB, Screen: 1680x1050
Temp Dir: C:\Users\HTPC\AppData\Local\Temp\
Install Dir: C:\Program Files\Handbrake
Data Dir: C:\Users\HTPC\AppData\Roaming\HandBrake\HandBrake\0.9.6.4682

-------------------------------------------

CLI Query:  -i "D:\Mr_Popper's_Penguins_t01.mkv" -t 1 -c 1-25 -o "F:\Mr Popper's Penguins.m4v"  -f mp4 -4  --detelecine --decomb -w 1920 --loose-anamorphic  -e x264 -q 20 --vfr  -a 1,1 -E faac,ffac3 -B 160,160 -6 dpl2,auto -R Auto,Auto -D 0,0 --gain=0,0 --audio-copy-mask none --audio-fallback ffac3 --markers="C:\Users\HTPC\AppData\Local\Temp\Mr Popper's Penguins-1-chapters.csv" -x b-adapt=2:rc-lookahead=50 --verbose=1
User Query: False

[13:32:24] hb_init: starting libhb thread
HandBrake svn4686 (2012051901) - MinGW x86_64 - http://handbrake.fr
4 CPUs detected
Opening D:\Mr_Popper's_Penguins_t01.mkv...
[13:32:24] hb_scan: path=D:\Mr_Popper's_Penguins_t01.mkv, title_index=1
libbluray/bdnav/index_parse.c:157: indx_parse(): error opening D:\Mr_Popper's_Penguins_t01.mkv/BDMV/index.bdmv
libbluray/bluray.c:1471: nav_get_title_list(D:\Mr_Popper's_Penguins_t01.mkv) failed (000000000031E110)
[13:32:24] bd: not a bd - trying as a stream/file instead
libdvdnav: Using dvdnav version 4.1.3
libdvdread: Encrypted DVD support unavailable.
libdvdnav:DVDOpenFileUDF:UDFFindFile /VIDEO_TS/VIDEO_TS.IFO failed
libdvdnav:DVDOpenFileUDF:UDFFindFile /VIDEO_TS/VIDEO_TS.BUP failed
libdvdread: Can't open file VIDEO_TS.IFO.
libdvdnav: vm: failed to read VIDEO_TS.IFO
[13:32:24] dvd: not a dvd - trying as a stream/file instead
Input #0, matroska,webm, from 'D:\Mr_Popper's_Penguins_t01.mkv':
  Metadata:
    title           : Mr. Popper's Penguins
  Duration: 01:34:21.11, start: 0.000000, bitrate: 1984 kb/s
    Chapter #0.0: start 0.000000, end 3.003000
    Metadata:
      title           : Chapter 00
    Chapter #0.1: start 3.003000, end 168.251400
    Metadata:
      title           : Chapter 01
    Chapter #0.2: start 168.251400, end 440.064622
    Metadata:
      title           : Chapter 02
    Chapter #0.3: start 440.064622, end 700.991956
    Metadata:
      title           : Chapter 03
    Chapter #0.4: start 700.991956, end 860.985111
    Metadata:
      title           : Chapter 04
    Chapter #0.5: start 860.985111, end 1069.401667
    Metadata:
      title           : Chapter 05
    Chapter #0.6: start 1069.401667, end 1255.796200
    Metadata:
      title           : Chapter 06
    Chapter #0.7: start 1255.796200, end 1414.121022
    Metadata:
      title           : Chapter 07
    Chapter #0.8: start 1414.121022, end 1707.372333
    Metadata:
      title           : Chapter 08
    Chapter #0.9: start 1707.372333, end 1949.072111
    Metadata:
      title           : Chapter 09
    Chapter #0.10: start 1949.072111, end 2173.546356
    Metadata:
      title           : Chapter 10
    Chapter #0.11: start 2173.546356, end 2300.214578
    Metadata:
      title           : Chapter 11
    Chapter #0.12: start 2300.214578, end 2539.912356
    Metadata:
      title           : Chapter 12
    Chapter #0.13: start 2539.912356, end 2845.092244
    Metadata:
      title           : Chapter 13
    Chapter #0.14: start 2845.092244, end 3057.804733
    Metadata:
      title           : Chapter 14
    Chapter #0.15: start 3057.804733, end 3250.622356
    Metadata:
      title           : Chapter 15
    Chapter #0.16: start 3250.622356, end 3407.278867
    Metadata:
      title           : Chapter 16
    Chapter #0.17: start 3407.278867, end 3629.125489
    Metadata:
      title           : Chapter 17
    Chapter #0.18: start 3629.125489, end 4008.004000
    Metadata:
      title           : Chapter 18
    Chapter #0.19: start 4008.004000, end 4189.560356
    Metadata:
      title           : Chapter 19
    Chapter #0.20: start 4189.560356, end 4400.521111
    Metadata:
      title           : Chapter 20
    Chapter #0.21: start 4400.521111, end 4756.376622
    Metadata:
      title           : Chapter 21
    Chapter #0.22: start 4756.376622, end 5022.517489
    Metadata:
      title           : Chapter 22
    Chapter #0.23: start 5022.517489, end 5249.118867
    Metadata:
      title           : Chapter 23
    Chapter #0.24: start 5249.118867, end 5661.113000
    Metadata:
      title           : Chapter 24
    Stream #0.0(eng): Video: h264 (High), yuv420p, 1920x1080 [PAR 1:1 DAR 16:9], 23.98 fps, 23.98 tbr, 1k tbn, 47.95 tbc
    Stream #0.1(eng): Audio: dca (DTS), 48000 Hz, 5.1, s16, 1536 kb/s (default)
    Metadata:
      title           : 3/2+1
    Stream #0.2(eng): Audio: ac3, 48000 Hz, 5.1, s16, 448 kb/s
    Metadata:
      title           : 3/2+1
[13:32:24] scan: decoding previews for title 1
[13:32:24] scan: audio 0x1: DCA, rate=48000Hz, bitrate=1536000 English (DTS) (5.1 ch)
[13:32:24] scan: audio 0x2: AC-3, rate=48000Hz, bitrate=448000 English (AC3) (5.1 ch)
Scanning title 1...
Scanning title 1...
Scanning title 1...
Scanning title 1...
Scanning title 1...
Scanning title 1...
Scanning title 1...
Scanning title 1...
Scanning title 1...
Scanning title 1...
Scanning title 1...
[13:32:26] scan: 10 previews, 1920x1080, 23.976 fps, autocrop = 20/20/0/0, aspect 16:9, PAR 1:1
[13:32:26] scan: title (0) job->width:1920, job->height:1040
[13:32:26] libhb: scan thread found 1 valid title(s)
+ title 1:
  + stream: D:\Mr_Popper's_Penguins_t01.mkv
  + duration: 01:34:21
  + size: 1920x1080, pixel aspect: 1/1, display aspect: 1.78, 23.976 fps
  + autocrop: 20/20/0/0
  + chapters:
    + 1: cells 0->0, 0 blocks, duration 00:00:03
    + 2: cells 0->0, 0 blocks, duration 00:02:45
    + 3: cells 0->0, 0 blocks, duration 00:04:32
    + 4: cells 0->0, 0 blocks, duration 00:04:21
    + 5: cells 0->0, 0 blocks, duration 00:02:40
    + 6: cells 0->0, 0 blocks, duration 00:03:28
    + 7: cells 0->0, 0 blocks, duration 00:03:06
    + 8: cells 0->0, 0 blocks, duration 00:02:38
    + 9: cells 0->0, 0 blocks, duration 00:04:53
    + 10: cells 0->0, 0 blocks, duration 00:04:02
    + 11: cells 0->0, 0 blocks, duration 00:03:44
    + 12: cells 0->0, 0 blocks, duration 00:02:07
    + 13: cells 0->0, 0 blocks, duration 00:04:00
    + 14: cells 0->0, 0 blocks, duration 00:05:05
    + 15: cells 0->0, 0 blocks, duration 00:03:33
    + 16: cells 0->0, 0 blocks, duration 00:03:13
    + 17: cells 0->0, 0 blocks, duration 00:02:37
    + 18: cells 0->0, 0 blocks, duration 00:03:42
    + 19: cells 0->0, 0 blocks, duration 00:06:19
    + 20: cells 0->0, 0 blocks, duration 00:03:02
    + 21: cells 0->0, 0 blocks, duration 00:03:31
    + 22: cells 0->0, 0 blocks, duration 00:05:56
    + 23: cells 0->0, 0 blocks, duration 00:04:26
    + 24: cells 0->0, 0 blocks, duration 00:03:47
    + 25: cells 0->0, 0 blocks, duration 00:06:52
  + audio tracks:
    + 1, English (DTS) (5.1 ch) (iso639-2: eng), 48000Hz, 1536000bps
    + 2, English (AC3) (5.1 ch) (iso639-2: eng), 48000Hz, 448000bps
  + subtitle tracks:
Reading chapter markers from file C:\Users\HTPC\AppData\Local\Temp\Mr Popper's Penguins-1-chapters.csv
[13:32:26] 1 job(s) to process
[13:32:26] starting job
[13:32:26] yadif thread started for segment 0
[13:32:26] yadif thread started for segment 1
[13:32:26] yadif thread started for segment 2
[13:32:26] yadif thread started for segment 3
[13:32:26] decomb thread started for segment 0
[13:32:26] decomb thread started for segment 1
[13:32:26] decomb thread started for segment 2
[13:32:26] decomb thread started for segment 3
[13:32:26] work: mixdown not specified, track 2 setting mixdown 6-channel discrete
[13:32:26] work: sanitizing track 2 audio bitrate 160 to 192
[13:32:26] sync: expecting 135730 video frames
[13:32:26] job configuration:
[13:32:26]  * source
[13:32:26]    + D:\Mr_Popper's_Penguins_t01.mkv
[13:32:26]    + title 1, chapter(s) 1 to 25
[13:32:26]    + container: matroska,webm
[13:32:26]    + data rate: 1984 kbps
[13:32:26]  * destination
[13:32:26]    + F:\Mr Popper's Penguins.m4v
[13:32:26]    + container: MPEG-4 (.mp4 and .m4v)
[13:32:26]      + 64-bit formatting
[13:32:26]      + chapter markers
[13:32:26]  * video track
[13:32:26]    + decoder: h264
[13:32:26]    + frame rate: same as source (around 23.976 fps)
[13:32:26]    + filters
[13:32:26]      + Detelecine (pullup) (default settings)
[13:32:26]      + Decomb (default settings)
[13:32:26]      + Framerate Shaper (0:27000000:1126125)
[13:32:26]        + frame rate: same as source (around 23.976 fps)
[13:32:26]      + Crop and Scale (1920:1040:20:20:0:0)
[13:32:26]        + source: 1920 * 1080, crop (20/20/0/0): 1920 * 1040, scale: 1920 * 1040
[13:32:26]    + loose anamorphic
[13:32:26]      + storage dimensions: 1920 * 1040, mod 0
[13:32:26]      + pixel aspect ratio: 1 / 1
[13:32:26]      + display dimensions: 1920 * 1040
[13:32:26]    + encoder: H.264 (x264)
[13:32:26]      + options: b-adapt=2:rc-lookahead=50
[13:32:26]      + quality: 20.00 (RF)
[13:32:26]  * audio track 1
[13:32:26]    + decoder: English (DTS) (5.1 ch) (track 1, id 0x1)
[13:32:26]      + bitrate: 1536 kbps, samplerate: 48000 Hz
[13:32:26]    + mixdown: Dolby Pro Logic II
[13:32:26]    + encoder: AAC (faac)
[13:32:26]      + bitrate: 160 kbps, samplerate: 48000 Hz
[13:32:26]  * audio track 2
[13:32:26]    + decoder: English (DTS) (5.1 ch) (track 1, id 0x1)
[13:32:26]      + bitrate: 1536 kbps, samplerate: 48000 Hz
[13:32:26]    + mixdown: 6-channel discrete
[13:32:26]    + encoder: AC3 (ffmpeg)
[13:32:26]      + bitrate: 192 kbps, samplerate: 48000 Hz
[13:32:26] reader: first SCR 0 id 0x0 DTS 0
[13:32:26] encx264: min-keyint: 24, keyint: 240
[13:32:26] encx264: encoding with stored aspect 1/1
[13:32:26] encx264: Encoding at constant RF 20.000000
x264 [warning]: --psnr used with psy on: results will be invalid!
x264 [warning]: --tune psnr should be used if attempting to benchmark psnr!
x264 [info]: using SAR=1/1
x264 [info]: using cpu capabilities: MMX2 SSE2Fast SSSE3 FastShuffle SSE4.2 AVX
x264 [info]: profile High, level 4.0
Stream with high frequencies VQ coding
Stream with high frequencies VQ coding
[13:32:28] h264: "Chapter 2" (2) at frame 82 time 277740
[13:37:24] h264: "Chapter 3" (3) at frame 4044 time 15150150
[13:45:26] h264: "Chapter 4" (4) at frame 10559 time 39605850
[13:53:08] h264: "Chapter 5" (5) at frame 16815 time 63089280
[13:57:56] h264: "Chapter 6" (6) at frame 20654 time 77499900
[14:03:58] h264: "Chapter 7" (7) at frame 25648 time 96246180
[14:09:25] h264: "Chapter 8" (8) at frame 30120 time 113032890
[14:14:11] h264: "Chapter 9" (9) at frame 33916 time 127282140
[14:23:17] h264: "Chapter 10" (10) at frame 40946 time 153671040
[14:30:45] h264: "Chapter 11" (11) at frame 46742 time 175427730
[14:37:15] h264: "Chapter 12" (12) at frame 52124 time 195630480
[14:40:59] h264: "Chapter 13" (13) at frame 55158 time 207019350
[14:48:32] h264: "Chapter 14" (14) at frame 60908 time 228603420
[14:58:37] h264: "Chapter 15" (15) at frame 68224 time 256065840
[15:04:57] h264: "Chapter 16" (16) at frame 73322 time 275202450
[15:10:46] h264: "Chapter 17" (17) at frame 77947 time 292563540
[15:15:18] h264: "Chapter 18" (18) at frame 81701 time 306655110
[15:22:13] h264: "Chapter 19" (19) at frame 87020 time 326621340
[15:33:24] h264: "Chapter 20" (20) at frame 96104 time 360720360
[15:38:49] h264: "Chapter 21" (21) at frame 100460 time 377071740
[15:45:25] h264: "Chapter 22" (22) at frame 105518 time 396058140
[15:56:27] h264: "Chapter 23" (23) at frame 114047 time 428073930
[16:04:19] h264: "Chapter 24" (24) at frame 120428 time 452026620
[16:11:27] h264: "Chapter 25" (25) at frame 125861 time 472420710
[16:18:32] reader: done. 1 scr changes
[16:18:35] work: average encoding speed for job is 13.617039 fps
[16:18:35] sync: got 135731 frames, 135730 expected
[16:18:36] decomb: deinterlaced 0 | blended 8 | unfiltered 135722 | total 135730
[16:18:36] render: lost time: 0 (0 frames)
[16:18:36] render: gained time: 0 (0 frames) (0 not accounted for)
[16:18:36] h264-decoder done: 135731 frames, 0 decoder errors, 0 drops
x264 [info]: frame I:1337  Avg QP:16.75  size:172350  PSNR Mean Y:48.54 U:50.43 V:51.56 Avg:48.98 Global:48.66
x264 [info]: frame P:38916 Avg QP:19.67  size: 38338  PSNR Mean Y:46.30 U:50.93 V:52.45 Avg:46.91 Global:46.49
x264 [info]: frame B:95477 Avg QP:21.44  size: 12463  PSNR Mean Y:45.73 U:49.13 V:50.65 Avg:46.33 Global:45.84
x264 [info]: consecutive B-frames:  1.7%  4.9% 26.1% 67.4%
x264 [info]: mb I  I16..4: 36.7% 46.7% 16.6%
x264 [info]: mb P  I16..4:  3.8%  6.3%  0.9%  P16..4: 44.7% 13.0%  8.4%  0.0%  0.0%    skip:22.9%
x264 [info]: mb B  I16..4:  0.5%  0.6%  0.1%  B16..8: 42.3%  2.8%  0.5%  direct: 2.7%  skip:50.5%  L0:43.7% L1:52.4% BI: 3.9%
x264 [info]: 8x8 transform intra:54.0% inter:80.7%
x264 [info]: coded y,uvDC,uvAC intra: 65.2% 71.8% 44.5% inter: 15.7% 24.3% 2.1%
x264 [info]: i16 v,h,dc,p: 30% 18% 30% 22%
x264 [info]: i8 v,h,dc,ddl,ddr,vr,hd,vl,hu: 20% 16% 23%  5%  7%  8%  7%  7%  7%
x264 [info]: i4 v,h,dc,ddl,ddr,vr,hd,vl,hu: 24% 18% 17%  6%  9%  8%  8%  6%  5%
x264 [info]: i8c dc,h,v,p: 59% 17% 20%  5%
x264 [info]: Weighted P-Frames: Y:1.2% UV:0.6%
x264 [info]: ref P L0: 56.1% 10.0% 23.8% 10.0%  0.1%
x264 [info]: ref B L0: 82.8% 13.6%  3.5%
x264 [info]: ref B L1: 92.7%  7.3%
x264 [info]: SSIM Mean Y:0.9830341 (17.704db)
x264 [info]: PSNR Mean Y:45.922 U:49.657 V:51.178 Avg:46.524 Global:46.035 kb/s:4115.57
[16:18:37] mux: track 0, 135730 frames, 2912262664 bytes, 4115.43 kbps, fifo 2048
[16:18:37] mux: track 1, 265366 frames, 113185345 bytes, 159.95 kbps, fifo 4096
[16:18:37] mux: track 2, 176910 frames, 135866880 bytes, 192.00 kbps, fifo 4096
[16:18:37] libhb: work result = 0
Encode done!
HandBrake has exited.
Last edited by TedJ on Wed May 23, 2012 12:23 pm, edited 1 time in total.
Reason: Activity logs should be enclosed in [code] blocks.

nathug
Bright Spark User
Posts: 204
Joined: Fri Apr 11, 2008 10:21 pm

Re: AC3 from DTS not correct Builds 4582 thru 4686 maybe mor

Post by nathug » Wed May 23, 2012 12:29 pm

I did a re encode last night with Build 4696 and it was ok, any ideas what is different?

Code: Select all

HandBrake svn4696 2012052101
OS: Microsoft Windows NT 6.1.7601 Service Pack 1
CPU: Intel(R) Core(TM) i5-2500 CPU @ 3.30GHz
Ram: 16295 MB, Screen: 1280x720
Temp Dir: C:\Users\HTPC\AppData\Local\Temp\
Install Dir: C:\Program Files\Handbrake
Data Dir: C:\Users\HTPC\AppData\Roaming\HandBrake\HandBrake\0.9.6.4696

-------------------------------------------

CLI Query:  -i "D:\Mr_Popper's_Penguins_t01.mkv" -t 1 -c 1-25 -o "F:\Mr Popper's Penguins t01.m4v"  -f mp4 -4  --detelecine --decomb -w 1920 --loose-anamorphic  -e x264 -q 20 --vfr  -a 1,1 -E faac,ffac3 -B 160,0 -6 dpl2,auto -R Auto,Auto -D 0,0 --gain=0,0 --audio-copy-mask none --audio-fallback ffac3 --markers="C:\Users\HTPC\AppData\Local\Temp\Mr Popper's Penguins t01-1-chapters.csv" -x b-adapt=2:rc-lookahead=50 --verbose=1
User Query: False

[22:50:59] hb_init: starting libhb thread
HandBrake svn4696 (2012052101) - MinGW x86_64 - http://handbrake.fr
4 CPUs detected
Opening D:\Mr_Popper's_Penguins_t01.mkv...
[22:50:59] hb_scan: path=D:\Mr_Popper's_Penguins_t01.mkv, title_index=1
libbluray/bdnav/index_parse.c:157: indx_parse(): error opening D:\Mr_Popper's_Penguins_t01.mkv/BDMV/index.bdmv
libbluray/bluray.c:1471: nav_get_title_list(D:\Mr_Popper's_Penguins_t01.mkv) failed (0000000001DEE050)
[22:50:59] bd: not a bd - trying as a stream/file instead
libdvdnav: Using dvdnav version 4.1.3
libdvdread: Encrypted DVD support unavailable.
libdvdnav:DVDOpenFileUDF:UDFFindFile /VIDEO_TS/VIDEO_TS.IFO failed
libdvdnav:DVDOpenFileUDF:UDFFindFile /VIDEO_TS/VIDEO_TS.BUP failed
libdvdread: Can't open file VIDEO_TS.IFO.
libdvdnav: vm: failed to read VIDEO_TS.IFO
[22:50:59] dvd: not a dvd - trying as a stream/file instead
Input #0, matroska,webm, from 'D:\Mr_Popper's_Penguins_t01.mkv':
  Metadata:
    title           : Mr. Popper's Penguins
  Duration: 01:34:21.11, start: 0.000000, bitrate: 1984 kb/s
    Chapter #0.0: start 0.000000, end 3.003000
    Metadata:
      title           : Chapter 00
    Chapter #0.1: start 3.003000, end 168.251400
    Metadata:
      title           : Chapter 01
    Chapter #0.2: start 168.251400, end 440.064622
    Metadata:
      title           : Chapter 02
    Chapter #0.3: start 440.064622, end 700.991956
    Metadata:
      title           : Chapter 03
    Chapter #0.4: start 700.991956, end 860.985111
    Metadata:
      title           : Chapter 04
    Chapter #0.5: start 860.985111, end 1069.401667
    Metadata:
      title           : Chapter 05
    Chapter #0.6: start 1069.401667, end 1255.796200
    Metadata:
      title           : Chapter 06
    Chapter #0.7: start 1255.796200, end 1414.121022
    Metadata:
      title           : Chapter 07
    Chapter #0.8: start 1414.121022, end 1707.372333
    Metadata:
      title           : Chapter 08
    Chapter #0.9: start 1707.372333, end 1949.072111
    Metadata:
      title           : Chapter 09
    Chapter #0.10: start 1949.072111, end 2173.546356
    Metadata:
      title           : Chapter 10
    Chapter #0.11: start 2173.546356, end 2300.214578
    Metadata:
      title           : Chapter 11
    Chapter #0.12: start 2300.214578, end 2539.912356
    Metadata:
      title           : Chapter 12
    Chapter #0.13: start 2539.912356, end 2845.092244
    Metadata:
      title           : Chapter 13
    Chapter #0.14: start 2845.092244, end 3057.804733
    Metadata:
      title           : Chapter 14
    Chapter #0.15: start 3057.804733, end 3250.622356
    Metadata:
      title           : Chapter 15
    Chapter #0.16: start 3250.622356, end 3407.278867
    Metadata:
      title           : Chapter 16
    Chapter #0.17: start 3407.278867, end 3629.125489
    Metadata:
      title           : Chapter 17
    Chapter #0.18: start 3629.125489, end 4008.004000
    Metadata:
      title           : Chapter 18
    Chapter #0.19: start 4008.004000, end 4189.560356
    Metadata:
      title           : Chapter 19
    Chapter #0.20: start 4189.560356, end 4400.521111
    Metadata:
      title           : Chapter 20
    Chapter #0.21: start 4400.521111, end 4756.376622
    Metadata:
      title           : Chapter 21
    Chapter #0.22: start 4756.376622, end 5022.517489
    Metadata:
      title           : Chapter 22
    Chapter #0.23: start 5022.517489, end 5249.118867
    Metadata:
      title           : Chapter 23
    Chapter #0.24: start 5249.118867, end 5661.113000
    Metadata:
      title           : Chapter 24
    Stream #0.0(eng): Video: h264 (High), yuv420p, 1920x1080 [PAR 1:1 DAR 16:9], 23.98 fps, 23.98 tbr, 1k tbn, 47.95 tbc
    Stream #0.1(eng): Audio: dca (DTS), 48000 Hz, 5.1, s16, 1536 kb/s (default)
    Metadata:
      title           : 3/2+1
    Stream #0.2(eng): Audio: ac3, 48000 Hz, 5.1, s16, 448 kb/s
    Metadata:
      title           : 3/2+1
[22:50:59] scan: decoding previews for title 1
[22:50:59] scan: audio 0x1: DCA, rate=48000Hz, bitrate=1536000 English (DTS) (5.1 ch)
[22:50:59] scan: audio 0x2: AC-3, rate=48000Hz, bitrate=448000 English (AC3) (5.1 ch)
Scanning title 1...
Scanning title 1...
Scanning title 1...
Scanning title 1...
Scanning title 1...
Scanning title 1...
Scanning title 1...
Scanning title 1...
Scanning title 1...
[22:51:00] scan: 10 previews, 1920x1080, 23.976 fps, autocrop = 20/20/0/0, aspect 16:9, PAR 1:1
[22:51:00] scan: title (0) job->width:1920, job->height:1040
[22:51:00] libhb: scan thread found 1 valid title(s)
+ title 1:
  + stream: D:\Mr_Popper's_Penguins_t01.mkv
  + duration: 01:34:21
  + size: 1920x1080, pixel aspect: 1/1, display aspect: 1.78, 23.976 fps
  + autocrop: 20/20/0/0
  + chapters:
    + 1: cells 0->0, 0 blocks, duration 00:00:03
    + 2: cells 0->0, 0 blocks, duration 00:02:45
    + 3: cells 0->0, 0 blocks, duration 00:04:32
    + 4: cells 0->0, 0 blocks, duration 00:04:21
    + 5: cells 0->0, 0 blocks, duration 00:02:40
    + 6: cells 0->0, 0 blocks, duration 00:03:28
    + 7: cells 0->0, 0 blocks, duration 00:03:06
    + 8: cells 0->0, 0 blocks, duration 00:02:38
    + 9: cells 0->0, 0 blocks, duration 00:04:53
    + 10: cells 0->0, 0 blocks, duration 00:04:02
    + 11: cells 0->0, 0 blocks, duration 00:03:44
    + 12: cells 0->0, 0 blocks, duration 00:02:07
    + 13: cells 0->0, 0 blocks, duration 00:04:00
    + 14: cells 0->0, 0 blocks, duration 00:05:05
    + 15: cells 0->0, 0 blocks, duration 00:03:33
    + 16: cells 0->0, 0 blocks, duration 00:03:13
    + 17: cells 0->0, 0 blocks, duration 00:02:37
    + 18: cells 0->0, 0 blocks, duration 00:03:42
    + 19: cells 0->0, 0 blocks, duration 00:06:19
    + 20: cells 0->0, 0 blocks, duration 00:03:02
    + 21: cells 0->0, 0 blocks, duration 00:03:31
    + 22: cells 0->0, 0 blocks, duration 00:05:56
    + 23: cells 0->0, 0 blocks, duration 00:04:26
    + 24: cells 0->0, 0 blocks, duration 00:03:47
    + 25: cells 0->0, 0 blocks, duration 00:06:52
  + audio tracks:
    + 1, English (DTS) (5.1 ch) (iso639-2: eng), 48000Hz, 1536000bps
    + 2, English (AC3) (5.1 ch) (iso639-2: eng), 48000Hz, 448000bps
  + subtitle tracks:
Reading chapter markers from file C:\Users\HTPC\AppData\Local\Temp\Mr Popper's Penguins t01-1-chapters.csv
[22:51:01] 1 job(s) to process
[22:51:01] starting job
[22:51:01] yadif thread started for segment 0
[22:51:01] yadif thread started for segment 1
[22:51:01] yadif thread started for segment 3
[22:51:01] yadif thread started for segment 2
[22:51:01] decomb thread started for segment 0
[22:51:01] decomb thread started for segment 1
[22:51:01] decomb thread started for segment 2
[22:51:01] decomb thread started for segment 3
[22:51:01] work: mixdown not specified, track 2 setting mixdown 6-channel discrete
[22:51:01] work: bitrate not specified, track 2 setting bitrate 640
[22:51:01] sync: expecting 135730 video frames
[22:51:01] job configuration:
[22:51:01]  * source
[22:51:01]    + D:\Mr_Popper's_Penguins_t01.mkv
[22:51:01]    + title 1, chapter(s) 1 to 25
[22:51:01]    + container: matroska,webm
[22:51:01]    + data rate: 1984 kbps
[22:51:01]  * destination
[22:51:01]    + F:\Mr Popper's Penguins t01.m4v
[22:51:01]    + container: MPEG-4 (.mp4 and .m4v)
[22:51:01]      + 64-bit formatting
[22:51:01]      + chapter markers
[22:51:01]  * video track
[22:51:01]    + decoder: h264
[22:51:01]    + frame rate: same as source (around 23.976 fps)
[22:51:01]    + filters
[22:51:01]      + Detelecine (pullup) (default settings)
[22:51:01]      + Decomb (default settings)
[22:51:01]      + Framerate Shaper (0:27000000:1126125)
[22:51:01]        + frame rate: same as source (around 23.976 fps)
[22:51:01]      + Crop and Scale (1920:1040:20:20:0:0)
[22:51:01]        + source: 1920 * 1080, crop (20/20/0/0): 1920 * 1040, scale: 1920 * 1040
[22:51:01]    + loose anamorphic
[22:51:01]      + storage dimensions: 1920 * 1040, mod 0
[22:51:01]      + pixel aspect ratio: 1 / 1
[22:51:01]      + display dimensions: 1920 * 1040
[22:51:01]    + encoder: H.264 (x264)
[22:51:01]      + options: b-adapt=2:rc-lookahead=50
[22:51:01]      + quality: 20.00 (RF)
[22:51:01]  * audio track 1
[22:51:01]    + decoder: English (DTS) (5.1 ch) (track 1, id 0x1)
[22:51:01]      + bitrate: 1536 kbps, samplerate: 48000 Hz
[22:51:01]    + mixdown: Dolby Pro Logic II
[22:51:01]    + encoder: AAC (faac)
[22:51:01]      + bitrate: 160 kbps, samplerate: 48000 Hz
[22:51:01]  * audio track 2
[22:51:01]    + decoder: English (DTS) (5.1 ch) (track 1, id 0x1)
[22:51:01]      + bitrate: 1536 kbps, samplerate: 48000 Hz
[22:51:01]    + mixdown: 6-channel discrete
[22:51:01]    + encoder: AC3 (ffmpeg)
[22:51:01]      + bitrate: 640 kbps, samplerate: 48000 Hz
[22:51:01] reader: first SCR 0 id 0x0 DTS 0
[22:51:01] encx264: min-keyint: 24, keyint: 240
[22:51:01] encx264: encoding with stored aspect 1/1
[22:51:01] encx264: Encoding at constant RF 20.000000
x264 [warning]: --psnr used with psy on: results will be invalid!
x264 [warning]: --tune psnr should be used if attempting to benchmark psnr!
x264 [info]: using SAR=1/1
x264 [info]: using cpu capabilities: MMX2 SSE2Fast SSSE3 FastShuffle SSE4.2 AVX
x264 [info]: profile High, level 4.0
Stream with high frequencies VQ coding
Stream with high frequencies VQ coding
[22:51:02] h264: "Chapter 2" (2) at frame 82 time 277740
[22:56:05] h264: "Chapter 3" (3) at frame 4044 time 15150150
[23:04:05] h264: "Chapter 4" (4) at frame 10559 time 39605850
[23:11:44] h264: "Chapter 5" (5) at frame 16815 time 63089280
[23:16:33] h264: "Chapter 6" (6) at frame 20654 time 77499900
[23:22:32] h264: "Chapter 7" (7) at frame 25648 time 96246180
[23:27:59] h264: "Chapter 8" (8) at frame 30120 time 113032890
[23:32:49] h264: "Chapter 9" (9) at frame 33916 time 127282140
[23:41:55] h264: "Chapter 10" (10) at frame 40946 time 153671040
[23:49:24] h264: "Chapter 11" (11) at frame 46742 time 175427730
[23:55:52] h264: "Chapter 12" (12) at frame 52124 time 195630480
[23:59:36] h264: "Chapter 13" (13) at frame 55158 time 207019350
[00:07:09] h264: "Chapter 14" (14) at frame 60908 time 228603420
[00:17:11] h264: "Chapter 15" (15) at frame 68224 time 256065840
[00:23:30] h264: "Chapter 16" (16) at frame 73322 time 275202450
[00:29:19] h264: "Chapter 17" (17) at frame 77947 time 292563540
[00:34:04] h264: "Chapter 18" (18) at frame 81701 time 306655110
[00:40:57] h264: "Chapter 19" (19) at frame 87020 time 326621340
[00:52:07] h264: "Chapter 20" (20) at frame 96104 time 360720360
[00:57:32] h264: "Chapter 21" (21) at frame 100460 time 377071740
[01:04:06] h264: "Chapter 22" (22) at frame 105518 time 396058140
[01:15:09] h264: "Chapter 23" (23) at frame 114047 time 428073930
[01:23:01] h264: "Chapter 24" (24) at frame 120428 time 452026620
[01:30:08] h264: "Chapter 25" (25) at frame 125861 time 472420710
[01:37:13] reader: done. 1 scr changes
[01:37:15] work: average encoding speed for job is 13.608685 fps
[01:37:16] sync: got 135731 frames, 135730 expected
[01:37:16] decomb: deinterlaced 0 | blended 8 | unfiltered 135722 | total 135730
[01:37:16] render: lost time: 0 (0 frames)
[01:37:16] render: gained time: 0 (0 frames) (0 not accounted for)
[01:37:16] h264-decoder done: 135731 frames, 0 decoder errors, 0 drops
x264 [info]: frame I:1337  Avg QP:16.75  size:172350  PSNR Mean Y:48.54 U:50.43 V:51.56 Avg:48.98 Global:48.66
x264 [info]: frame P:38916 Avg QP:19.67  size: 38338  PSNR Mean Y:46.30 U:50.93 V:52.45 Avg:46.91 Global:46.49
x264 [info]: frame B:95477 Avg QP:21.44  size: 12463  PSNR Mean Y:45.73 U:49.13 V:50.65 Avg:46.33 Global:45.84
x264 [info]: consecutive B-frames:  1.7%  4.9% 26.1% 67.4%
x264 [info]: mb I  I16..4: 36.7% 46.7% 16.6%
x264 [info]: mb P  I16..4:  3.8%  6.3%  0.9%  P16..4: 44.7% 13.0%  8.4%  0.0%  0.0%    skip:22.9%
x264 [info]: mb B  I16..4:  0.5%  0.6%  0.1%  B16..8: 42.3%  2.8%  0.5%  direct: 2.7%  skip:50.5%  L0:43.7% L1:52.4% BI: 3.9%
x264 [info]: 8x8 transform intra:54.0% inter:80.7%
x264 [info]: coded y,uvDC,uvAC intra: 65.2% 71.8% 44.5% inter: 15.7% 24.3% 2.1%
x264 [info]: i16 v,h,dc,p: 30% 18% 30% 22%
x264 [info]: i8 v,h,dc,ddl,ddr,vr,hd,vl,hu: 20% 16% 23%  5%  7%  8%  7%  7%  7%
x264 [info]: i4 v,h,dc,ddl,ddr,vr,hd,vl,hu: 24% 18% 17%  6%  9%  8%  8%  6%  5%
x264 [info]: i8c dc,h,v,p: 59% 17% 20%  5%
x264 [info]: Weighted P-Frames: Y:1.2% UV:0.6%
x264 [info]: ref P L0: 56.1% 10.0% 23.8% 10.0%  0.1%
x264 [info]: ref B L0: 82.8% 13.6%  3.5%
x264 [info]: ref B L1: 92.7%  7.3%
x264 [info]: SSIM Mean Y:0.9830341 (17.704db)
x264 [info]: PSNR Mean Y:45.922 U:49.657 V:51.178 Avg:46.524 Global:46.035 kb/s:4115.57
[01:37:17] mux: track 0, 135730 frames, 2912262664 bytes, 4115.43 kbps, fifo 2048
[01:37:17] mux: track 1, 265366 frames, 113185345 bytes, 159.95 kbps, fifo 4096
[01:37:17] mux: track 2, 176910 frames, 452889600 bytes, 640.00 kbps, fifo 2048
[01:37:17] libhb: work result = 0
Encode done!
HandBrake has exited.
  

User avatar
Rodeo
HandBrake Team
Posts: 12046
Joined: Tue Mar 03, 2009 8:55 pm

Re: AC3 from DTS not correct Builds 4582 thru 4686 maybe mor

Post by Rodeo » Thu May 24, 2012 6:37 pm

nathug wrote:Here is Mr.Poppers Penguins - This is not fine, it sounds flat and thin, and is missing the L&R audio.

Code: Select all

[13:32:26]  * audio track 2
[13:32:26]    + decoder: English (DTS) (5.1 ch) (track 1, id 0x1)
[13:32:26]      + bitrate: 1536 kbps, samplerate: 48000 Hz
[13:32:26]    + mixdown: 6-channel discrete
[13:32:26]    + encoder: AC3 (ffmpeg)
[13:32:26]      + bitrate: 192 kbps, samplerate: 48000 Hz
Not enough bits for decent quality output.

TedJ
Veteran User
Posts: 5388
Joined: Wed Feb 20, 2008 11:25 pm

Re: AC3 from DTS not correct Builds 4582 thru 4686 maybe mor

Post by TedJ » Fri May 25, 2012 7:44 am

Wow, 6-channel at 192 kbps... that would have sounded like liquid ass even with a top tier AC3 encoder.

nathug
Bright Spark User
Posts: 204
Joined: Fri Apr 11, 2008 10:21 pm

Re: AC3 from DTS not correct Builds 4582 thru 4686 maybe mor

Post by nathug » Sun May 27, 2012 12:17 pm

TedJ wrote:Wow, 6-channel at 192 kbps... that would have sounded like liquid ass even with a top tier AC3 encoder.
LOL yes it did!

I see the problem now, the bitrate was way too low. But I wasn't changing anything from the default preset settings, so I guess this was a small bug that's now been fixed? Would that be correct.

Thx Nathan

nathug
Bright Spark User
Posts: 204
Joined: Fri Apr 11, 2008 10:21 pm

Re: AC3 from DTS not correct Builds 4582 thru 4686 maybe mor

Post by nathug » Sun May 27, 2012 12:40 pm

I just took a look at Build 4696, I have 'High Profile' as my main preset. If I load in a video file the AC3 mix down loads up a bitrate of 160. It only changes to 640 if I load the video file, then reselect the 'High Profile' preset and then click on the AC3 line in Handbrake.

This happens in the old style looking Handbrake (I use this as the new one doesn't work too well on my Projector at 720p), in the new style its doesn't show anything.

Post Reply