Handbrake converting my MKV rip to MPV?

HandBrake for Windows support
Forum rules
An Activity Log is required for support requests. Please read How-to get an activity log? for details on how and why this should be provided.
Post Reply
Canadianguy57
Posts: 8
Joined: Wed Feb 10, 2021 4:00 pm

Handbrake converting my MKV rip to MPV?

Post by Canadianguy57 »

Description of problem or question:
Never seen this format before, I thought it would be mp4? I usually use MKV on my tv, but this time at the begining the pic froze. so I'm going to use MP4



Steps to reproduce the problem (If Applicable):




HandBrake version (e.g., 1.0.0):
1.3.3



Operating system and version (e.g., Ubuntu 16.04 LTS, macOS 10.13 High Sierra, Windows 10 Creators Update):
Windows 10 Pro 64bit



HandBrake Activity Log ***required*** (see How-to get an activity log)

Code: Select all

Please replace this text with the contents of your log file between the two code tags - OR -  provide a pastebin URL in place of these 3 lines.
If you are unable to do so, please state why so we can help you.
HandBrake 1.3.3 (2020061300)
OS: Microsoft Windows NT 10.0.19041.0
CPU: AMD Athlon(tm) II X4 640 Processor
Ram: 8189 MB,
GPU Information:
NVIDIA GeForce GT 710 - 27.21.14.6140
Screen: 1600x900
Temp Dir: C:\Users\ste39\AppData\Local\Temp\
Install Dir: C:\Program Files\HandBrake
Data Dir: C:\Users\ste39\AppData\Roaming\HandBrake

-------------------------------------------

[10:06:31] Compile-time hardening features are enabled
[10:06:32] Nvenc version 11.0
[10:07:06] hb_init: starting libhb thread

# Starting Scan ...

[10:07:06] CPU: AMD Athlon(tm) II X4 640 Processor
[10:07:06] - logical processor count: 4
[10:07:06] Intel Quick Sync Video support: no
[10:07:06] hb_scan: path=C:\Users\ste39\Downloads\The Kingdom - MKV BluRay Rip\The Kingdom - MKV BluRay Rip.mkv, title_index=0
udfread ERROR: ECMA 167 Volume Recognition failed
src/libbluray/disc/disc.c:323: failed opening UDF image C:\Users\ste39\Downloads\The Kingdom - MKV BluRay Rip\The Kingdom - MKV BluRay Rip.mkv
src/libbluray/disc/disc.c:424: error opening file BDMV\index.bdmv
src/libbluray/disc/disc.c:424: error opening file BDMV\BACKUP\index.bdmv
src/libbluray/bluray.c:2585: nav_get_title_list(C:\Users\ste39\Downloads\The Kingdom - MKV BluRay Rip\The Kingdom - MKV BluRay Rip.mkv\) failed
[10:07:06] bd: not a bd - trying as a stream/file instead
libdvdnav: Using dvdnav version 6.0.1
libdvdread: Encrypted DVD support unavailable.
libdvdread:DVDOpenFileUDF:UDFFindFile /VIDEO_TS/VIDEO_TS.IFO failed
libdvdread:DVDOpenFileUDF:UDFFindFile /VIDEO_TS/VIDEO_TS.BUP failed
libdvdread: Can't open file VIDEO_TS.IFO.
libdvdnav: vm: failed to read VIDEO_TS.IFO
[10:07:06] dvd: not a dvd - trying as a stream/file instead
Input #0, matroska,webm, from 'C:\Users\ste39\Downloads\The Kingdom - MKV BluRay Rip\The Kingdom - MKV BluRay Rip.mkv':
Metadata:
title : The Kingdom
encoder : libmakemkv v1.15.4 (1.3.10/1.5.2) win(x64-release)
creation_time : 2021-02-16T15:08:41.000000Z
Duration: 01:50:20.99, start: 0.000000, bitrate: 32227 kb/s
Chapter #0:0: start 0.000000, end 233.483250
Metadata:
title : Chapter 01
Chapter #0:1: start 233.483250, end 576.033792
Metadata:
title : Chapter 02
Chapter #0:2: start 576.033792, end 879.253375
Metadata:
title : Chapter 03
Chapter #0:3: start 879.253375, end 1236.818917
Metadata:
title : Chapter 04
Chapter #0:4: start 1236.818917, end 1442.983208
Metadata:
title : Chapter 05
Chapter #0:5: start 1442.983208, end 1779.110667
Metadata:
title : Chapter 06
Chapter #0:6: start 1779.110667, end 2204.368833
Metadata:
title : Chapter 07
Chapter #0:7: start 2204.368833, end 2425.172750
Metadata:
title : Chapter 08
Chapter #0:8: start 2425.172750, end 2718.716000
Metadata:
title : Chapter 09
Chapter #0:9: start 2718.716000, end 3089.586500
Metadata:
title : Chapter 10
Chapter #0:10: start 3089.586500, end 3359.898208
Metadata:
title : Chapter 11
Chapter #0:11: start 3359.898208, end 3589.627708
Metadata:
title : Chapter 12
Chapter #0:12: start 3589.627708, end 4028.858167
Metadata:
title : Chapter 13
Chapter #0:13: start 4028.858167, end 4381.627250
Metadata:
title : Chapter 14
Chapter #0:14: start 4381.627250, end 4716.795417
Metadata:
title : Chapter 15
Chapter #0:15: start 4716.795417, end 5343.087750
Metadata:
title : Chapter 16
Chapter #0:16: start 5343.087750, end 5650.353042
Metadata:
title : Chapter 17
Chapter #0:17: start 5650.353042, end 5922.541625
Metadata:
title : Chapter 18
Chapter #0:18: start 5922.541625, end 6259.294708
Metadata:
title : Chapter 19
Chapter #0:19: start 6259.294708, end 6620.989375
Metadata:
title : Chapter 20
Stream #0:0(eng): Video: vc1 (Advanced) (WVC1 / 0x31435657), yuv420p(progressive), 1920x1080 [SAR 1:1 DAR 16:9], 23.98 fps, 23.98 tbr, 1k tbn, 47.95 tbc
Metadata:
BPS-eng : 28545606
DURATION-eng : 01:50:20.989375000
NUMBER_OF_FRAMES-eng: 158745
NUMBER_OF_BYTES-eng: 23625018447
SOURCE_ID-eng : 001011
_STATISTICS_WRITING_APP-eng: MakeMKV v1.15.4 win(x64-release)
_STATISTICS_WRITING_DATE_UTC-eng: 2021-02-16 15:08:41
_STATISTICS_TAGS-eng: BPS DURATION NUMBER_OF_FRAMES NUMBER_OF_BYTES SOURCE_ID
Stream #0:1(eng): Audio: dts (DTS-HD MA), 48000 Hz, 5.1(side), s32p (24 bit) (default)
Metadata:
title : Surround 5.1
BPS-eng : 3678832
DURATION-eng : 01:50:20.992000000
NUMBER_OF_FRAMES-eng: 620718
NUMBER_OF_BYTES-eng: 3044690272
SOURCE_ID-eng : 001100
_STATISTICS_WRITING_APP-eng: MakeMKV v1.15.4 win(x64-release)
_STATISTICS_WRITING_DATE_UTC-eng: 2021-02-16 15:08:41
_STATISTICS_TAGS-eng: BPS DURATION NUMBER_OF_FRAMES NUMBER_OF_BYTES SOURCE_ID
[10:07:06] scan: decoding previews for title 1
[10:07:06] scan: audio 0x1: dca, rate=48000Hz, bitrate=1 English (DTS-HD MA) (5.1 ch)
[10:07:08] scan: 10 previews, 1920x1080, 23.976 fps, autocrop = 128/136/0/0, aspect 16:9, PAR 1:1
[10:07:08] libhb: scan thread found 1 valid title(s)

# Processing Scan Information ...


# Scan Finished ...
Canadianguy57
Posts: 8
Joined: Wed Feb 10, 2021 4:00 pm

Re: Handbrake converting my MKV rip to MPV?

Post by Canadianguy57 »

I just saw on you tube the guy changes the M4V file to MP4 in the output file. Haven't tried yet but is this right?

Thanks
musicvid
Veteran User
Posts: 3923
Joined: Sat Jun 27, 2009 1:19 am

Re: Handbrake converting my MKV rip to MPV?

Post by musicvid »

.M4V is another extension for .MP4
You can change the default extension naming in your Settings. Or you can edit it by hand.

Handbrake does not produce MPV, whatever that is (typo?).
Post Reply