Black bars top & bottom of source video

HandBrake for Windows support
Forum rules
An Activity Log is required for support requests. Please read How-to get an activity log? for details on how and why this should be provided.
Post Reply
scs1122
Posts: 7
Joined: Sun Jan 03, 2021 8:40 pm

Black bars top & bottom of source video

Post by scs1122 »

[https://pastebin.com/api/api_post.phpb]Description of problem or question:[/b]




Steps to reproduce the problem (If Applicable):




HandBrake version (e.g., 1.0.0):1.3.3




Operating system and version (e.g., Ubuntu 16.04 LTS, macOS 10.13 High Sierra, Windows 10 Creators Update):Windows 10


Code: Select all

HandBrake 1.3.3 (2020061300)
OS: Microsoft Windows NT 10.0.19041.0
CPU: Intel(R) Celeron(R) CPU        E3400  @ 2.60GHz
Ram: 4086 MB, 
GPU Information:
  Intel(R) G33/G31 Express Chipset Family (Microsoft Corporation - WDDM 1.0) - 8.15.10.2697
Screen: 1440x900
Temp Dir: C:\Users\Stephen Smith\AppData\Local\Temp\
Install Dir: C:\Program Files\HandBrake
Data Dir: C:\Users\Stephen Smith\AppData\Roaming\HandBrake
 
-------------------------------------------
 
 
# Starting Encode ...
 
[12:59:12] base preset: scs1122
[12:59:12] hb_init: starting libhb thread
[12:59:12] Starting work at: Thu Dec 31 12:59:12 2020
[12:59:12] 1 job(s) to process
[12:59:12] json job:
{
  "Audio": {
    "AudioList": [
      {
        "DRC": 0.0,
        "Encoder": "copy:aac",
        "Gain": 0.0,
        "Mixdown": -1,
        "NormalizeMixLevel": false,
        "Samplerate": 0,
        "Track": 0,
        "DitherMethod": 0
      }
    ],
    "CopyMask": [
      "copy:aac",
      "copy:ac3",
      "copy:dtshd",
      "copy:dts",
      "copy:eac3",
      "copy:flac",
      "copy:mp3",
      "copy:truehd"
    ],
    "FallbackEncoder": "ac3"
  },
  "Destination": {
    "ChapterList": [],
    "ChapterMarkers": false,
    "AlignAVStart": false,
    "File": "C:\\Users\\Stephen Smith\\Videos\\2 Guns (2013)-1.mkv",
    "Mp4Options": {
      "IpodAtom": false,
      "Mp4Optimize": false
    },
    "Mux": "av_mkv"
  },
  "Filters": {
    "FilterList": [
      {
        "ID": 4,
        "Settings": {
          "mode": "7"
        }
      },
      {
        "ID": 3,
        "Settings": {
          "block-height": "16",
          "block-thresh": "40",
          "block-width": "16",
          "filter-mode": "2",
          "mode": "3",
          "motion-thresh": "1",
          "spatial-metric": "2",
          "spatial-thresh": "1"
        }
      },
      {
        "ID": 8,
        "Settings": {
          "cb-spatial": "2",
          "cb-temporal": "3",
          "cr-spatial": "2",
          "cr-temporal": "3",
          "y-spatial": "3",
          "y-temporal": "2"
        }
      },
      {
        "ID": 7,
        "Settings": {
          "strength": "strong",
          "thresh": "20"
        }
      },
      {
        "ID": 12,
        "Settings": {
          "crop-bottom": "92",
          "crop-left": "0",
          "crop-right": "0",
          "crop-top": "92",
          "height": "536",
          "width": "1280"
        }
      },
      {
        "ID": 6,
        "Settings": {
          "mode": "1"
        }
      }
    ]
  },
  "PAR": {
    "Num": 1,
    "Den": 1
  },
  "Metadata": {},
  "SequenceID": 0,
  "Source": {
    "Angle": 1,
    "Range": {
      "Type": "chapter",
      "Start": 1,
      "End": 1
    },
    "Title": 1,
    "Path": "G:\\My Videos\\Action\\2 Guns (2013)\\2 Guns (2013).mp4"
  },
  "Subtitle": {
    "Search": {
      "Burn": false,
      "Default": false,
      "Enable": false,
      "Forced": false
    },
    "SubtitleList": []
  },
  "Video": {
    "Encoder": "x264",
    "Level": "3.1",
    "TwoPass": false,
    "Turbo": false,
    "ColorMatrixCode": 0,
    "Options": "ref=5:bframes=5",
    "Preset": "veryslow",
    "Profile": "high",
    "Quality": 21.0,
    "Tune": "film",
    "QSV": {
      "Decode": false,
      "AsyncDepth": 0
    }
  }
}
[12:59:12] CPU: Intel(R) Celeron(R) CPU        E3400  @ 2.60GHz
[12:59:12]  - logical processor count: 2
[12:59:12] Intel Quick Sync Video support: no
[12:59:12] hb_scan: path=G:\My Videos\Action\2 Guns (2013)\2 Guns (2013).mp4, title_index=1
udfread ERROR: ECMA 167 Volume Recognition failed
src/libbluray/disc/disc.c:323: failed opening UDF image G:\My Videos\Action\2 Guns (2013)\2 Guns (2013).mp4
src/libbluray/disc/disc.c:424: error opening file BDMV\index.bdmv
src/libbluray/disc/disc.c:424: error opening file BDMV\BACKUP\index.bdmv
src/libbluray/bluray.c:2585: nav_get_title_list(G:\My Videos\Action\2 Guns (2013)\2 Guns (2013).mp4\) failed
[12:59:12] bd: not a bd - trying as a stream/file instead
libdvdnav: Using dvdnav version 6.0.1
libdvdread: Encrypted DVD support unavailable.
libdvdread:DVDOpenFileUDF:UDFFindFile /VIDEO_TS/VIDEO_TS.IFO failed
libdvdread:DVDOpenFileUDF:UDFFindFile /VIDEO_TS/VIDEO_TS.BUP failed
libdvdread: Can't open file VIDEO_TS.IFO.
libdvdnav: vm: failed to read VIDEO_TS.IFO
[12:59:12] dvd: not a dvd - trying as a stream/file instead
Input #0, mov,mp4,m4a,3gp,3g2,mj2, from 'G:\My Videos\Action\2 Guns (2013)\2 Guns (2013).mp4':
  Metadata:
    major_brand     : isom
    minor_version   : 512
    compatible_brands: isomiso2avc1mp41
    encoder         : Lavf55.19.104
    title           : 2 Guns (2013)
  Duration: 01:49:15.40, start: 0.000000, bitrate: 2622 kb/s
    Stream #0:0(und): Video: h264 (Constrained Baseline) (avc1 / 0x31637661), yuv420p, 1280x720 [SAR 1:1 DAR 16:9], 2489 kb/s, 25 fps, 25 tbr, 12800 tbn, 50 tbc (default)
    Metadata:
      handler_name    : VideoHandler
    Stream #0:1(eng): Audio: aac (LC) (mp4a / 0x6134706D), 44100 Hz, stereo, fltp, 127 kb/s (default)
    Metadata:
      handler_name    : SoundHandler
[12:59:13] scan: decoding previews for title 1
[12:59:13] scan: audio 0x1: aac, rate=44100Hz, bitrate=127800 English (AAC LC) (2.0 ch) (127 kbps)
[12:59:13] scan: 10 previews, 1280x720, 25.000 fps, autocrop = 92/92/0/0, aspect 16:9, PAR 1:1
[12:59:13] scan: supported video decoders: avcodec qsv
[12:59:13] libhb: scan thread found 1 valid title(s)
[12:59:13] Starting Task: Encoding Pass
[12:59:13] job configuration:
[12:59:13]  * source
[12:59:13]    + G:\My Videos\Action\2 Guns (2013)\2 Guns (2013).mp4
[12:59:13]    + title 1, chapter(s) 1 to 1
[12:59:13]    + container: mov,mp4,m4a,3gp,3g2,mj2
[12:59:13]    + data rate: 2622 kbps
[12:59:13]  * destination
[12:59:13]    + C:\Users\Stephen Smith\Videos\2 Guns (2013)-1.mkv
[12:59:13]    + container: Matroska (libavformat)
[12:59:13]  * video track
[12:59:13]    + decoder: h264
[12:59:13]      + bitrate 2489 kbps
[12:59:13]    + filters
[12:59:13]      + Comb Detect (mode=3:spatial-metric=2:motion-thresh=1:spatial-thresh=1:filter-mode=2:block-thresh=40:block-width=16:block-height=16)
[12:59:13]      + Decomb (mode=39)
[12:59:13]      + Framerate Shaper (mode=1)
[12:59:13]        + frame rate: 25.000 fps -> constant 25.000 fps
[12:59:13]      + Deblock (strength=strong:thresh=20)
[12:59:13]      + Denoise (hqdn3d) (y-spatial=3:cb-spatial=2:cr-spatial=2:y-temporal=2:cb-temporal=3:cr-temporal=3)
[12:59:13]      + Crop and Scale (width=1280:height=536:crop-top=92:crop-bottom=92:crop-left=0:crop-right=0)
[12:59:13]        + source: 1280 * 720, crop (92/92/0/0): 1280 * 536, scale: 1280 * 536
[12:59:13]    + Output geometry
[12:59:13]      + storage dimensions: 1280 x 536
[12:59:13]      + pixel aspect ratio: 1 : 1
[12:59:13]      + display dimensions: 1280 x 536
[12:59:13]    + encoder: H.264 (libx264)
[12:59:13]      + preset:  veryslow
[12:59:13]      + tune:    film
[12:59:13]      + options: ref=5:bframes=5
[12:59:13]      + profile: high
[12:59:13]      + level:   3.1
[12:59:13]      + quality: 21.00 (RF)
[12:59:13]      + color profile: 1-1-1
[12:59:13]  * audio track 1
[12:59:13]    + decoder: English (AAC LC) (2.0 ch) (127 kbps) (track 1, id 0x1)
[12:59:13]      + bitrate: 127 kbps, samplerate: 44100 Hz
[12:59:13]    + AAC Passthru
[12:59:13] sync: expecting 163885 video frames
[12:59:13] encx264: encoding at constant RF 21.000000
[12:59:13] encx264: unparsed options: ref=5:bframes=5:level=3.1:b-adapt=2:direct=auto:deblock=-1,-1:analyse=all:me=umh:merange=24:subme=10:trellis=2:psy-rd=1,0.15:vbv-bufsize=17500:vbv-maxrate=17500:rc-lookahead=60
x264 [info]: using SAR=1/1
x264 [info]: using cpu capabilities: MMX2 SSE2Fast SSSE3 Cache64
x264 [info]: profile High, level 3.1, 4:2:0, 8-bit
[12:59:13] sync: first pts video is 0
[12:59:13] sync: Chapter 1 at frame 1 time 0
[12:59:13] sync: first pts audio 0x1 is 0
[21:08:53] reader: done. 1 scr changes
[21:08:59] work: average encoding speed for job is 5.576319 fps
[21:08:59] comb detect: heavy 1468 | light 3158 | uncombed 159259 | total 163885
[21:08:59] decomb: deinterlaced 1468 | blended 3158 | unfiltered 159259 | total 163885
[21:08:59] vfr: 163885 frames output, 0 dropped and 0 duped for CFR/PFR
[21:08:59] vfr: lost time: 0 (0 frames)
[21:08:59] vfr: gained time: 0 (0 frames) (0 not accounted for)
[21:09:00] aac-decoder done: 282317 frames, 0 decoder errors
[21:09:00] h264-decoder done: 163885 frames, 0 decoder errors
[21:09:00] sync: got 163885 frames, 163885 expected
[21:09:00] sync: framerate min 25.000 fps, max 25.000 fps, avg 25.000 fps
x264 [info]: frame I:1628  Avg QP:17.10  size: 60181
x264 [info]: frame P:43704 Avg QP:20.80  size: 14066
x264 [info]: frame B:118553 Avg QP:25.48  size:  3117
x264 [info]: consecutive B-frames:  4.1%  4.0%  9.7% 48.2% 18.9% 15.2%
x264 [info]: mb I  I16..4: 11.9% 58.8% 29.2%
x264 [info]: mb P  I16..4:  4.6% 13.2%  1.6%  P16..4: 34.8% 10.0%  7.6%  0.3%  0.1%    skip:27.7%
x264 [info]: mb B  I16..4:  0.4%  1.1%  0.2%  B16..8: 32.9%  4.1%  0.8%  direct: 1.7%  skip:58.8%  L0:44.1% L1:50.3% BI: 5.6%
x264 [info]: 8x8 transform intra:66.4% inter:53.3%
x264 [info]: direct mvs  spatial:99.9% temporal:0.1%
x264 [info]: coded y,uvDC,uvAC intra: 42.7% 44.3% 12.6% inter: 8.3% 6.6% 0.2%
x264 [info]: i16 v,h,dc,p: 35% 26%  7% 32%
x264 [info]: i8 v,h,dc,ddl,ddr,vr,hd,vl,hu: 20% 14% 19%  5%  8%  9%  9%  8%  9%
x264 [info]: i4 v,h,dc,ddl,ddr,vr,hd,vl,hu: 20% 18%  7%  6% 10% 10% 10%  8% 10%
x264 [info]: i8c dc,h,v,p: 42% 28% 20% 10%
x264 [info]: Weighted P-Frames: Y:1.7% UV:0.9%
x264 [info]: ref P L0: 64.4% 10.2% 17.0%  4.4%  3.8%  0.2%  0.0%
x264 [info]: ref B L0: 88.4%  8.8%  2.2%  0.6%
x264 [info]: ref B L1: 97.0%  3.0%
x264 [info]: kb/s:1320.76
[21:09:00] mux: track 0, 163885 frames, 1082200368 bytes, 1320.67 kbps, fifo 4096
[21:09:00] mux: track 1, 282317 frames, 104723093 bytes, 127.80 kbps, fifo 8192
[21:09:00] Finished work at: Thu Dec 31 21:09:00 2020
[21:09:00] libhb: work result = 0
 
# Encode Completed ...
 
# Unable to play sound. Reason: File not found!
 
 
RAW Paste Data
HandBrake 1.3.3 (2020061300)
OS: Microsoft Windows NT 10.0.19041.0
CPU: Intel(R) Celeron(R) CPU        E3400  @ 2.60GHz
Ram: 4086 MB, 
GPU Information:
  Intel(R) G33/G31 Express Chipset Family (Microsoft Corporation - WDDM 1.0) - 8.15.10.2697
Screen: 1440x900
Temp Dir: C:\Users\Stephen Smith\AppData\Local\Temp\
Install Dir: C:\Program Files\HandBrake
Data Dir: C:\Users\Stephen Smith\AppData\Roaming\HandBrake

-------------------------------------------


# Starting Encode ...

[12:59:12] base preset: scs1122
[12:59:12] hb_init: starting libhb thread
[12:59:12] Starting work at: Thu Dec 31 12:59:12 2020
[12:59:12] 1 job(s) to process
[12:59:12] json job:
{
  "Audio": {
    "AudioList": [
      {
        "DRC": 0.0,
        "Encoder": "copy:aac",
        "Gain": 0.0,
        "Mixdown": -1,
        "NormalizeMixLevel": false,
        "Samplerate": 0,
        "Track": 0,
        "DitherMethod": 0
      }
    ],
    "CopyMask": [
      "copy:aac",
      "copy:ac3",
      "copy:dtshd",
      "copy:dts",
      "copy:eac3",
      "copy:flac",
      "copy:mp3",
      "copy:truehd"
    ],
    "FallbackEncoder": "ac3"
  },
  "Destination": {
    "ChapterList": [],
    "ChapterMarkers": false,
    "AlignAVStart": false,
    "File": "C:\\Users\\Stephen Smith\\Videos\\2 Guns (2013)-1.mkv",
    "Mp4Options": {
      "IpodAtom": false,
      "Mp4Optimize": false
    },
    "Mux": "av_mkv"
  },
  "Filters": {
    "FilterList": [
      {
        "ID": 4,
        "Settings": {
          "mode": "7"
        }
      },
      {
        "ID": 3,
        "Settings": {
          "block-height": "16",
          "block-thresh": "40",
          "block-width": "16",
          "filter-mode": "2",
          "mode": "3",
          "motion-thresh": "1",
          "spatial-metric": "2",
          "spatial-thresh": "1"
        }
      },
      {
        "ID": 8,
        "Settings": {
          "cb-spatial": "2",
          "cb-temporal": "3",
          "cr-spatial": "2",
          "cr-temporal": "3",
          "y-spatial": "3",
          "y-temporal": "2"
        }
      },
      {
        "ID": 7,
        "Settings": {
          "strength": "strong",
          "thresh": "20"
        }
      },
      {
        "ID": 12,
        "Settings": {
          "crop-bottom": "92",
          "crop-left": "0",
          "crop-right": "0",
          "crop-top": "92",
          "height": "536",
          "width": "1280"
        }
      },
      {
        "ID": 6,
        "Settings": {
          "mode": "1"
        }
      }
    ]
  },
  "PAR": {
    "Num": 1,
    "Den": 1
  },
  "Metadata": {},
  "SequenceID": 0,
  "Source": {
    "Angle": 1,
    "Range": {
      "Type": "chapter",
      "Start": 1,
      "End": 1
    },
    "Title": 1,
    "Path": "G:\\My Videos\\Action\\2 Guns (2013)\\2 Guns (2013).mp4"
  },
  "Subtitle": {
    "Search": {
      "Burn": false,
      "Default": false,
      "Enable": false,
      "Forced": false
    },
    "SubtitleList": []
  },
  "Video": {
    "Encoder": "x264",
    "Level": "3.1",
    "TwoPass": false,
    "Turbo": false,
    "ColorMatrixCode": 0,
    "Options": "ref=5:bframes=5",
    "Preset": "veryslow",
    "Profile": "high",
    "Quality": 21.0,
    "Tune": "film",
    "QSV": {
      "Decode": false,
      "AsyncDepth": 0
    }
  }
}
[12:59:12] CPU: Intel(R) Celeron(R) CPU        E3400  @ 2.60GHz
[12:59:12]  - logical processor count: 2
[12:59:12] Intel Quick Sync Video support: no
[12:59:12] hb_scan: path=G:\My Videos\Action\2 Guns (2013)\2 Guns (2013).mp4, title_index=1
udfread ERROR: ECMA 167 Volume Recognition failed
src/libbluray/disc/disc.c:323: failed opening UDF image G:\My Videos\Action\2 Guns (2013)\2 Guns (2013).mp4
src/libbluray/disc/disc.c:424: error opening file BDMV\index.bdmv
src/libbluray/disc/disc.c:424: error opening file BDMV\BACKUP\index.bdmv
src/libbluray/bluray.c:2585: nav_get_title_list(G:\My Videos\Action\2 Guns (2013)\2 Guns (2013).mp4\) failed
[12:59:12] bd: not a bd - trying as a stream/file instead
libdvdnav: Using dvdnav version 6.0.1
libdvdread: Encrypted DVD support unavailable.
libdvdread:DVDOpenFileUDF:UDFFindFile /VIDEO_TS/VIDEO_TS.IFO failed
libdvdread:DVDOpenFileUDF:UDFFindFile /VIDEO_TS/VIDEO_TS.BUP failed
libdvdread: Can't open file VIDEO_TS.IFO.
libdvdnav: vm: failed to read VIDEO_TS.IFO
[12:59:12] dvd: not a dvd - trying as a stream/file instead
Input #0, mov,mp4,m4a,3gp,3g2,mj2, from 'G:\My Videos\Action\2 Guns (2013)\2 Guns (2013).mp4':
  Metadata:
    major_brand     : isom
    minor_version   : 512
    compatible_brands: isomiso2avc1mp41
    encoder         : Lavf55.19.104
    title           : 2 Guns (2013)
  Duration: 01:49:15.40, start: 0.000000, bitrate: 2622 kb/s
    Stream #0:0(und): Video: h264 (Constrained Baseline) (avc1 / 0x31637661), yuv420p, 1280x720 [SAR 1:1 DAR 16:9], 2489 kb/s, 25 fps, 25 tbr, 12800 tbn, 50 tbc (default)
    Metadata:
      handler_name    : VideoHandler
    Stream #0:1(eng): Audio: aac (LC) (mp4a / 0x6134706D), 44100 Hz, stereo, fltp, 127 kb/s (default)
    Metadata:
      handler_name    : SoundHandler
[12:59:13] scan: decoding previews for title 1
[12:59:13] scan: audio 0x1: aac, rate=44100Hz, bitrate=127800 English (AAC LC) (2.0 ch) (127 kbps)
[12:59:13] scan: 10 previews, 1280x720, 25.000 fps, autocrop = 92/92/0/0, aspect 16:9, PAR 1:1
[12:59:13] scan: supported video decoders: avcodec qsv
[12:59:13] libhb: scan thread found 1 valid title(s)
[12:59:13] Starting Task: Encoding Pass
[12:59:13] job configuration:
[12:59:13]  * source
[12:59:13]    + G:\My Videos\Action\2 Guns (2013)\2 Guns (2013).mp4
[12:59:13]    + title 1, chapter(s) 1 to 1
[12:59:13]    + container: mov,mp4,m4a,3gp,3g2,mj2
[12:59:13]    + data rate: 2622 kbps
[12:59:13]  * destination
[12:59:13]    + C:\Users\Stephen Smith\Videos\2 Guns (2013)-1.mkv
[12:59:13]    + container: Matroska (libavformat)
[12:59:13]  * video track
[12:59:13]    + decoder: h264
[12:59:13]      + bitrate 2489 kbps
[12:59:13]    + filters
[12:59:13]      + Comb Detect (mode=3:spatial-metric=2:motion-thresh=1:spatial-thresh=1:filter-mode=2:block-thresh=40:block-width=16:block-height=16)
[12:59:13]      + Decomb (mode=39)
[12:59:13]      + Framerate Shaper (mode=1)
[12:59:13]        + frame rate: 25.000 fps -> constant 25.000 fps
[12:59:13]      + Deblock (strength=strong:thresh=20)
[12:59:13]      + Denoise (hqdn3d) (y-spatial=3:cb-spatial=2:cr-spatial=2:y-temporal=2:cb-temporal=3:cr-temporal=3)
[12:59:13]      + Crop and Scale (width=1280:height=536:crop-top=92:crop-bottom=92:crop-left=0:crop-right=0)
[12:59:13]        + source: 1280 * 720, crop (92/92/0/0): 1280 * 536, scale: 1280 * 536
[12:59:13]    + Output geometry
[12:59:13]      + storage dimensions: 1280 x 536
[12:59:13]      + pixel aspect ratio: 1 : 1
[12:59:13]      + display dimensions: 1280 x 536
[12:59:13]    + encoder: H.264 (libx264)
[12:59:13]      + preset:  veryslow
[12:59:13]      + tune:    film
[12:59:13]      + options: ref=5:bframes=5
[12:59:13]      + profile: high
[12:59:13]      + level:   3.1
[12:59:13]      + quality: 21.00 (RF)
[12:59:13]      + color profile: 1-1-1
[12:59:13]  * audio track 1
[12:59:13]    + decoder: English (AAC LC) (2.0 ch) (127 kbps) (track 1, id 0x1)
[12:59:13]      + bitrate: 127 kbps, samplerate: 44100 Hz
[12:59:13]    + AAC Passthru
[12:59:13] sync: expecting 163885 video frames
[12:59:13] encx264: encoding at constant RF 21.000000
[12:59:13] encx264: unparsed options: ref=5:bframes=5:level=3.1:b-adapt=2:direct=auto:deblock=-1,-1:analyse=all:me=umh:merange=24:subme=10:trellis=2:psy-rd=1,0.15:vbv-bufsize=17500:vbv-maxrate=17500:rc-lookahead=60
x264 [info]: using SAR=1/1
x264 [info]: using cpu capabilities: MMX2 SSE2Fast SSSE3 Cache64
x264 [info]: profile High, level 3.1, 4:2:0, 8-bit
[12:59:13] sync: first pts video is 0
[12:59:13] sync: Chapter 1 at frame 1 time 0
[12:59:13] sync: first pts audio 0x1 is 0
[21:08:53] reader: done. 1 scr changes
[21:08:59] work: average encoding speed for job is 5.576319 fps
[21:08:59] comb detect: heavy 1468 | light 3158 | uncombed 159259 | total 163885
[21:08:59] decomb: deinterlaced 1468 | blended 3158 | unfiltered 159259 | total 163885
[21:08:59] vfr: 163885 frames output, 0 dropped and 0 duped for CFR/PFR
[21:08:59] vfr: lost time: 0 (0 frames)
[21:08:59] vfr: gained time: 0 (0 frames) (0 not accounted for)
[21:09:00] aac-decoder done: 282317 frames, 0 decoder errors
[21:09:00] h264-decoder done: 163885 frames, 0 decoder errors
[21:09:00] sync: got 163885 frames, 163885 expected
[21:09:00] sync: framerate min 25.000 fps, max 25.000 fps, avg 25.000 fps
x264 [info]: frame I:1628  Avg QP:17.10  size: 60181
x264 [info]: frame P:43704 Avg QP:20.80  size: 14066
x264 [info]: frame B:118553 Avg QP:25.48  size:  3117
x264 [info]: consecutive B-frames:  4.1%  4.0%  9.7% 48.2% 18.9% 15.2%
x264 [info]: mb I  I16..4: 11.9% 58.8% 29.2%
x264 [info]: mb P  I16..4:  4.6% 13.2%  1.6%  P16..4: 34.8% 10.0%  7.6%  0.3%  0.1%    skip:27.7%
x264 [info]: mb B  I16..4:  0.4%  1.1%  0.2%  B16..8: 32.9%  4.1%  0.8%  direct: 1.7%  skip:58.8%  L0:44.1% L1:50.3% BI: 5.6%
x264 [info]: 8x8 transform intra:66.4% inter:53.3%
x264 [info]: direct mvs  spatial:99.9% temporal:0.1%
x264 [info]: coded y,uvDC,uvAC intra: 42.7% 44.3% 12.6% inter: 8.3% 6.6% 0.2%
x264 [info]: i16 v,h,dc,p: 35% 26%  7% 32%
x264 [info]: i8 v,h,dc,ddl,ddr,vr,hd,vl,hu: 20% 14% 19%  5%  8%  9%  9%  8%  9%
x264 [info]: i4 v,h,dc,ddl,ddr,vr,hd,vl,hu: 20% 18%  7%  6% 10% 10% 10%  8% 10%
x264 [info]: i8c dc,h,v,p: 42% 28% 20% 10%
x264 [info]: Weighted P-Frames: Y:1.7% UV:0.9%
x264 [info]: ref P L0: 64.4% 10.2% 17.0%  4.4%  3.8%  0.2%  0.0%
x264 [info]: ref B L0: 88.4%  8.8%  2.2%  0.6%
x264 [info]: ref B L1: 97.0%  3.0%
x264 [info]: kb/s:1320.76
[21:09:00] mux: track 0, 163885 frames, 1082200368 bytes, 1320.67 kbps, fifo 4096
[21:09:00] mux: track 1, 282317 frames, 104723093 bytes, 127.80 kbps, fifo 8192
[21:09:00] Finished work at: Thu Dec 31 21:09:00 2020
[21:09:00] libhb: work result = 0

# Encode Completed ...

# Unable to play sound. Reason: File not found!

My Pastes
Hand Brake Trouble...
PHP | 1 day ago
Public Pastes
C++ script
C++ | 1 min ago
New Config
YAML | 2 min ago
wallet
Lua | 21 min ago
2021-01-01 00:30:0...
JSON | 24 min ago
2020-12-30 04:30:0...
JSON | 26 min ago
Untitled
Java 5 | 32 min ago
Example Minetest s...
C++ | 57 min ago
Untitled
Lua | 1 hour ago
create new paste / syntax languages / archive / faq / tools / night mode / api / scraping api
privacy statement / cook
HandBrake Activity Log ***required*** (see How-to get an activity log)

Code: Select all

Please replace this text with the contents of your log file between the two code tags - OR -  provide a pastebin URL in place of these 3 lines.
If you are unable to do so, please state why so we can help you.
Last edited by Rodeo on Mon Jan 04, 2021 11:04 pm, edited 1 time in total.
Reason: Logs in between [code][/code] blocks please
Woodstock
Veteran User
Posts: 3939
Joined: Tue Aug 27, 2013 6:39 am

Re: Black bars top & bottom of source video

Post by Woodstock »

Are you asking where they went? Handbrake cropped them off.

Are you asking how to keep them? Turn off auto-crop, and set the crop values to zeros.
scs1122
Posts: 7
Joined: Sun Jan 03, 2021 8:40 pm

Re: Black bars top & bottom of source video

Post by scs1122 »

I thought that Hand Brake HandBrakewas going to remove these black bars at the top & bottom of my source video but that didn't happen. Why, Please help
Woodstock
Veteran User
Posts: 3939
Joined: Tue Aug 27, 2013 6:39 am

Re: Black bars top & bottom of source video

Post by Woodstock »

Your log shows that 92 pixels were cropped off both the top and bottom of the picture. Were there subtitles burned in to the letterbox area on the source? That could cause handbrake to reduce the cropping, but that would usually be an un-even cropping, because the bottom letterbox bar would have more chances of a "subtitle hit" during the initial scan.

Automatic cropping is not perfect; you may have to manually crop.

Not to mention that your playback program is free to insert its own letterboxing to make the picture fit the frame.
scs1122
Posts: 7
Joined: Sun Jan 03, 2021 8:40 pm

When I set cropping to 0 I still have black bars top & bottom just like when it is set at 92

Post by scs1122 »

Code: Select all

OS: Microsoft Windows NT 10.0.19041.0
CPU: Intel(R) Celeron(R) CPU        E3400  @ 2.60GHz
Ram: 4086 MB, 
GPU Information:
  Intel(R) G33/G31 Express Chipset Family (Microsoft Corporation - WDDM 1.0) - 8.15.10.2697
Screen: 1440x900
Temp Dir: C:\Users\Stephan Smith\AppData\Local\Temp\
Install Dir: C:\Program Files\HandBrake
Data Dir: C:\Users\Stephan Smith\AppData\Roaming\HandBrake
 
-------------------------------------------
 
 
# Starting Encode ...
 
[12:59:12] base preset: scs1122
[12:59:12] hb_init: starting libhb thread
[12:59:12] Starting work at: Thu Dec 31 12:59:12 2020
[12:59:12] 1 job(s) to process
[12:59:12] json job:
{
  "Audio": {
    "AudioList": [
      {
        "DRC": 0.0,
        "Encoder": "copy:aac",
        "Gain": 0.0,
        "Mixdown": -1,
        "NormalizeMixLevel": false,
        "Samplerate": 0,
        "Track": 0,
        "DitherMethod": 0
      }
    ],
    "CopyMask": [
      "copy:aac",
      "copy:ac3",
      "copy:dtshd",
      "copy:dts",
      "copy:eac3",
      "copy:flac",
      "copy:mp3",
      "copy:truehd"
    ],
    "FallbackEncoder": "ac3"
  },
  "Destination": {
    "ChapterList": [],
    "ChapterMarkers": false,
    "AlignAVStart": false,
    "File": "C:\\Users\\Stephan Smith\\Videos\\2 Guns (2013)-1.mkv",
    "Mp4Options": {
      "IpodAtom": false,
      "Mp4Optimize": false
    },
    "Mux": "av_mkv"
  },
  "Filters": {
    "FilterList": [
      {
        "ID": 4,
        "Settings": {
          "mode": "7"
        }
      },
      {
        "ID": 3,
        "Settings": {
          "block-height": "16",
          "block-thresh": "40",
          "block-width": "16",
          "filter-mode": "2",
          "mode": "3",
          "motion-thresh": "1",
          "spatial-metric": "2",
          "spatial-thresh": "1"
        }
      },
      {
        "ID": 8,
        "Settings": {
          "cb-spatial": "2",
          "cb-temporal": "3",
          "cr-spatial": "2",
          "cr-temporal": "3",
          "y-spatial": "3",
          "y-temporal": "2"
        }
      },
      {
        "ID": 7,
        "Settings": {
          "strength": "strong",
          "thresh": "20"
        }
      },
      {
        "ID": 12,
        "Settings": {
          "crop-bottom": "92",
          "crop-left": "0",
          "crop-right": "0",
          "crop-top": "92",
          "height": "536",
          "width": "1280"
        }
      },
      {
        "ID": 6,
        "Settings": {
          "mode": "1"
        }
      }
    ]
  },
  "PAR": {
    "Num": 1,
    "Den": 1
  },
  "Metadata": {},
  "SequenceID": 0,
  "Source": {
    "Angle": 1,
    "Range": {
      "Type": "chapter",
      "Start": 1,
      "End": 1
    },
    "Title": 1,
    "Path": "G:\\My Videos\\Action\\2 Guns (2013)\\2 Guns (2013).mp4"
  },
  "Subtitle": {
    "Search": {
      "Burn": false,
      "Default": false,
      "Enable": false,
      "Forced": false
    },
    "SubtitleList": []
  },
  "Video": {
    "Encoder": "x264",
    "Level": "3.1",
    "TwoPass": false,
    "Turbo": false,
    "ColorMatrixCode": 0,
    "Options": "ref=5:bframes=5",
    "Preset": "veryslow",
    "Profile": "high",
    "Quality": 21.0,
    "Tune": "film",
    "QSV": {
      "Decode": false,
      "AsyncDepth": 0
    }
  }
}
[12:59:12] CPU: Intel(R) Celeron(R) CPU        E3400  @ 2.60GHz
[12:59:12]  - logical processor count: 2
[12:59:12] Intel Quick Sync Video support: no
[12:59:12] hb_scan: path=G:\My Videos\Action\2 Guns (2013)\2 Guns (2013).mp4, title_index=1
udfread ERROR: ECMA 167 Volume Recognition failed
src/libbluray/disc/disc.c:323: failed opening UDF image G:\My Videos\Action\2 Guns (2013)\2 Guns (2013).mp4
src/libbluray/disc/disc.c:424: error opening file BDMV\index.bdmv
src/libbluray/disc/disc.c:424: error opening file BDMV\BACKUP\index.bdmv
src/libbluray/bluray.c:2585: nav_get_title_list(G:\My Videos\Action\2 Guns (2013)\2 Guns (2013).mp4\) failed
[12:59:12] bd: not a bd - trying as a stream/file instead
libdvdnav: Using dvdnav version 6.0.1
libdvdread: Encrypted DVD support unavailable.
libdvdread:DVDOpenFileUDF:UDFFindFile /VIDEO_TS/VIDEO_TS.IFO failed
libdvdread:DVDOpenFileUDF:UDFFindFile /VIDEO_TS/VIDEO_TS.BUP failed
libdvdread: Can't open file VIDEO_TS.IFO.
libdvdnav: vm: failed to read VIDEO_TS.IFO
[12:59:12] dvd: not a dvd - trying as a stream/file instead
Input #0, mov,mp4,m4a,3gp,3g2,mj2, from 'G:\My Videos\Action\2 Guns (2013)\2 Guns (2013).mp4':
  Metadata:
    major_brand     : isom
    minor_version   : 512
    compatible_brands: isomiso2avc1mp41
    encoder         : Lavf55.19.104
    title           : 2 Guns (2013)
  Duration: 01:49:15.40, start: 0.000000, bitrate: 2622 kb/s
    Stream #0:0(und): Video: h264 (Constrained Baseline) (avc1 / 0x31637661), yuv420p, 1280x720 [SAR 1:1 DAR 16:9], 2489 kb/s, 25 fps, 25 tbr, 12800 tbn, 50 tbc (default)
    Metadata:
      handler_name    : VideoHandler
    Stream #0:1(eng): Audio: aac (LC) (mp4a / 0x6134706D), 44100 Hz, stereo, fltp, 127 kb/s (default)
    Metadata:
      handler_name    : SoundHandler
[12:59:13] scan: decoding previews for title 1
[12:59:13] scan: audio 0x1: aac, rate=44100Hz, bitrate=127800 English (AAC LC) (2.0 ch) (127 kbps)
[12:59:13] scan: 10 previews, 1280x720, 25.000 fps, autocrop = 92/92/0/0, aspect 16:9, PAR 1:1
[12:59:13] scan: supported video decoders: avcodec qsv
[12:59:13] libhb: scan thread found 1 valid title(s)
[12:59:13] Starting Task: Encoding Pass
[12:59:13] job configuration:
[12:59:13]  * source
[12:59:13]    + G:\My Videos\Action\2 Guns (2013)\2 Guns (2013).mp4
[12:59:13]    + title 1, chapter(s) 1 to 1
[12:59:13]    + container: mov,mp4,m4a,3gp,3g2,mj2
[12:59:13]    + data rate: 2622 kbps
[12:59:13]  * destination
[12:59:13]    + C:\Users\Stephan Smith\Videos\2 Guns (2013)-1.mkv
[12:59:13]    + container: Matroska (libavformat)
[12:59:13]  * video track
[12:59:13]    + decoder: h264
[12:59:13]      + bitrate 2489 kbps
[12:59:13]    + filters
[12:59:13]      + Comb Detect (mode=3:spatial-metric=2:motion-thresh=1:spatial-thresh=1:filter-mode=2:block-thresh=40:block-width=16:block-height=16)
[12:59:13]      + Decomb (mode=39)
[12:59:13]      + Framerate Shaper (mode=1)
[12:59:13]        + frame rate: 25.000 fps -> constant 25.000 fps
[12:59:13]      + Deblock (strength=strong:thresh=20)
[12:59:13]      + Denoise (hqdn3d) (y-spatial=3:cb-spatial=2:cr-spatial=2:y-temporal=2:cb-temporal=3:cr-temporal=3)
[12:59:13]      + Crop and Scale (width=1280:height=536:crop-top=92:crop-bottom=92:crop-left=0:crop-right=0)
[12:59:13]        + source: 1280 * 720, crop (92/92/0/0): 1280 * 536, scale: 1280 * 536
[12:59:13]    + Output geometry
[12:59:13]      + storage dimensions: 1280 x 536
[12:59:13]      + pixel aspect ratio: 1 : 1
[12:59:13]      + display dimensions: 1280 x 536
[12:59:13]    + encoder: H.264 (libx264)
[12:59:13]      + preset:  veryslow
[12:59:13]      + tune:    film
[12:59:13]      + options: ref=5:bframes=5
[12:59:13]      + profile: high
[12:59:13]      + level:   3.1
[12:59:13]      + quality: 21.00 (RF)
[12:59:13]      + color profile: 1-1-1
[12:59:13]  * audio track 1
[12:59:13]    + decoder: English (AAC LC) (2.0 ch) (127 kbps) (track 1, id 0x1)
[12:59:13]      + bitrate: 127 kbps, samplerate: 44100 Hz
[12:59:13]    + AAC Passthru
[12:59:13] sync: expecting 163885 video frames
[12:59:13] encx264: encoding at constant RF 21.000000
[12:59:13] encx264: unparsed options: ref=5:bframes=5:level=3.1:b-adapt=2:direct=auto:deblock=-1,-1:analyse=all:me=umh:merange=24:subme=10:trellis=2:psy-rd=1,0.15:vbv-bufsize=17500:vbv-maxrate=17500:rc-lookahead=60
x264 [info]: using SAR=1/1
x264 [info]: using cpu capabilities: MMX2 SSE2Fast SSSE3 Cache64
x264 [info]: profile High, level 3.1, 4:2:0, 8-bit
[12:59:13] sync: first pts video is 0
[12:59:13] sync: Chapter 1 at frame 1 time 0
[12:59:13] sync: first pts audio 0x1 is 0
[21:08:53] reader: done. 1 scr changes
[21:08:59] work: average encoding speed for job is 5.576319 fps
[21:08:59] comb detect: heavy 1468 | light 3158 | uncombed 159259 | total 163885
[21:08:59] decomb: deinterlaced 1468 | blended 3158 | unfiltered 159259 | total 163885
[21:08:59] vfr: 163885 frames output, 0 dropped and 0 duped for CFR/PFR
[21:08:59] vfr: lost time: 0 (0 frames)
[21:08:59] vfr: gained time: 0 (0 frames) (0 not accounted for)
[21:09:00] aac-decoder done: 282317 frames, 0 decoder errors
[21:09:00] h264-decoder done: 163885 frames, 0 decoder errors
[21:09:00] sync: got 163885 frames, 163885 expected
[21:09:00] sync: framerate min 25.000 fps, max 25.000 fps, avg 25.000 fps
x264 [info]: frame I:1628  Avg QP:17.10  size: 60181
x264 [info]: frame P:43704 Avg QP:20.80  size: 14066
x264 [info]: frame B:118553 Avg QP:25.48  size:  3117
x264 [info]: consecutive B-frames:  4.1%  4.0%  9.7% 48.2% 18.9% 15.2%
x264 [info]: mb I  I16..4: 11.9% 58.8% 29.2%
x264 [info]: mb P  I16..4:  4.6% 13.2%  1.6%  P16..4: 34.8% 10.0%  7.6%  0.3%  0.1%    skip:27.7%
x264 [info]: mb B  I16..4:  0.4%  1.1%  0.2%  B16..8: 32.9%  4.1%  0.8%  direct: 1.7%  skip:58.8%  L0:44.1% L1:50.3% BI: 5.6%
x264 [info]: 8x8 transform intra:66.4% inter:53.3%
x264 [info]: direct mvs  spatial:99.9% temporal:0.1%
x264 [info]: coded y,uvDC,uvAC intra: 42.7% 44.3% 12.6% inter: 8.3% 6.6% 0.2%
x264 [info]: i16 v,h,dc,p: 35% 26%  7% 32%
x264 [info]: i8 v,h,dc,ddl,ddr,vr,hd,vl,hu: 20% 14% 19%  5%  8%  9%  9%  8%  9%
x264 [info]: i4 v,h,dc,ddl,ddr,vr,hd,vl,hu: 20% 18%  7%  6% 10% 10% 10%  8% 10%
x264 [info]: i8c dc,h,v,p: 42% 28% 20% 10%
x264 [info]: Weighted P-Frames: Y:1.7% UV:0.9%
x264 [info]: ref P L0: 64.4% 10.2% 17.0%  4.4%  3.8%  0.2%  0.0%
x264 [info]: ref B L0: 88.4%  8.8%  2.2%  0.6%
x264 [info]: ref B L1: 97.0%  3.0%
x264 [info]: kb/s:1320.76
[21:09:00] mux: track 0, 163885 frames, 1082200368 bytes, 1320.67 kbps, fifo 4096
[21:09:00] mux: track 1, 282317 frames, 104723093 bytes, 127.80 kbps, fifo 8192
[21:09:00] Finished work at: Thu Dec 31 21:09:00 2020
[21:09:00] libhb: work result = 0
 
# Encode Completed ...
 
# Unable to play sound. Reason: File not found!
 
 
RAW Paste Data
HandBrake 1.3.3 (2020061300)
OS: Microsoft Windows NT 10.0.19041.0
CPU: Intel(R) Celeron(R) CPU        E3400  @ 2.60GHz
Ram: 4086 MB, 
GPU Information:
  Intel(R) G33/G31 Express Chipset Family (Microsoft Corporation - WDDM 1.0) - 8.15.10.2697
Screen: 1440x900
Temp Dir: C:\Users\Stephan Smith\AppData\Local\Temp\
Install Dir: C:\Program Files\HandBrake
Data Dir: C:\Users\Stephan Smith\AppData\Roaming\HandBrake

-------------------------------------------


# Starting Encode ...

[12:59:12] base preset: scs1122
[12:59:12] hb_init: starting libhb thread
[12:59:12] Starting work at: Thu Dec 31 12:59:12 2020
[12:59:12] 1 job(s) to process
[12:59:12] json job:
{
  "Audio": {
    "AudioList": [
      {
        "DRC": 0.0,
        "Encoder": "copy:aac",
        "Gain": 0.0,
        "Mixdown": -1,
        "NormalizeMixLevel": false,
        "Samplerate": 0,
        "Track": 0,
        "DitherMethod": 0
      }
    ],
    "CopyMask": [
      "copy:aac",
      "copy:ac3",
      "copy:dtshd",
      "copy:dts",
      "copy:eac3",
      "copy:flac",
      "copy:mp3",
      "copy:truehd"
    ],
    "FallbackEncoder": "ac3"
  },
  "Destination": {
    "ChapterList": [],
    "ChapterMarkers": false,
    "AlignAVStart": false,
    "File": "C:\\Users\\Stephan Smith\\Videos\\2 Guns (2013)-1.mkv",
    "Mp4Options": {
      "IpodAtom": false,
      "Mp4Optimize": false
    },
    "Mux": "av_mkv"
  },
  "Filters": {
    "FilterList": [
      {
        "ID": 4,
        "Settings": {
          "mode": "7"
        }
      },
      {
        "ID": 3,
        "Settings": {
          "block-height": "16",
          "block-thresh": "40",
          "block-width": "16",
          "filter-mode": "2",
          "mode": "3",
          "motion-thresh": "1",
          "spatial-metric": "2",
          "spatial-thresh": "1"
        }
      },
      {
        "ID": 8,
        "Settings": {
          "cb-spatial": "2",
          "cb-temporal": "3",
          "cr-spatial": "2",
          "cr-temporal": "3",
          "y-spatial": "3",
          "y-temporal": "2"
        }
      },
      {
        "ID": 7,
        "Settings": {
          "strength": "strong",
          "thresh": "20"
        }
      },
      {
        "ID": 12,
        "Settings": {
          "crop-bottom": "92",
          "crop-left": "0",
          "crop-right": "0",
          "crop-top": "92",
          "height": "536",
          "width": "1280"
        }
      },
      {
        "ID": 6,
        "Settings": {
          "mode": "1"
        }
      }
    ]
  },
  "PAR": {
    "Num": 1,
    "Den": 1
  },
  "Metadata": {},
  "SequenceID": 0,
  "Source": {
    "Angle": 1,
    "Range": {
      "Type": "chapter",
      "Start": 1,
      "End": 1
    },
    "Title": 1,
    "Path": "G:\\My Videos\\Action\\2 Guns (2013)\\2 Guns (2013).mp4"
  },
  "Subtitle": {
    "Search": {
      "Burn": false,
      "Default": false,
      "Enable": false,
      "Forced": false
    },
    "SubtitleList": []
  },
  "Video": {
    "Encoder": "x264",
    "Level": "3.1",
    "TwoPass": false,
    "Turbo": false,
    "ColorMatrixCode": 0,
    "Options": "ref=5:bframes=5",
    "Preset": "veryslow",
    "Profile": "high",
    "Quality": 21.0,
    "Tune": "film",
    "QSV": {
      "Decode": false,
      "AsyncDepth": 0
    }
  }
}
[12:59:12] CPU: Intel(R) Celeron(R) CPU        E3400  @ 2.60GHz
[12:59:12]  - logical processor count: 2
[12:59:12] Intel Quick Sync Video support: no
[12:59:12] hb_scan: path=G:\My Videos\Action\2 Guns (2013)\2 Guns (2013).mp4, title_index=1
udfread ERROR: ECMA 167 Volume Recognition failed
src/libbluray/disc/disc.c:323: failed opening UDF image G:\My Videos\Action\2 Guns (2013)\2 Guns (2013).mp4
src/libbluray/disc/disc.c:424: error opening file BDMV\index.bdmv
src/libbluray/disc/disc.c:424: error opening file BDMV\BACKUP\index.bdmv
src/libbluray/bluray.c:2585: nav_get_title_list(G:\My Videos\Action\2 Guns (2013)\2 Guns (2013).mp4\) failed
[12:59:12] bd: not a bd - trying as a stream/file instead
libdvdnav: Using dvdnav version 6.0.1
libdvdread: Encrypted DVD support unavailable.
libdvdread:DVDOpenFileUDF:UDFFindFile /VIDEO_TS/VIDEO_TS.IFO failed
libdvdread:DVDOpenFileUDF:UDFFindFile /VIDEO_TS/VIDEO_TS.BUP failed
libdvdread: Can't open file VIDEO_TS.IFO.
libdvdnav: vm: failed to read VIDEO_TS.IFO
[12:59:12] dvd: not a dvd - trying as a stream/file instead
Input #0, mov,mp4,m4a,3gp,3g2,mj2, from 'G:\My Videos\Action\2 Guns (2013)\2 Guns (2013).mp4':
  Metadata:
    major_brand     : isom
    minor_version   : 512
    compatible_brands: isomiso2avc1mp41
    encoder         : Lavf55.19.104
    title           : 2 Guns (2013)
  Duration: 01:49:15.40, start: 0.000000, bitrate: 2622 kb/s
    Stream #0:0(und): Video: h264 (Constrained Baseline) (avc1 / 0x31637661), yuv420p, 1280x720 [SAR 1:1 DAR 16:9], 2489 kb/s, 25 fps, 25 tbr, 12800 tbn, 50 tbc (default)
    Metadata:
      handler_name    : VideoHandler
    Stream #0:1(eng): Audio: aac (LC) (mp4a / 0x6134706D), 44100 Hz, stereo, fltp, 127 kb/s (default)
    Metadata:
      handler_name    : SoundHandler
[12:59:13] scan: decoding previews for title 1
[12:59:13] scan: audio 0x1: aac, rate=44100Hz, bitrate=127800 English (AAC LC) (2.0 ch) (127 kbps)
[12:59:13] scan: 10 previews, 1280x720, 25.000 fps, autocrop = 92/92/0/0, aspect 16:9, PAR 1:1
[12:59:13] scan: supported video decoders: avcodec qsv
[12:59:13] libhb: scan thread found 1 valid title(s)
[12:59:13] Starting Task: Encoding Pass
[12:59:13] job configuration:
[12:59:13]  * source
[12:59:13]    + G:\My Videos\Action\2 Guns (2013)\2 Guns (2013).mp4
[12:59:13]    + title 1, chapter(s) 1 to 1
[12:59:13]    + container: mov,mp4,m4a,3gp,3g2,mj2
[12:59:13]    + data rate: 2622 kbps
[12:59:13]  * destination
[12:59:13]    + C:\Users\Stephan Smith\Videos\2 Guns (2013)-1.mkv
[12:59:13]    + container: Matroska (libavformat)
[12:59:13]  * video track
[12:59:13]    + decoder: h264
[12:59:13]      + bitrate 2489 kbps
[12:59:13]    + filters
[12:59:13]      + Comb Detect (mode=3:spatial-metric=2:motion-thresh=1:spatial-thresh=1:filter-mode=2:block-thresh=40:block-width=16:block-height=16)
[12:59:13]      + Decomb (mode=39)
[12:59:13]      + Framerate Shaper (mode=1)
[12:59:13]        + frame rate: 25.000 fps -> constant 25.000 fps
[12:59:13]      + Deblock (strength=strong:thresh=20)
[12:59:13]      + Denoise (hqdn3d) (y-spatial=3:cb-spatial=2:cr-spatial=2:y-temporal=2:cb-temporal=3:cr-temporal=3)
[12:59:13]      + Crop and Scale (width=1280:height=536:crop-top=92:crop-bottom=92:crop-left=0:crop-right=0)
[12:59:13]        + source: 1280 * 720, crop (92/92/0/0): 1280 * 536, scale: 1280 * 536
[12:59:13]    + Output geometry
[12:59:13]      + storage dimensions: 1280 x 536
[12:59:13]      + pixel aspect ratio: 1 : 1
[12:59:13]      + display dimensions: 1280 x 536
[12:59:13]    + encoder: H.264 (libx264)
[12:59:13]      + preset:  veryslow
[12:59:13]      + tune:    film
[12:59:13]      + options: ref=5:bframes=5
[12:59:13]      + profile: high
[12:59:13]      + level:   3.1
[12:59:13]      + quality: 21.00 (RF)
[12:59:13]      + color profile: 1-1-1
[12:59:13]  * audio track 1
[12:59:13]    + decoder: English (AAC LC) (2.0 ch) (127 kbps) (track 1, id 0x1)
[12:59:13]      + bitrate: 127 kbps, samplerate: 44100 Hz
[12:59:13]    + AAC Passthru
[12:59:13] sync: expecting 163885 video frames
[12:59:13] encx264: encoding at constant RF 21.000000
[12:59:13] encx264: unparsed options: ref=5:bframes=5:level=3.1:b-adapt=2:direct=auto:deblock=-1,-1:analyse=all:me=umh:merange=24:subme=10:trellis=2:psy-rd=1,0.15:vbv-bufsize=17500:vbv-maxrate=17500:rc-lookahead=60
x264 [info]: using SAR=1/1
x264 [info]: using cpu capabilities: MMX2 SSE2Fast SSSE3 Cache64
x264 [info]: profile High, level 3.1, 4:2:0, 8-bit
[12:59:13] sync: first pts video is 0
[12:59:13] sync: Chapter 1 at frame 1 time 0
[12:59:13] sync: first pts audio 0x1 is 0
[21:08:53] reader: done. 1 scr changes
[21:08:59] work: average encoding speed for job is 5.576319 fps
[21:08:59] comb detect: heavy 1468 | light 3158 | uncombed 159259 | total 163885
[21:08:59] decomb: deinterlaced 1468 | blended 3158 | unfiltered 159259 | total 163885
[21:08:59] vfr: 163885 frames output, 0 dropped and 0 duped for CFR/PFR
[21:08:59] vfr: lost time: 0 (0 frames)
[21:08:59] vfr: gained time: 0 (0 frames) (0 not accounted for)
[21:09:00] aac-decoder done: 282317 frames, 0 decoder errors
[21:09:00] h264-decoder done: 163885 frames, 0 decoder errors
[21:09:00] sync: got 163885 frames, 163885 expected
[21:09:00] sync: framerate min 25.000 fps, max 25.000 fps, avg 25.000 fps
x264 [info]: frame I:1628  Avg QP:17.10  size: 60181
x264 [info]: frame P:43704 Avg QP:20.80  size: 14066
x264 [info]: frame B:118553 Avg QP:25.48  size:  3117
x264 [info]: consecutive B-frames:  4.1%  4.0%  9.7% 48.2% 18.9% 15.2%
x264 [info]: mb I  I16..4: 11.9% 58.8% 29.2%
x264 [info]: mb P  I16..4:  4.6% 13.2%  1.6%  P16..4: 34.8% 10.0%  7.6%  0.3%  0.1%    skip:27.7%
x264 [info]: mb B  I16..4:  0.4%  1.1%  0.2%  B16..8: 32.9%  4.1%  0.8%  direct: 1.7%  skip:58.8%  L0:44.1% L1:50.3% BI: 5.6%
x264 [info]: 8x8 transform intra:66.4% inter:53.3%
x264 [info]: direct mvs  spatial:99.9% temporal:0.1%
x264 [info]: coded y,uvDC,uvAC intra: 42.7% 44.3% 12.6% inter: 8.3% 6.6% 0.2%
x264 [info]: i16 v,h,dc,p: 35% 26%  7% 32%
x264 [info]: i8 v,h,dc,ddl,ddr,vr,hd,vl,hu: 20% 14% 19%  5%  8%  9%  9%  8%  9%
x264 [info]: i4 v,h,dc,ddl,ddr,vr,hd,vl,hu: 20% 18%  7%  6% 10% 10% 10%  8% 10%
x264 [info]: i8c dc,h,v,p: 42% 28% 20% 10%
x264 [info]: Weighted P-Frames: Y:1.7% UV:0.9%
x264 [info]: ref P L0: 64.4% 10.2% 17.0%  4.4%  3.8%  0.2%  0.0%
x264 [info]: ref B L0: 88.4%  8.8%  2.2%  0.6%
x264 [info]: ref B L1: 97.0%  3.0%
x264 [info]: kb/s:1320.76
[21:09:00] mux: track 0, 163885 frames, 1082200368 bytes, 1320.67 kbps, fifo 4096
[21:09:00] mux: track 1, 282317 frames, 104723093 bytes, 127.80 kbps, fifo 8192
[21:09:00] Finished work at: Thu Dec 31 21:09:00 2020
[21:09:00] libhb: work result = 0

# Encode Completed ...

# Unable to play sound. Reason: File not found!

My Pastes
Hand Brake Trouble...
PHP | 2 days ago
Public Pastes
227k FRANCE HQ COM...
Bash | 58 sec ago
15k USA VALID Mail...
Bash | 1 min ago
20k Good HQ Valide...
Bash | 2 min ago
firAgain
Java | 4 min ago
BAIXAR MINECRAFT-P...
Bash | 26 min ago
Lista remota latin...
C# | 28 min ago
NUEVA LISTA REMOTA...
Bash | 29 min ago
Enlaces de Listas...
Bash | 32 min ago
create new paste / syntax languages / archive / faq / tools / night mode / api / scraping api
privacy statement / cookies policy / terms of serviceupdated / security disclosure / dmca / report abuse / contact

By using Pastebin.com you agree to our cookies policy to enhance your experience.
Site design & logo © 2021 Pastebin
Last edited by Rodeo on Thu Jan 07, 2021 12:23 am, edited 1 time in total.
Reason: Logs in between [code][/code] blocks please
scs1122
Posts: 7
Joined: Sun Jan 03, 2021 8:40 pm

When I set cropping to 0 I still have black bars top & bottom just like when it is set at 92

Post by scs1122 »

Code: Select all

OS: Microsoft Windows NT 10.0.19041.0
CPU: Intel(R) Celeron(R) CPU        E3400  @ 2.60GHz
Ram: 4086 MB, 
GPU Information:
  Intel(R) G33/G31 Express Chipset Family (Microsoft Corporation - WDDM 1.0) - 8.15.10.2697
Screen: 1440x900
Temp Dir: C:\Users\Stephan Smith\AppData\Local\Temp\
Install Dir: C:\Program Files\HandBrake
Data Dir: C:\Users\Stephan Smith\AppData\Roaming\HandBrake

-------------------------------------------


# Starting Encode ...

[03:03:49] base preset: scs1122
[15:03:49] hb_init: starting libhb thread
[15:03:49] Starting work at: Mon Jan 04 15:03:49 2021
[15:03:49] 1 job(s) to process
[15:03:49] json job:
{
  "Audio": {
    "AudioList": [
      {
        "DRC": 0.0,
        "Encoder": "copy:aac",
        "Gain": 0.0,
        "Mixdown": -1,
        "NormalizeMixLevel": false,
        "Samplerate": 0,
        "Track": 0,
        "DitherMethod": 0
      }
    ],
    "CopyMask": [
      "copy:aac",
      "copy:ac3",
      "copy:dtshd",
      "copy:dts",
      "copy:eac3",
      "copy:flac",
      "copy:mp3",
      "copy:truehd"
    ],
    "FallbackEncoder": "ac3"
  },
  "Destination": {
    "ChapterList": [],
    "ChapterMarkers": false,
    "AlignAVStart": false,
    "File": "C:\\Users\\Stephan Smith\\Videos\\3 Days To Kill (2014)-1.mkv",
    "Mp4Options": {
      "IpodAtom": false,
      "Mp4Optimize": false
    },
    "Mux": "av_mkv"
  },
  "Filters": {
    "FilterList": [
      {
        "ID": 4,
        "Settings": {
          "mode": "7"
        }
      },
      {
        "ID": 3,
        "Settings": {
          "block-height": "16",
          "block-thresh": "40",
          "block-width": "16",
          "filter-mode": "2",
          "mode": "3",
          "motion-thresh": "1",
          "spatial-metric": "2",
          "spatial-thresh": "1"
        }
      },
      {
        "ID": 8,
        "Settings": {
          "cb-spatial": "2",
          "cb-temporal": "3",
          "cr-spatial": "2",
          "cr-temporal": "3",
          "y-spatial": "3",
          "y-temporal": "2"
        }
      },
      {
        "ID": 7,
        "Settings": {
          "strength": "strong",
          "thresh": "20"
        }
      },
      {
        "ID": 12,
        "Settings": {
          "crop-bottom": "0",
          "crop-left": "0",
          "crop-right": "0",
          "crop-top": "0",
          "height": "536",
          "width": "1280"
        }
      },
      {
        "ID": 6,
        "Settings": {
          "mode": "1"
        }
      }
    ]
  },
  "PAR": {
    "Num": 1,
    "Den": 1
  },
  "Metadata": {},
  "SequenceID": 0,
  "Source": {
    "Angle": 1,
    "Range": {
      "Type": "chapter",
      "Start": 1,
      "End": 1
    },
    "Title": 1,
    "Path": "G:\\My Videos\\Action\\3 Days To Kill (2014)\\3 Days To Kill (2014).mp4"
  },
  "Subtitle": {
    "Search": {
      "Burn": false,
      "Default": false,
      "Enable": false,
      "Forced": false
    },
    "SubtitleList": []
  },
  "Video": {
    "Encoder": "x264",
    "Level": "3.1",
    "TwoPass": false,
    "Turbo": false,
    "ColorMatrixCode": 0,
    "Options": "ref=5:bframes=5",
    "Preset": "veryslow",
    "Profile": "high",
    "Quality": 21.0,
    "Tune": "film",
    "QSV": {
      "Decode": false,
      "AsyncDepth": 0
    }
  }
}
[15:03:49] CPU: Intel(R) Celeron(R) CPU        E3400  @ 2.60GHz
[15:03:49]  - logical processor count: 2
[15:03:49] Intel Quick Sync Video support: no
[15:03:49] hb_scan: path=G:\My Videos\Action\3 Days To Kill (2014)\3 Days To Kill (2014).mp4, title_index=1
udfread ERROR: ECMA 167 Volume Recognition failed
src/libbluray/disc/disc.c:323: failed opening UDF image G:\My Videos\Action\3 Days To Kill (2014)\3 Days To Kill (2014).mp4
src/libbluray/disc/disc.c:424: error opening file BDMV\index.bdmv
src/libbluray/disc/disc.c:424: error opening file BDMV\BACKUP\index.bdmv
src/libbluray/bluray.c:2585: nav_get_title_list(G:\My Videos\Action\3 Days To Kill (2014)\3 Days To Kill (2014).mp4\) failed
[15:03:49] bd: not a bd - trying as a stream/file instead
libdvdnav: Using dvdnav version 6.0.1
libdvdread: Encrypted DVD support unavailable.
libdvdread:DVDOpenFileUDF:UDFFindFile /VIDEO_TS/VIDEO_TS.IFO failed
libdvdread:DVDOpenFileUDF:UDFFindFile /VIDEO_TS/VIDEO_TS.BUP failed
libdvdread: Can't open file VIDEO_TS.IFO.
libdvdnav: vm: failed to read VIDEO_TS.IFO
[15:03:49] dvd: not a dvd - trying as a stream/file instead
Input #0, mov,mp4,m4a,3gp,3g2,mj2, from 'G:\My Videos\Action\3 Days To Kill (2014)\3 Days To Kill (2014).mp4':
  Metadata:
    major_brand     : isom
    minor_version   : 1
    compatible_brands: isomavc1
    creation_time   : 2014-05-07T00:06:33.000000Z
  Duration: 02:02:18.86, start: 0.000000, bitrate: 992 kb/s
    Stream #0:0(und): Video: h264 (High) (avc1 / 0x31637661), yuv420p(tv, bt709/bt709/unknown), 1280x536 [SAR 1:1 DAR 160:67], 894 kb/s, 23.98 fps, 23.98 tbr, 24k tbn, 47.95 tbc (default)
    Metadata:
      creation_time   : 2014-05-07T00:06:33.000000Z
      handler_name    : video.264#trackID=1:fps=23.976 - Imported with GPAC 0.5.0-rev4065
    Stream #0:1(eng): Audio: aac (LC) (mp4a / 0x6134706D), 48000 Hz, stereo, fltp, 93 kb/s (default)
    Metadata:
      creation_time   : 2014-05-07T00:06:39.000000Z
      handler_name    : GPAC ISO Audio Handler
[15:03:49] scan: decoding previews for title 1
[15:03:50] scan: audio 0x1: aac, rate=48000Hz, bitrate=93809 English (AAC LC) (2.0 ch) (93 kbps)
[15:03:50] scan: 10 previews, 1280x536, 23.976 fps, autocrop = 0/0/0/0, aspect 2.39:1, PAR 1:1
[15:03:50] scan: supported video decoders: avcodec qsv
[15:03:50] libhb: scan thread found 1 valid title(s)
[15:03:50] Starting Task: Encoding Pass
[15:03:50] Skipping crop/scale filter
[15:03:51] job configuration:
[15:03:51]  * source
[15:03:51]    + G:\My Videos\Action\3 Days To Kill (2014)\3 Days To Kill (2014).mp4
[15:03:51]    + title 1, chapter(s) 1 to 1
[15:03:51]    + container: mov,mp4,m4a,3gp,3g2,mj2
[15:03:51]    + data rate: 992 kbps
[15:03:51]  * destination
[15:03:51]    + C:\Users\Stephan Smith\Videos\3 Days To Kill (2014)-1.mkv
[15:03:51]    + container: Matroska (libavformat)
[15:03:51]  * video track
[15:03:51]    + decoder: h264
[15:03:51]      + bitrate 894 kbps
[15:03:51]    + filters
[15:03:51]      + Comb Detect (mode=3:spatial-metric=2:motion-thresh=1:spatial-thresh=1:filter-mode=2:block-thresh=40:block-width=16:block-height=16)
[15:03:51]      + Decomb (mode=39)
[15:03:51]      + Framerate Shaper (mode=1)
[15:03:51]        + frame rate: 23.976 fps -> constant 23.976 fps
[15:03:51]      + Deblock (strength=strong:thresh=20)
[15:03:51]      + Denoise (hqdn3d) (y-spatial=3:cb-spatial=2:cr-spatial=2:y-temporal=2:cb-temporal=3:cr-temporal=3)
[15:03:51]    + Output geometry
[15:03:51]      + storage dimensions: 1280 x 536
[15:03:51]      + pixel aspect ratio: 1 : 1
[15:03:51]      + display dimensions: 1280 x 536
[15:03:51]    + encoder: H.264 (libx264)
[15:03:51]      + preset:  veryslow
[15:03:51]      + tune:    film
[15:03:51]      + options: ref=5:bframes=5
[15:03:51]      + profile: high
[15:03:51]      + level:   3.1
[15:03:51]      + quality: 21.00 (RF)
[15:03:51]      + color profile: 1-1-1
[15:03:51]  * audio track 1
[15:03:51]    + decoder: English (AAC LC) (2.0 ch) (93 kbps) (track 1, id 0x1)
[15:03:51]      + bitrate: 93 kbps, samplerate: 48000 Hz
[15:03:51]    + AAC Passthru
[15:03:51] sync: expecting 175956 video frames
[15:03:51] encx264: min-keyint: 24, keyint: 240
[15:03:51] encx264: encoding at constant RF 21.000000
[15:03:51] encx264: unparsed options: ref=5:bframes=5:level=3.1:b-adapt=2:direct=auto:deblock=-1,-1:analyse=all:me=umh:merange=24:subme=10:trellis=2:psy-rd=1,0.15:vbv-bufsize=17500:vbv-maxrate=17500:rc-lookahead=60
x264 [info]: using SAR=1/1
x264 [info]: using cpu capabilities: MMX2 SSE2Fast SSSE3 Cache64
x264 [info]: profile High, level 3.1, 4:2:0, 8-bit
[15:03:52] sync: first pts audio 0x1 is 0
[15:03:52] sync: first pts video is 7507
[15:03:52] sync: Chapter 1 at frame 1 time 7507
[23:43:32] reader: done. 1 scr changes
[23:43:37] work: average encoding speed for job is 5.641418 fps
[23:43:37] comb detect: heavy 1440 | light 4551 | uncombed 169964 | total 175955
[23:43:37] decomb: deinterlaced 1440 | blended 4551 | unfiltered 169964 | total 175955
[23:43:37] vfr: 175955 frames output, 0 dropped and 0 duped for CFR/PFR
[23:43:37] vfr: lost time: 0 (0 frames)
[23:43:37] vfr: gained time: 0 (0 frames) (0 not accounted for)
[23:43:37] aac-decoder done: 344009 frames, 0 decoder errors
[23:43:37] h264-decoder done: 175955 frames, 0 decoder errors
[23:43:37] sync: got 175955 frames, 175956 expected
[23:43:37] sync: framerate min 23.976 fps, max 23.976 fps, avg 23.976 fps
x264 [info]: frame I:2867  Avg QP:17.83  size: 50525
x264 [info]: frame P:49767 Avg QP:21.78  size: 13340
x264 [info]: frame B:123321 Avg QP:25.89  size:  3733
x264 [info]: consecutive B-frames:  4.7%  5.4%  9.8% 69.0%  4.9%  6.2%
x264 [info]: mb I  I16..4: 11.4% 70.5% 18.2%
x264 [info]: mb P  I16..4:  4.8% 16.7%  1.2%  P16..4: 34.9%  9.3%  6.6%  0.2%  0.1%    skip:26.1%
x264 [info]: mb B  I16..4:  0.5%  1.6%  0.1%  B16..8: 32.7%  4.8%  1.0%  direct: 2.1%  skip:57.2%  L0:42.8% L1:50.9% BI: 6.3%
x264 [info]: 8x8 transform intra:72.5% inter:69.6%
x264 [info]: direct mvs  spatial:99.9% temporal:0.1%
x264 [info]: coded y,uvDC,uvAC intra: 45.1% 51.4% 17.7% inter: 9.1% 8.5% 0.8%
x264 [info]: i16 v,h,dc,p: 37% 20%  7% 37%
x264 [info]: i8 v,h,dc,ddl,ddr,vr,hd,vl,hu: 23% 13% 16%  5%  8% 10%  9%  9%  9%
x264 [info]: i4 v,h,dc,ddl,ddr,vr,hd,vl,hu: 24% 17%  8%  6%  9% 10%  9%  8%  9%
x264 [info]: i8c dc,h,v,p: 41% 24% 23% 11%
x264 [info]: Weighted P-Frames: Y:3.0% UV:2.2%
x264 [info]: ref P L0: 61.6% 13.3% 15.8%  5.3%  4.0%  0.2%  0.0%
x264 [info]: ref B L0: 87.1%  9.5%  2.7%  0.7%
x264 [info]: ref B L1: 97.3%  2.7%
x264 [info]: kb/s:1383.50
[23:43:37] mux: track 0, 175955 frames, 1269051747 bytes, 1383.37 kbps, fifo 4096
[23:43:37] mux: track 1, 344009 frames, 86056960 bytes, 93.81 kbps, fifo 8192
[23:43:37] Finished work at: Mon Jan 04 23:43:37 2021
[23:43:37] libhb: work result = 0

# Encode Completed ...
Last edited by Rodeo on Thu Jan 07, 2021 12:23 am, edited 1 time in total.
Reason: Logs in between [code][/code] blocks please
scs1122
Posts: 7
Joined: Sun Jan 03, 2021 8:40 pm

When I set cropping to 0 I still have black bars top & bottom just like when it is set at 92

Post by scs1122 »

I am having a lot of trouble navigating this Hand Brake site.
Woodstock
Veteran User
Posts: 3939
Joined: Tue Aug 27, 2013 6:39 am

Re: Black bars top & bottom of source video

Post by Woodstock »

If you set the crop to zero, the black bars will NOT be removed by handbrake.

In your first encodes, the black bars were being removed. However, depending on what you are playing the file back on, they may be added BACK in by your player, to fit your display. You haven't said what you are playing the files back on.
musicvid
Veteran User
Posts: 3817
Joined: Sat Jun 27, 2009 1:19 am

Re: Black bars top & bottom of source video

Post by musicvid »

If the rectangle of your cropped media is a different shape than the player background, it will look like there are black bars that are not in the media.
scs1122
Posts: 7
Joined: Sun Jan 03, 2021 8:40 pm

Re: Black bars top & bottom of source video

Post by scs1122 »

In Handbrake when I go into dimensions and set it to automatic cropping, it automatically crops it at 92 at top and bottom . When I click the Summary tab, the source video has no bars on top or bottom. When I go back to Dimensions tab and set cropping to Custom and set zero for top and bottom, now black bars will appear on top and bottom. Therefore, I think Handbrake is doing what it is supposed to do. I think you are right that something else is causing this to happen. I store audio , video and photo files in folders on my computer to play on 2 Samsung TV's. Go get any these files to my TV's, I have an Xfinity X1 wireless gateway. I have a program named Serviio that transfers my files to my TV's via the Xfinity wireless gateway. From there they go to Sony Ultra HG Blu-ray /DVD Player. When I use the DVD player that how the files to get to my TV's. I'm not sure but I think Serviio might be the problem. My nephew introduced me to Serviio a few years ago so I could do this with my files. I hope this information is helpful and thank you very much.
Woodstock
Veteran User
Posts: 3939
Joined: Tue Aug 27, 2013 6:39 am

Re: Black bars top & bottom of source video

Post by Woodstock »

Yeah, playing to the TV has a fixed aspect ratio and it's going to fill in with letterboxing. Playing on a PC/Mac/Linux, the player will automatically scale the window to fit the file. Push it to full screen, though, the bars will come back.
scs1122
Posts: 7
Joined: Sun Jan 03, 2021 8:40 pm

Re: Black bars top & bottom of source video

Post by scs1122 »

I never heard of letterboxing before so I looked it up. I'm still not sure that I totally understand the concept. Over the last 6 months I must have watched over 3 dozen U-Tube videos about Handbrake. In these videos, they showed how to get rid of the black bars and reduce the file size. They would show examples of how the videos looked before the black bars were removed and the file size was reduced. They would show the black bars being removed and the file size being reduced. I've seen the video file size reduced but the black bars remain. It looked to me in all these videos that their examples were being shown on TV screens. Are all these videos of Handbrake doing something that I'm not doing ?
musicvid
Veteran User
Posts: 3817
Joined: Sat Jun 27, 2009 1:19 am

Re: Black bars top & bottom of source video

Post by musicvid »

It has been explained that even if the video black bars are removed, black bars will still show on a screen of a different rectangular shape than the video.
Post Reply