Re-encode a DVD rip (MKV) with as little compression as possible?

HandBrake for Windows support
Forum rules
An Activity Log is required for support requests. Please read How-to get an activity log? for details on how and why this should be provided.
Post Reply
Dougmeister
Posts: 9
Joined: Tue Dec 29, 2020 10:38 pm

Re-encode a DVD rip (MKV) with as little compression as possible?

Post by Dougmeister »

Description of problem or question:

How do I re-encode a DVD rip (MKV) with as little compression as possible? The only reason I'm doing it is to add forced subtitles.


Steps to reproduce the problem (If Applicable):

I've tried several of the presets, but I think that manual settings are what I need (Dimensions, Filters, Video, Audio tabs).


HandBrake version (e.g., 1.0.0):

Version 1.2.2


Operating system and version (e.g., Ubuntu 16.04 LTS, macOS 10.13 High Sierra, Windows 10 Creators Update):

Windows 10 64-bit


HandBrake Activity Log ***required*** (see How-to get an activity log)

Code: Select all

HandBrake 1.2.2 (2019022300)
OS: Microsoft Windows NT 10.0.19041.0
CPU: AMD FX(tm)-6300 Six-Core Processor             
Ram: 24542 MB, 
GPU Information:
  NVIDIA GeForce GT 610 - 23.21.13.8813
Screen: 1280x1024
Temp Dir: C:\Users\Doug\AppData\Local\Temp\
Install Dir: D:\Program Files\HandBrake
Data Dir: C:\Users\Doug\AppData\Roaming\HandBrake

-------------------------------------------


# Starting Encode ...

[23:28:54] hb_init: starting libhb thread
[23:28:54] 1 job(s) to process
[23:28:54] json job:
{
  "Audio": {
    "AudioList": [
      {
        "Bitrate": 160,
        "DRC": 0.0,
        "Encoder": "av_aac",
        "Gain": 0.0,
        "Mixdown": 4,
        "NormalizeMixLevel": false,
        "Samplerate": 0,
        "Track": 0,
        "DitherMethod": 0
      }
    ],
    "CopyMask": [
      "copy:aac",
      "copy:ac3",
      "copy:dtshd",
      "copy:dts",
      "copy:eac3",
      "copy:flac",
      "copy:mp3",
      "copy:truehd"
    ],
    "FallbackEncoder": "ac3"
  },
  "Destination": {
    "ChapterList": [
      {
        "Name": "Chapter 1"
      },
      {
        "Name": "Chapter 2"
      },
      {
        "Name": "Chapter 3"
      },
      {
        "Name": "Chapter 4"
      },
      {
        "Name": "Chapter 5"
      },
      {
        "Name": "Chapter 6"
      },
      {
        "Name": "Chapter 7"
      },
      {
        "Name": "Chapter 8"
      },
      {
        "Name": "Chapter 9"
      },
      {
        "Name": "Chapter 10"
      },
      {
        "Name": "Chapter 11"
      },
      {
        "Name": "Chapter 12"
      },
      {
        "Name": "Chapter 13"
      },
      {
        "Name": "Chapter 14"
      },
      {
        "Name": "Chapter 15"
      },
      {
        "Name": "Chapter 16"
      },
      {
        "Name": "Chapter 17"
      },
      {
        "Name": "Chapter 18"
      },
      {
        "Name": "Chapter 19"
      },
      {
        "Name": "Chapter 20"
      },
      {
        "Name": "Chapter 21"
      },
      {
        "Name": "Chapter 22"
      },
      {
        "Name": "Chapter 23"
      },
      {
        "Name": "Chapter 24"
      },
      {
        "Name": "Chapter 25"
      },
      {
        "Name": "Chapter 26"
      },
      {
        "Name": "Chapter 27"
      },
      {
        "Name": "Chapter 28"
      },
      {
        "Name": "Chapter 29"
      },
      {
        "Name": "Chapter 30"
      },
      {
        "Name": "Chapter 31"
      },
      {
        "Name": "Chapter 32"
      },
      {
        "Name": "Chapter 33"
      },
      {
        "Name": "Chapter 34"
      },
      {
        "Name": "Chapter 35"
      },
      {
        "Name": "Chapter 36"
      },
      {
        "Name": "Chapter 37"
      },
      {
        "Name": "Chapter 38"
      },
      {
        "Name": "Chapter 39"
      },
      {
        "Name": "Chapter 40"
      },
      {
        "Name": "Chapter 41"
      },
      {
        "Name": "Chapter 42"
      },
      {
        "Name": "Chapter 43"
      },
      {
        "Name": "Chapter 44"
      },
      {
        "Name": "Chapter 45"
      },
      {
        "Name": "Chapter 46"
      },
      {
        "Name": "Chapter 47"
      },
      {
        "Name": "Chapter 48"
      },
      {
        "Name": "Chapter 49"
      },
      {
        "Name": "Chapter 50"
      }
    ],
    "ChapterMarkers": true,
    "AlignAVStart": false,
    "File": "D:\\Video\\Solo.mkv",
    "Mp4Options": {
      "IpodAtom": false,
      "Mp4Optimize": false
    },
    "Mux": "mkv"
  },
  "Filters": {
    "FilterList": [
      {
        "ID": 4,
        "Settings": {
          "mode": "7"
        }
      },
      {
        "ID": 3,
        "Settings": {
          "block-height": "16",
          "block-thresh": "40",
          "block-width": "16",
          "filter-mode": "2",
          "mode": "3",
          "motion-thresh": "1",
          "spatial-metric": "2",
          "spatial-thresh": "1"
        }
      },
      {
        "ID": 11,
        "Settings": {
          "crop-bottom": "62",
          "crop-left": "0",
          "crop-right": "0",
          "crop-top": "58",
          "height": "360",
          "width": "720"
        }
      },
      {
        "ID": 6,
        "Settings": {
          "mode": "2",
          "rate": "27000000/900000"
        }
      }
    ]
  },
  "PAR": {
    "Num": 32,
    "Den": 27
  },
  "Metadata": {},
  "SequenceID": 0,
  "Source": {
    "Angle": 1,
    "Range": {
      "Type": "chapter",
      "Start": 1,
      "End": 50
    },
    "Title": 1,
    "Path": "D:\\Video\\04a) Solo.mkv"
  },
  "Subtitle": {
    "Search": {
      "Burn": true,
      "Default": false,
      "Enable": true,
      "Forced": true
    },
    "SubtitleList": []
  },
  "Video": {
    "Encoder": "x265",
    "Level": "auto",
    "TwoPass": false,
    "Turbo": false,
    "ColorMatrixCode": 0,
    "Options": "strong-intra-smoothing=0:rect=0",
    "Preset": "slow",
    "Profile": "main",
    "Quality": 21.0,
    "QSV": {
      "Decode": false,
      "AsyncDepth": 0
    }
  }
}
[23:28:54] CPU:
[23:28:54]  - logical processor count: 6
[23:28:54] Intel Quick Sync Video support: no
[23:28:54] hb_scan: path=D:\Video\04a) Solo.mkv, title_index=1
udfread ERROR: ECMA 167 Volume Recognition failed
src/libbluray/disc/disc.c:323: failed opening UDF image D:\Video\04a) Solo.mkv
src/libbluray/disc/disc.c:424: error opening file BDMV\index.bdmv
src/libbluray/disc/disc.c:424: error opening file BDMV\BACKUP\index.bdmv
[23:28:54] bd: not a bd - trying as a stream/file instead
libdvdnav: Using dvdnav version 6.0.0
libdvdread: Encrypted DVD support unavailable.
libdvdread:DVDOpenFileUDF:UDFFindFile /VIDEO_TS/VIDEO_TS.IFO failed
libdvdread:DVDOpenFileUDF:UDFFindFile /VIDEO_TS/VIDEO_TS.BUP failed
libdvdread: Can't open file VIDEO_TS.IFO.
libdvdnav: vm: failed to read VIDEO_TS.IFO
[23:28:54] dvd: not a dvd - trying as a stream/file instead
Input #0, matroska,webm, from 'D:\Video\04a) Solo.mkv':
  Metadata:
    encoder         : libmakemkv v1.14.4 (1.3.5/1.4.7) win(x64-release)
    creation_time   : 2019-08-28T23:33:02.000000Z
  Duration: 02:14:45.66, start: 0.000000, bitrate: 5811 kb/s
    Chapter #0:0: start 0.000000, end 53.053000
    Metadata:
      title           : Chapter 01
    Chapter #0:1: start 53.053000, end 129.462667
    Metadata:
      title           : Chapter 02
    Chapter #0:2: start 129.462667, end 232.398833
    Metadata:
      title           : Chapter 03
    Chapter #0:3: start 232.398833, end 359.692667
    Metadata:
      title           : Chapter 04
    Chapter #0:4: start 359.692667, end 566.732833
    Metadata:
      title           : Chapter 05
    Chapter #0:5: start 566.732833, end 795.294500
    Metadata:
      title           : Chapter 06
    Chapter #0:6: start 795.294500, end 853.185667
    Metadata:
      title           : Chapter 07
    Chapter #0:7: start 853.185667, end 971.470500
    Metadata:
      title           : Chapter 08
    Chapter #0:8: start 971.470500, end 1184.349833
    Metadata:
      title           : Chapter 09
    Chapter #0:9: start 1184.349833, end 1363.028333
    Metadata:
      title           : Chapter 10
    Chapter #0:10: start 1363.028333, end 1476.475000
    Metadata:
      title           : Chapter 11
    Chapter #0:11: start 1476.475000, end 1619.284333
    Metadata:
      title           : Chapter 12
    Chapter #0:12: start 1619.284333, end 1802.133667
    Metadata:
      title           : Chapter 13
    Chapter #0:13: start 1802.133667, end 1973.838533
    Metadata:
      title           : Chapter 14
    Chapter #0:14: start 1973.838533, end 2349.013333
    Metadata:
      title           : Chapter 15
    Chapter #0:15: start 2349.013333, end 2518.382533
    Metadata:
      title           : Chapter 16
    Chapter #0:16: start 2518.382533, end 2599.430167
    Metadata:
      title           : Chapter 17
    Chapter #0:17: start 2599.430167, end 2671.335333
    Metadata:
      title           : Chapter 18
    Chapter #0:18: start 2671.335333, end 2882.913367
    Metadata:
      title           : Chapter 19
    Chapter #0:19: start 2882.913367, end 3117.481033
    Metadata:
      title           : Chapter 20
    Chapter #0:20: start 3117.481033, end 3196.693500
    Metadata:
      title           : Chapter 21
    Chapter #0:21: start 3196.693500, end 3442.772667
    Metadata:
      title           : Chapter 22
    Chapter #0:22: start 3442.772667, end 3615.945667
    Metadata:
      title           : Chapter 23
    Chapter #0:23: start 3615.945667, end 3760.089667
    Metadata:
      title           : Chapter 24
    Chapter #0:24: start 3760.089667, end 3890.419867
    Metadata:
      title           : Chapter 25
    Chapter #0:25: start 3890.419867, end 3928.758167
    Metadata:
      title           : Chapter 26
    Chapter #0:26: start 3928.758167, end 4031.193833
    Metadata:
      title           : Chapter 27
    Chapter #0:27: start 4031.193833, end 4085.081000
    Metadata:
      title           : Chapter 28
    Chapter #0:28: start 4085.081000, end 4199.361833
    Metadata:
      title           : Chapter 29
    Chapter #0:29: start 4199.361833, end 4363.359000
    Metadata:
      title           : Chapter 30
    Chapter #0:30: start 4363.359000, end 4480.008867
    Metadata:
      title           : Chapter 31
    Chapter #0:31: start 4480.008867, end 4710.038667
    Metadata:
      title           : Chapter 32
    Chapter #0:32: start 4710.038667, end 4994.990000
    Metadata:
      title           : Chapter 33
    Chapter #0:33: start 4994.990000, end 5191.853333
    Metadata:
      title           : Chapter 34
    Chapter #0:34: start 5191.853333, end 5432.293533
    Metadata:
      title           : Chapter 35
    Chapter #0:35: start 5432.293533, end 5718.879833
    Metadata:
      title           : Chapter 36
    Chapter #0:36: start 5718.879833, end 5824.018200
    Metadata:
      title           : Chapter 37
    Chapter #0:37: start 5824.018200, end 5931.959367
    Metadata:
      title           : Chapter 38
    Chapter #0:38: start 5931.959367, end 6077.738333
    Metadata:
      title           : Chapter 39
    Chapter #0:39: start 6077.738333, end 6181.842333
    Metadata:
      title           : Chapter 40
    Chapter #0:40: start 6181.842333, end 6326.987333
    Metadata:
      title           : Chapter 41
    Chapter #0:41: start 6326.987333, end 6391.385000
    Metadata:
      title           : Chapter 42
    Chapter #0:42: start 6391.385000, end 6585.245333
    Metadata:
      title           : Chapter 43
    Chapter #0:43: start 6585.245333, end 6813.139667
    Metadata:
      title           : Chapter 44
    Chapter #0:44: start 6813.139667, end 7033.059367
    Metadata:
      title           : Chapter 45
    Chapter #0:45: start 7033.059367, end 7134.293833
    Metadata:
      title           : Chapter 46
    Chapter #0:46: start 7134.293833, end 7293.986700
    Metadata:
      title           : Chapter 47
    Chapter #0:47: start 7293.986700, end 7400.059333
    Metadata:
      title           : Chapter 48
    Chapter #0:48: start 7400.059333, end 7568.561000
    Metadata:
      title           : Chapter 49
    Chapter #0:49: start 7568.561000, end 8085.664000
    Metadata:
      title           : Chapter 50
    Stream #0:0(eng): Video: mpeg2video (Main), yuv420p(tv, smpte170m, progressive), 720x480 [SAR 32:27 DAR 16:9], SAR 186:157 DAR 279:157, 29.97 fps, 29.97 tbr, 1k tbn, 59.94 tbc
    Metadata:
      BPS-eng         : 5162539
      DURATION-eng    : 02:14:45.610866666
      NUMBER_OF_FRAMES-eng: 193861
      NUMBER_OF_BYTES-eng: 5217785348
      SOURCE_ID-eng   : 0100E0
      _STATISTICS_WRITING_APP-eng: MakeMKV v1.14.4 win(x64-release)
      _STATISTICS_WRITING_DATE_UTC-eng: 2019-08-28 23:33:02
      _STATISTICS_TAGS-eng: BPS DURATION NUMBER_OF_FRAMES NUMBER_OF_BYTES SOURCE_ID
    Stream #0:1(eng): Audio: ac3, 48000 Hz, 5.1(side), fltp, 448 kb/s (default)
    Metadata:
      title           : Surround 5.1
      BPS-eng         : 448000
      DURATION-eng    : 02:14:45.664000000
      NUMBER_OF_FRAMES-eng: 252677
      NUMBER_OF_BYTES-eng: 452797184
      SOURCE_ID-eng   : 0180BD
      _STATISTICS_WRITING_APP-eng: MakeMKV v1.14.4 win(x64-release)
      _STATISTICS_WRITING_DATE_UTC-eng: 2019-08-28 23:33:02
      _STATISTICS_TAGS-eng: BPS DURATION NUMBER_OF_FRAMES NUMBER_OF_BYTES SOURCE_ID
    Stream #0:2(eng): Audio: ac3, 48000 Hz, stereo, fltp, 192 kb/s
    Metadata:
      title           : Stereo
      BPS-eng         : 192000
      DURATION-eng    : 02:14:45.664000000
      NUMBER_OF_FRAMES-eng: 252677
      NUMBER_OF_BYTES-eng: 194055936
      SOURCE_ID-eng   : 0181BD
      _STATISTICS_WRITING_APP-eng: MakeMKV v1.14.4 win(x64-release)
      _STATISTICS_WRITING_DATE_UTC-eng: 2019-08-28 23:33:02
      _STATISTICS_TAGS-eng: BPS DURATION NUMBER_OF_FRAMES NUMBER_OF_BYTES SOURCE_ID
    Stream #0:3(eng): Subtitle: dvd_subtitle, 720x480
    Metadata:
      BPS-eng         : 3912
      DURATION-eng    : 02:06:08.583755555
      NUMBER_OF_FRAMES-eng: 2282
      NUMBER_OF_BYTES-eng: 3701578
      SOURCE_ID-eng   : 0120BD
      _STATISTICS_WRITING_APP-eng: MakeMKV v1.14.4 win(x64-release)
      _STATISTICS_WRITING_DATE_UTC-eng: 2019-08-28 23:33:02
      _STATISTICS_TAGS-eng: BPS DURATION NUMBER_OF_FRAMES NUMBER_OF_BYTES SOURCE_ID
    Stream #0:4(eng): Subtitle: dvd_subtitle, 720x480 (default)
    Metadata:
      BPS-eng         : 28
      DURATION-eng    : 02:06:08.583755555
      NUMBER_OF_FRAMES-eng: 50
      NUMBER_OF_BYTES-eng: 26610
      SOURCE_ID-eng   : 0126BD
      _STATISTICS_WRITING_APP-eng: MakeMKV v1.14.4 win(x64-release)
      _STATISTICS_WRITING_DATE_UTC-eng: 2019-08-28 23:33:02
      _STATISTICS_TAGS-eng: BPS DURATION NUMBER_OF_FRAMES NUMBER_OF_BYTES SOURCE_ID
    Stream #0:5(eng): Subtitle: subrip
    Metadata:
      BPS-eng         : 117
      DURATION-eng    : 02:05:13.420000000
      NUMBER_OF_FRAMES-eng: 2232
      NUMBER_OF_BYTES-eng: 110200
      SOURCE_ID-eng   : 0100E0
      _STATISTICS_WRITING_APP-eng: MakeMKV v1.14.4 win(x64-release)
      _STATISTICS_WRITING_DATE_UTC-eng: 2019-08-28 23:33:02
      _STATISTICS_TAGS-eng: BPS DURATION NUMBER_OF_FRAMES NUMBER_OF_BYTES SOURCE_ID
[23:28:54] scan: decoding previews for title 1
[23:28:54] scan: audio 0x1: ac3, rate=48000Hz, bitrate=448000 English (AC3) (5.1 ch)
[23:28:54] scan: audio 0x2: ac3, rate=48000Hz, bitrate=192000 English (AC3) (2.0 ch)
[23:28:55] scan: 10 previews, 720x480, 23.976 fps, autocrop = 58/62/0/0, aspect 16:9, PAR 32:27
[23:28:55] libhb: scan thread found 1 valid title(s)
[23:28:55] starting job
[23:28:55] decomb filter thread started for segment 0
[23:28:55] decomb filter thread started for segment 3
[23:28:55] decomb filter thread started for segment 2
[23:28:55] decomb filter thread started for segment 1
[23:28:55] decomb filter thread started for segment 4
[23:28:55] decomb filter thread started for segment 5
[23:28:55] decomb check thread started for segment 0
[23:28:55] decomb check thread started for segment 1
[23:28:55] decomb check thread started for segment 2
[23:28:55] decomb check thread started for segment 3
[23:28:55] decomb check thread started for segment 4
[23:28:55] decomb check thread started for segment 5
[23:28:55] mask filter thread started for segment 0
[23:28:55] mask filter thread started for segment 1
[23:28:55] mask filter thread started for segment 2
[23:28:55] mask filter thread started for segment 3
[23:28:55] mask filter thread started for segment 4
[23:28:55] mask erode thread started for segment 3
[23:28:55] mask erode thread started for segment 0
[23:28:55] mask erode thread started for segment 1
[23:28:55] mask erode thread started for segment 2
[23:28:55] mask filter thread started for segment 5
[23:28:55] mask erode thread started for segment 4
[23:28:55] mask erode thread started for segment 5
[23:28:55] mask dilate thread started for segment 0
[23:28:55] mask dilate thread started for segment 1
[23:28:55] mask dilate thread started for segment 2
[23:28:55] mask dilate thread started for segment 3
[23:28:55] mask dilate thread started for segment 4
[23:28:55] mask dilate thread started for segment 5
[23:28:55] yadif thread started for segment 0
[23:28:55] yadif thread started for segment 1
[23:28:55] job configuration:
[23:28:55] yadif thread started for segment 2
[23:28:55]  * source
[23:28:55]    + D:\Video\04a) Solo.mkv
[23:28:55]    + title 1, chapter(s) 1 to 50
[23:28:55]    + container: matroska,webm
[23:28:55]    + data rate: 5811 kbps
[23:28:55]  * destination
[23:28:55] yadif thread started for segment 3
[23:28:55]    + D:\Video\Solo.mkv
[23:28:55]    + container: Matroska (libavformat)
[23:28:55]      + chapter markers
[23:28:55]  * video track
[23:28:55]    + decoder: mpeg2video
[23:28:55]    + filters
[23:28:55] yadif thread started for segment 4
[23:28:55]      + Comb Detect (mode=3:spatial-metric=2:motion-thresh=1:spatial-thresh=1:filter-mode=2:block-thresh=40:block-width=16:block-height=16)
[23:28:55] yadif thread started for segment 5
[23:28:55]      + Decomb (mode=39)
[23:28:55]      + Framerate Shaper (mode=2:rate=27000000/900000)
[23:28:55]        + frame rate: 23.976 fps -> peak rate limited to 30.000 fps
[23:28:55]      + Crop and Scale (width=720:height=360:crop-top=58:crop-bottom=62:crop-left=0:crop-right=0)
[23:28:55]        + source: 720 * 480, crop (58/62/0/0): 720 * 360, scale: 720 * 360
[23:28:55]    + Output geometry
[23:28:55]      + storage dimensions: 720 x 360
[23:28:55]      + pixel aspect ratio: 32 : 27
[23:28:55]      + display dimensions: 853 x 360
[23:28:55]  * Foreign Audio Search: Render/Burn-in, Forced Only
[23:28:55]    + subtitle, English [VOBSUB] (track 0, id 0x3, Picture)
[23:28:55]    + subtitle, English [VOBSUB] (track 1, id 0x4, Picture)
[23:28:55] sync: expecting 193862 video frames
[23:29:03] reader: done. 1 scr changes
[23:29:03] work: average encoding speed for job is 0.000000 fps
[23:29:03] comb detect: heavy 0 | light 0 | uncombed 0 | total 0
[23:29:03] decomb: deinterlaced 0 | blended 0 | unfiltered 0 | total 0
[23:29:03] vfr: 0 frames output, 0 dropped and 0 duped for CFR/PFR
[23:29:03] vfr: lost time: 0 (0 frames)
[23:29:03] vfr: gained time: 0 (0 frames) (0 not accounted for)
[23:29:03] mpeg2video-decoder done: 0 frames, 0 decoder errors
[23:29:03] sync: got 0 frames, 193862 expected
[23:29:03] Subtitle track 0 (id 0x3) 'English [VOBSUB]': 2282 hits (0 forced)
[23:29:03] Subtitle track 1 (id 0x4) 'English [VOBSUB]': 50 hits (18 forced)
[23:29:03] Found a subtitle candidate with id 0x4 (contains forced subs)
[23:29:03] starting job
[23:29:03] decomb filter thread started for segment 1
[23:29:03] decomb filter thread started for segment 0
[23:29:03] decomb filter thread started for segment 2
[23:29:03] decomb filter thread started for segment 3
[23:29:03] decomb filter thread started for segment 4
[23:29:03] decomb filter thread started for segment 5
[23:29:03] decomb check thread started for segment 0
[23:29:03] decomb check thread started for segment 1
[23:29:03] decomb check thread started for segment 2
[23:29:03] decomb check thread started for segment 4
[23:29:03] mask filter thread started for segment 0
[23:29:03] decomb check thread started for segment 5
[23:29:03] mask filter thread started for segment 1
[23:29:03] mask filter thread started for segment 2
[23:29:03] mask filter thread started for segment 4
[23:29:03] mask erode thread started for segment 0
[23:29:03] mask filter thread started for segment 5
[23:29:03] mask erode thread started for segment 1
[23:29:03] mask erode thread started for segment 2
[23:29:03] mask erode thread started for segment 4
[23:29:03] mask erode thread started for segment 5
[23:29:03] mask dilate thread started for segment 1
[23:29:03] job configuration:
[23:29:03]  * source
[23:29:03]    + D:\Video\04a) Solo.mkv
[23:29:03]    + title 1, chapter(s) 1 to 50
[23:29:03]    + container: matroska,webm
[23:29:03]    + data rate: 5811 kbps
[23:29:03]  * destination
[23:29:03]    + D:\Video\Solo.mkv
[23:29:03]    + container: Matroska (libavformat)
[23:29:03]      + chapter markers
[23:29:03]  * video track
[23:29:03]    + decoder: mpeg2video
[23:29:03]    + filters
[23:29:03]      + Comb Detect (mode=3:spatial-metric=2:motion-thresh=1:spatial-thresh=1:filter-mode=2:block-thresh=40:block-width=16:block-height=16)
[23:29:03] mask dilate thread started for segment 2
[23:29:03]      + Decomb (mode=39)
[23:29:03]      + Framerate Shaper (mode=2:rate=27000000/900000)
[23:29:03]        + frame rate: 23.976 fps -> peak rate limited to 30.000 fps
[23:29:03]      + Subtitle renderer ()
[23:29:03] mask dilate thread started for segment 0
[23:29:03] mask dilate thread started for segment 4
[23:29:03]      + Crop and Scale (width=720:height=360:crop-top=58:crop-bottom=62:crop-left=0:crop-right=0)
[23:29:03]        + source: 720 * 480, crop (58/62/0/0): 720 * 360, scale: 720 * 360
[23:29:03]    + Output geometry
[23:29:03]      + storage dimensions: 720 x 360
[23:29:03]      + pixel aspect ratio: 32 : 27
[23:29:03]      + display dimensions: 853 x 360
[23:29:03]    + encoder: H.265 (libx265)
[23:29:03]      + preset:  slow
[23:29:03]      + options: strong-intra-smoothing=0:rect=0
[23:29:03]      + profile: main
[23:29:03]      + quality: 21.00 (RF)
[23:29:03]      + color profile: 6-1-6
[23:29:03]  * subtitle track 1, English [VOBSUB] (track 1, id 0x4, Picture) -> Render/Burn-in, Forced Only
[23:29:03]  * audio track 1
[23:29:03]    + decoder: English (AC3) (5.1 ch) (track 1, id 0x1)
[23:29:03]      + bitrate: 448 kbps, samplerate: 48000 Hz
[23:29:03] mask dilate thread started for segment 5
[23:29:03]    + mixdown: Stereo
[23:29:03]    + dither: none
[23:29:03]    + encoder: AAC (libavcodec)
[23:29:03]      + bitrate: 160 kbps, samplerate: 48000 Hz
[23:29:03] decomb check thread started for segment 3
[23:29:03] yadif thread started for segment 4
[23:29:03] mask erode thread started for segment 3
[23:29:03] yadif thread started for segment 0
[23:29:03] mask dilate thread started for segment 3
[23:29:03] yadif thread started for segment 3
[23:29:03] yadif thread started for segment 2
[23:29:03] mask filter thread started for segment 3
[23:29:03] yadif thread started for segment 1
[23:29:03] yadif thread started for segment 5
[23:29:03] sync: expecting 193862 video frames
x265 [info]: HEVC encoder version 2.9
x265 [info]: build info [Windows][GCC 8.2.0][64 bit] 8bit+10bit+12bit
x265 [info]: using cpu capabilities: MMX2 SSE2Fast LZCNT SSSE3 SSE4.2 AVX XOP FMA4 FMA3 BMI1
x265 [info]: Main profile, Level-3 (Main tier)
x265 [info]: Thread pool created using 6 threads
x265 [info]: Slices                              : 1
x265 [info]: frame threads / pool features       : 2 / wpp(6 rows)
x265 [warning]: Source height < 720p; disabling lookahead-slices
x265 [info]: Coding QT: max CU size, min CU size : 64 / 8
x265 [info]: Residual QT: max TU size, max depth : 32 / 1 inter / 1 intra
x265 [info]: ME / range / subpel / merge         : star / 57 / 3 / 3
x265 [info]: Keyframe min / max / scenecut / bias: 24 / 240 / 40 / 5.00
x265 [info]: Lookahead / bframes / badapt        : 25 / 4 / 2
x265 [info]: b-pyramid / weightp / weightb       : 1 / 1 / 0
x265 [info]: References / ref-limit  cu / depth  : 4 / on / on
x265 [info]: AQ: mode / str / qg-size / cu-tree  : 1 / 1.0 / 32 / 1
x265 [info]: Rate Control / qCompress            : CRF-21.0 / 0.60
x265 [info]: tools: limit-modes rd=4 psy-rd=2.00 rdoq=2 psy-rdoq=1.00 rskip
x265 [info]: tools: signhide tmvp deblock sao
[23:29:03] sync: first pts video is 0
[23:29:03] sync: "Chapter 1" (1) at frame 1 time 0
[23:29:03] sync: first pts audio 0x1 is 0
[23:29:20] sync: "Chapter 2" (2) at frame 1273 time 4774770
[23:30:41] sync: "Chapter 3" (3) at frame 3105 time 11651640
[23:31:53] sync: first pts subtitle 0x4 is 18396360
[23:32:23] sync: "Chapter 4" (4) at frame 5573 time 20915895
[23:34:20] sync: "Chapter 5" (5) at frame 8625 time 32372340
[23:39:20] sync: "Chapter 6" (6) at frame 13589 time 51005955
[23:42:49] sync: "Chapter 7" (7) at frame 19069 time 71576505
[23:43:26] sync: "Chapter 8" (8) at frame 20457 time 76786710
[23:46:37] sync: "Chapter 9" (9) at frame 23293 time 87432345
[23:49:30] sync: "Chapter 10" (10) at frame 28397 time 106591485
[23:52:29] sync: "Chapter 11" (11) at frame 32684 time 122683811
[23:54:20] sync: "Chapter 12" (12) at frame 35401 time 132882750
[23:56:22] sync: "Chapter 13" (13) at frame 38828 time 145746851
[23:59:12] sync: "Chapter 14" (14) at frame 43209 time 162192030
[00:03:08] sync: "Chapter 15" (15) at frame 47326 time 177646218
[00:11:22] sync: "Chapter 16" (16) at frame 56324 time 211422461
[00:13:25] sync: "Chapter 17" (17) at frame 60382 time 226655178
[00:14:42] sync: "Chapter 18" (18) at frame 62328 time 233959976
[00:15:46] sync: "Chapter 19" (19) at frame 64052 time 240431441
[00:18:41] sync: "Chapter 20" (20) at frame 69125 time 259474215
[00:21:17] sync: "Chapter 21" (21) at frame 74749 time 280585305
[00:22:24] sync: "Chapter 22" (22) at frame 76645 time 287702415
[00:25:14] sync: "Chapter 23" (23) at frame 82545 time 309849540
[00:27:44] sync: "Chapter 24" (24) at frame 86697 time 325435110
[00:29:41] sync: "Chapter 25" (25) at frame 90153 time 338408070
[00:31:27] sync: "Chapter 26" (26) at frame 93278 time 350138538
[00:32:03] sync: "Chapter 27" (27) at frame 94200 time 353599496
[00:33:18] sync: "Chapter 28" (28) at frame 96653 time 362807445
[00:34:00] sync: "Chapter 29" (29) at frame 97945 time 367657290
[00:35:33] sync: "Chapter 30" (30) at frame 100685 time 377942565
[00:38:28] sync: "Chapter 31" (31) at frame 104617 time 392702310
[00:40:13] sync: "Chapter 32" (32) at frame 107414 time 403201548
[00:44:19] sync: "Chapter 33" (33) at frame 112929 time 423903480
[00:51:47] sync: "Chapter 34" (34) at frame 119761 time 449549100
[00:55:11] sync: "Chapter 35" (35) at frame 124484 time 467278061
[01:01:21] sync: "Chapter 36" (36) at frame 130246 time 488907168
[01:07:48] sync: "Chapter 37" (37) at frame 137117 time 514699185
[01:09:30] sync: "Chapter 38" (38) at frame 139641 time 524173650
[01:11:01] sync: "Chapter 39" (39) at frame 142229 time 533888355
[01:13:17] sync: "Chapter 40" (40) at frame 145724 time 547007711
[01:14:50] sync: "Chapter 41" (41) at frame 148220 time 556377071
[01:16:52] sync: "Chapter 42" (42) at frame 151700 time 569440121
[01:17:44] sync: "Chapter 43" (43) at frame 153241 time 575224650
[01:20:13] sync: "Chapter 44" (44) at frame 157892 time 592683341
[01:23:30] sync: "Chapter 45" (45) at frame 163353 time 613182570
[01:26:52] sync: "Chapter 46" (46) at frame 168629 time 632987355
[01:28:24] sync: "Chapter 47" (47) at frame 171053 time 642086445
[01:30:22] sync: "Chapter 48" (48) at frame 174882 time 656459553
[01:31:49] sync: "Chapter 49" (49) at frame 177428 time 666016601
[01:34:15] sync: "Chapter 50" (50) at frame 181465 time 681170490
[01:41:21] reader: done. 1 scr changes
[01:41:22] work: average encoding speed for job is 24.412758 fps
[01:41:22] comb detect: heavy 1357 | light 3848 | uncombed 188656 | total 193861
[01:41:22] decomb: deinterlaced 1357 | blended 3848 | unfiltered 188656 | total 193861
[01:41:22] vfr: 193861 frames output, 0 dropped and 0 duped for CFR/PFR
[01:41:22] vfr: lost time: 0 (0 frames)
[01:41:22] vfr: gained time: 0 (0 frames) (0 not accounted for)
[01:41:22] ac3-decoder done: 252677 frames, 0 decoder errors
[01:41:22] mpeg2video-decoder done: 193861 frames, 0 decoder errors
[01:41:22] sync: got 193861 frames, 193862 expected
[01:41:22] sync: framerate min 23.981 fps, max 29.970 fps, avg 23.976 fps
x265 [info]: frame I:   3168, Avg QP:18.98  kb/s: 2000.26
x265 [info]: frame P:  49776, Avg QP:20.75  kb/s: 909.90
x265 [info]: frame B: 140917, Avg QP:26.53  kb/s: 191.67
x265 [info]: Weighted P-Frames: Y:5.1% UV:3.6%
x265 [info]: consecutive B-frames: 10.7% 5.0% 19.8% 36.4% 28.1%
encoded 193861 frames in 7939.40s (24.42 fps), 405.64 kb/s, Avg QP:24.92
[01:41:22] mux: track 0, 193861 frames, 410756626 bytes, 406.40 kbps, fifo 8192
[01:41:22] mux: track 1, 379016 frames, 162098642 bytes, 160.38 kbps, fifo 16384
[01:41:22] libhb: work result = 0

# Encode Completed ...


Top
User avatarRodeo
HandBrake Team
Posts: 12644
Joined: Tue Mar 03, 2009 3:55 pm
Contact: Contact Rodeo
Re: Add forced sub-titles only to .MKV DVD rip with no compression?
Post by Rodeo » Tue Dec 29, 2020 7:23 pm
rollin_eng
Veteran User
Posts: 3707
Joined: Wed May 04, 2011 11:06 pm

Re: Re-encode a DVD rip (MKV) with as little compression as possible?

Post by rollin_eng »

Download the latest version then try the HQ preset that suits your needs.
mduell
Veteran User
Posts: 7331
Joined: Sat Apr 21, 2007 8:54 pm

Re: Re-encode a DVD rip (MKV) with as little compression as possible?

Post by mduell »

Super HQ 480p preset
Dougmeister
Posts: 9
Joined: Tue Dec 29, 2020 10:38 pm

Re: Re-encode a DVD rip (MKV) with as little compression as possible?

Post by Dougmeister »

Description of problem or question:

Thanks. mduell, that one is better than what I've *been* using, but the resulting output file is still a good bit smaller...

Even when I tried "Super HQ 1080p30 Surround", the output file shrank from 5.47 GB way down to less than 2 GB.


Steps to reproduce the problem (If Applicable):

I've tried several of the presets.


HandBrake version (e.g., 1.0.0):

Version 1.2.2


Operating system and version (e.g., Ubuntu 16.04 LTS, macOS 10.13 High Sierra, Windows 10 Creators Update):

Windows 10 64-bit

HandBrake Activity Log ***required*** (see How-to get an activity log)

Code: Select all

HandBrake 1.3.3 (2020061300)
OS: Microsoft Windows NT 10.0.19041.0
CPU: AMD FX(tm)-6300 Six-Core Processor             
Ram: 24542 MB, 
GPU Information:
  NVIDIA GeForce GT 610 - 23.21.13.8813
Screen: 1280x1024
Temp Dir: C:\Users\Doug\AppData\Local\Temp\
Install Dir: D:\Program Files\HandBrake
Data Dir: C:\Users\Doug\AppData\Roaming\HandBrake

-------------------------------------------


# Starting Encode ...

[10:34:30] base preset: Super HQ 1080p30 Surround
[22:34:30] hb_init: starting libhb thread
[22:34:30] Starting work at: Sun Jan 03 22:34:30 2021
[22:34:30] 1 job(s) to process
[22:34:30] json job:
{
  "Audio": {
    "AudioList": [
      {
        "Bitrate": 160,
        "DRC": 0.0,
        "Encoder": "av_aac",
        "Gain": 0.0,
        "Mixdown": 4,
        "NormalizeMixLevel": false,
        "Samplerate": 0,
        "Name": "Surround 5.1",
        "Track": 0,
        "DitherMethod": 0
      },
      {
        "DRC": 0.0,
        "Encoder": "copy:ac3",
        "Gain": 0.0,
        "Mixdown": -1,
        "NormalizeMixLevel": false,
        "Samplerate": 0,
        "Name": "Surround 5.1",
        "Track": 0,
        "DitherMethod": 0
      }
    ],
    "CopyMask": [
      "copy:aac",
      "copy:ac3",
      "copy:dtshd",
      "copy:dts",
      "copy:eac3",
      "copy:flac",
      "copy:mp3",
      "copy:truehd"
    ],
    "FallbackEncoder": "ac3"
  },
  "Destination": {
    "ChapterList": [
      {
        "Name": "Chapter 1"
      },
      {
        "Name": "Chapter 2"
      },
      {
        "Name": "Chapter 3"
      },
      {
        "Name": "Chapter 4"
      },
      {
        "Name": "Chapter 5"
      },
      {
        "Name": "Chapter 6"
      },
      {
        "Name": "Chapter 7"
      },
      {
        "Name": "Chapter 8"
      },
      {
        "Name": "Chapter 9"
      },
      {
        "Name": "Chapter 10"
      },
      {
        "Name": "Chapter 11"
      },
      {
        "Name": "Chapter 12"
      },
      {
        "Name": "Chapter 13"
      },
      {
        "Name": "Chapter 14"
      },
      {
        "Name": "Chapter 15"
      },
      {
        "Name": "Chapter 16"
      },
      {
        "Name": "Chapter 17"
      },
      {
        "Name": "Chapter 18"
      },
      {
        "Name": "Chapter 19"
      },
      {
        "Name": "Chapter 20"
      },
      {
        "Name": "Chapter 21"
      },
      {
        "Name": "Chapter 22"
      },
      {
        "Name": "Chapter 23"
      },
      {
        "Name": "Chapter 24"
      },
      {
        "Name": "Chapter 25"
      },
      {
        "Name": "Chapter 26"
      },
      {
        "Name": "Chapter 27"
      },
      {
        "Name": "Chapter 28"
      },
      {
        "Name": "Chapter 29"
      },
      {
        "Name": "Chapter 30"
      },
      {
        "Name": "Chapter 31"
      },
      {
        "Name": "Chapter 32"
      },
      {
        "Name": "Chapter 33"
      },
      {
        "Name": "Chapter 34"
      },
      {
        "Name": "Chapter 35"
      },
      {
        "Name": "Chapter 36"
      },
      {
        "Name": "Chapter 37"
      },
      {
        "Name": "Chapter 38"
      },
      {
        "Name": "Chapter 39"
      },
      {
        "Name": "Chapter 40"
      },
      {
        "Name": "Chapter 41"
      },
      {
        "Name": "Chapter 42"
      },
      {
        "Name": "Chapter 43"
      },
      {
        "Name": "Chapter 44"
      },
      {
        "Name": "Chapter 45"
      },
      {
        "Name": "Chapter 46"
      },
      {
        "Name": "Chapter 47"
      },
      {
        "Name": "Chapter 48"
      },
      {
        "Name": "Chapter 49"
      },
      {
        "Name": "Chapter 50"
      }
    ],
    "ChapterMarkers": true,
    "AlignAVStart": true,
    "File": "C:\\Users\\Doug\\Videos\\04A) Solo-1 (SuperHQ 1080p30 Surround, MP4, all defaults left alone).m4v",
    "Mp4Options": {
      "IpodAtom": false,
      "Mp4Optimize": false
    },
    "Mux": "av_mp4"
  },
  "Filters": {
    "FilterList": [
      {
        "ID": 4,
        "Settings": {
          "mode": "7"
        }
      },
      {
        "ID": 3,
        "Settings": {
          "block-height": "16",
          "block-thresh": "40",
          "block-width": "16",
          "filter-mode": "2",
          "mode": "3",
          "motion-thresh": "1",
          "spatial-metric": "2",
          "spatial-thresh": "1"
        }
      },
      {
        "ID": 12,
        "Settings": {
          "crop-bottom": "62",
          "crop-left": "0",
          "crop-right": "0",
          "crop-top": "58",
          "height": "360",
          "width": "720"
        }
      },
      {
        "ID": 6,
        "Settings": {
          "mode": "2",
          "rate": "27000000/900000"
        }
      }
    ]
  },
  "PAR": {
    "Num": 32,
    "Den": 27
  },
  "Metadata": {},
  "SequenceID": 0,
  "Source": {
    "Angle": 1,
    "Range": {
      "Type": "chapter",
      "Start": 1,
      "End": 50
    },
    "Title": 1,
    "Path": "D:\\Video\\Solo\\04a) Solo.mkv"
  },
  "Subtitle": {
    "Search": {
      "Burn": true,
      "Default": false,
      "Enable": true,
      "Forced": true
    },
    "SubtitleList": []
  },
  "Video": {
    "Encoder": "x264",
    "Level": "4.0",
    "TwoPass": false,
    "Turbo": false,
    "ColorMatrixCode": 0,
    "Options": "ref=5:bframes=5",
    "Preset": "veryslow",
    "Profile": "high",
    "Quality": 18.0,
    "QSV": {
      "Decode": false,
      "AsyncDepth": 0
    }
  }
}
[22:34:30] CPU:
[22:34:30]  - logical processor count: 6
[22:34:30] Intel Quick Sync Video support: no
[22:34:30] hb_scan: path=D:\Video\Solo\04a) Solo.mkv, title_index=1
udfread ERROR: ECMA 167 Volume Recognition failed
src/libbluray/disc/disc.c:323: failed opening UDF image D:\Video\Solo\04a) Solo.mkv
src/libbluray/disc/disc.c:424: error opening file BDMV\index.bdmv
src/libbluray/disc/disc.c:424: error opening file BDMV\BACKUP\index.bdmv
src/libbluray/bluray.c:2585: nav_get_title_list(D:\Video\Solo\04a) Solo.mkv\) failed
[22:34:30] bd: not a bd - trying as a stream/file instead
libdvdnav: Using dvdnav version 6.0.1
libdvdread: Encrypted DVD support unavailable.
libdvdread:DVDOpenFileUDF:UDFFindFile /VIDEO_TS/VIDEO_TS.IFO failed
libdvdread:DVDOpenFileUDF:UDFFindFile /VIDEO_TS/VIDEO_TS.BUP failed
libdvdread: Can't open file VIDEO_TS.IFO.
libdvdnav: vm: failed to read VIDEO_TS.IFO
[22:34:30] dvd: not a dvd - trying as a stream/file instead
Input #0, matroska,webm, from 'D:\Video\Solo\04a) Solo.mkv':
  Metadata:
    encoder         : libmakemkv v1.14.4 (1.3.5/1.4.7) win(x64-release)
    creation_time   : 2019-08-28T23:33:02.000000Z
  Duration: 02:14:45.66, start: 0.000000, bitrate: 5811 kb/s
    Chapter #0:0: start 0.000000, end 53.053000
    Metadata:
      title           : Chapter 01
    Chapter #0:1: start 53.053000, end 129.462667
    Metadata:
      title           : Chapter 02
    Chapter #0:2: start 129.462667, end 232.398833
    Metadata:
      title           : Chapter 03
    Chapter #0:3: start 232.398833, end 359.692667
    Metadata:
      title           : Chapter 04
    Chapter #0:4: start 359.692667, end 566.732833
    Metadata:
      title           : Chapter 05
    Chapter #0:5: start 566.732833, end 795.294500
    Metadata:
      title           : Chapter 06
    Chapter #0:6: start 795.294500, end 853.185667
    Metadata:
      title           : Chapter 07
    Chapter #0:7: start 853.185667, end 971.470500
    Metadata:
      title           : Chapter 08
    Chapter #0:8: start 971.470500, end 1184.349833
    Metadata:
      title           : Chapter 09
    Chapter #0:9: start 1184.349833, end 1363.028333
    Metadata:
      title           : Chapter 10
    Chapter #0:10: start 1363.028333, end 1476.475000
    Metadata:
      title           : Chapter 11
    Chapter #0:11: start 1476.475000, end 1619.284333
    Metadata:
      title           : Chapter 12
    Chapter #0:12: start 1619.284333, end 1802.133667
    Metadata:
      title           : Chapter 13
    Chapter #0:13: start 1802.133667, end 1973.838533
    Metadata:
      title           : Chapter 14
    Chapter #0:14: start 1973.838533, end 2349.013333
    Metadata:
      title           : Chapter 15
    Chapter #0:15: start 2349.013333, end 2518.382533
    Metadata:
      title           : Chapter 16
    Chapter #0:16: start 2518.382533, end 2599.430167
    Metadata:
      title           : Chapter 17
    Chapter #0:17: start 2599.430167, end 2671.335333
    Metadata:
      title           : Chapter 18
    Chapter #0:18: start 2671.335333, end 2882.913367
    Metadata:
      title           : Chapter 19
    Chapter #0:19: start 2882.913367, end 3117.481033
    Metadata:
      title           : Chapter 20
    Chapter #0:20: start 3117.481033, end 3196.693500
    Metadata:
      title           : Chapter 21
    Chapter #0:21: start 3196.693500, end 3442.772667
    Metadata:
      title           : Chapter 22
    Chapter #0:22: start 3442.772667, end 3615.945667
    Metadata:
      title           : Chapter 23
    Chapter #0:23: start 3615.945667, end 3760.089667
    Metadata:
      title           : Chapter 24
    Chapter #0:24: start 3760.089667, end 3890.419867
    Metadata:
      title           : Chapter 25
    Chapter #0:25: start 3890.419867, end 3928.758167
    Metadata:
      title           : Chapter 26
    Chapter #0:26: start 3928.758167, end 4031.193833
    Metadata:
      title           : Chapter 27
    Chapter #0:27: start 4031.193833, end 4085.081000
    Metadata:
      title           : Chapter 28
    Chapter #0:28: start 4085.081000, end 4199.361833
    Metadata:
      title           : Chapter 29
    Chapter #0:29: start 4199.361833, end 4363.359000
    Metadata:
      title           : Chapter 30
    Chapter #0:30: start 4363.359000, end 4480.008867
    Metadata:
      title           : Chapter 31
    Chapter #0:31: start 4480.008867, end 4710.038667
    Metadata:
      title           : Chapter 32
    Chapter #0:32: start 4710.038667, end 4994.990000
    Metadata:
      title           : Chapter 33
    Chapter #0:33: start 4994.990000, end 5191.853333
    Metadata:
      title           : Chapter 34
    Chapter #0:34: start 5191.853333, end 5432.293533
    Metadata:
      title           : Chapter 35
    Chapter #0:35: start 5432.293533, end 5718.879833
    Metadata:
      title           : Chapter 36
    Chapter #0:36: start 5718.879833, end 5824.018200
    Metadata:
      title           : Chapter 37
    Chapter #0:37: start 5824.018200, end 5931.959367
    Metadata:
      title           : Chapter 38
    Chapter #0:38: start 5931.959367, end 6077.738333
    Metadata:
      title           : Chapter 39
    Chapter #0:39: start 6077.738333, end 6181.842333
    Metadata:
      title           : Chapter 40
    Chapter #0:40: start 6181.842333, end 6326.987333
    Metadata:
      title           : Chapter 41
    Chapter #0:41: start 6326.987333, end 6391.385000
    Metadata:
      title           : Chapter 42
    Chapter #0:42: start 6391.385000, end 6585.245333
    Metadata:
      title           : Chapter 43
    Chapter #0:43: start 6585.245333, end 6813.139667
    Metadata:
      title           : Chapter 44
    Chapter #0:44: start 6813.139667, end 7033.059367
    Metadata:
      title           : Chapter 45
    Chapter #0:45: start 7033.059367, end 7134.293833
    Metadata:
      title           : Chapter 46
    Chapter #0:46: start 7134.293833, end 7293.986700
    Metadata:
      title           : Chapter 47
    Chapter #0:47: start 7293.986700, end 7400.059333
    Metadata:
      title           : Chapter 48
    Chapter #0:48: start 7400.059333, end 7568.561000
    Metadata:
      title           : Chapter 49
    Chapter #0:49: start 7568.561000, end 8085.664000
    Metadata:
      title           : Chapter 50
    Stream #0:0(eng): Video: mpeg2video (Main), yuv420p(tv, smpte170m, progressive), 720x480 [SAR 32:27 DAR 16:9], SAR 186:157 DAR 279:157, 29.97 fps, 29.97 tbr, 1k tbn, 59.94 tbc
    Metadata:
      BPS-eng         : 5162539
      DURATION-eng    : 02:14:45.610866666
      NUMBER_OF_FRAMES-eng: 193861
      NUMBER_OF_BYTES-eng: 5217785348
      SOURCE_ID-eng   : 0100E0
      _STATISTICS_WRITING_APP-eng: MakeMKV v1.14.4 win(x64-release)
      _STATISTICS_WRITING_DATE_UTC-eng: 2019-08-28 23:33:02
      _STATISTICS_TAGS-eng: BPS DURATION NUMBER_OF_FRAMES NUMBER_OF_BYTES SOURCE_ID
    Stream #0:1(eng): Audio: ac3, 48000 Hz, 5.1(side), fltp, 448 kb/s (default)
    Metadata:
      title           : Surround 5.1
      BPS-eng         : 448000
      DURATION-eng    : 02:14:45.664000000
      NUMBER_OF_FRAMES-eng: 252677
      NUMBER_OF_BYTES-eng: 452797184
      SOURCE_ID-eng   : 0180BD
      _STATISTICS_WRITING_APP-eng: MakeMKV v1.14.4 win(x64-release)
      _STATISTICS_WRITING_DATE_UTC-eng: 2019-08-28 23:33:02
      _STATISTICS_TAGS-eng: BPS DURATION NUMBER_OF_FRAMES NUMBER_OF_BYTES SOURCE_ID
    Stream #0:2(eng): Audio: ac3, 48000 Hz, stereo, fltp, 192 kb/s
    Metadata:
      title           : Stereo
      BPS-eng         : 192000
      DURATION-eng    : 02:14:45.664000000
      NUMBER_OF_FRAMES-eng: 252677
      NUMBER_OF_BYTES-eng: 194055936
      SOURCE_ID-eng   : 0181BD
      _STATISTICS_WRITING_APP-eng: MakeMKV v1.14.4 win(x64-release)
      _STATISTICS_WRITING_DATE_UTC-eng: 2019-08-28 23:33:02
      _STATISTICS_TAGS-eng: BPS DURATION NUMBER_OF_FRAMES NUMBER_OF_BYTES SOURCE_ID
    Stream #0:3(eng): Subtitle: dvd_subtitle, 720x480
    Metadata:
      BPS-eng         : 3912
      DURATION-eng    : 02:06:08.583755555
      NUMBER_OF_FRAMES-eng: 2282
      NUMBER_OF_BYTES-eng: 3701578
      SOURCE_ID-eng   : 0120BD
      _STATISTICS_WRITING_APP-eng: MakeMKV v1.14.4 win(x64-release)
      _STATISTICS_WRITING_DATE_UTC-eng: 2019-08-28 23:33:02
      _STATISTICS_TAGS-eng: BPS DURATION NUMBER_OF_FRAMES NUMBER_OF_BYTES SOURCE_ID
    Stream #0:4(eng): Subtitle: dvd_subtitle, 720x480 (default)
    Metadata:
      BPS-eng         : 28
      DURATION-eng    : 02:06:08.583755555
      NUMBER_OF_FRAMES-eng: 50
      NUMBER_OF_BYTES-eng: 26610
      SOURCE_ID-eng   : 0126BD
      _STATISTICS_WRITING_APP-eng: MakeMKV v1.14.4 win(x64-release)
      _STATISTICS_WRITING_DATE_UTC-eng: 2019-08-28 23:33:02
      _STATISTICS_TAGS-eng: BPS DURATION NUMBER_OF_FRAMES NUMBER_OF_BYTES SOURCE_ID
    Stream #0:5(eng): Subtitle: subrip
    Metadata:
      BPS-eng         : 117
      DURATION-eng    : 02:05:13.420000000
      NUMBER_OF_FRAMES-eng: 2232
      NUMBER_OF_BYTES-eng: 110200
      SOURCE_ID-eng   : 0100E0
      _STATISTICS_WRITING_APP-eng: MakeMKV v1.14.4 win(x64-release)
      _STATISTICS_WRITING_DATE_UTC-eng: 2019-08-28 23:33:02
      _STATISTICS_TAGS-eng: BPS DURATION NUMBER_OF_FRAMES NUMBER_OF_BYTES SOURCE_ID
[22:34:30] scan: decoding previews for title 1
[22:34:30] scan: audio 0x1: ac3, rate=48000Hz, bitrate=448000 English (AC3) (5.1 ch) (448 kbps)
[22:34:30] scan: audio 0x2: ac3, rate=48000Hz, bitrate=192000 English (AC3) (2.0 ch) (192 kbps)
[22:34:30] WARNING: Video PAR 32:27 != container PAR 186:157
[22:34:30] scan: 10 previews, 720x480, 23.976 fps, autocrop = 58/62/0/0, aspect 16:9, PAR 32:27
[22:34:30] libhb: scan thread found 1 valid title(s)
[22:34:30] Starting Task: Subtitle Scan
[22:34:31] job configuration:
[22:34:31]  * source
[22:34:31]    + D:\Video\Solo\04a) Solo.mkv
[22:34:31]    + title 1, chapter(s) 1 to 50
[22:34:31]    + container: matroska,webm
[22:34:31]    + data rate: 5811 kbps
[22:34:31]  * destination
[22:34:31]    + C:\Users\Doug\Videos\04A) Solo-1 (SuperHQ 1080p30 Surround, MP4, all defaults left alone).m4v
[22:34:31]    + container: MPEG-4 (libavformat)
[22:34:31]      + align initial A/V stream timestamps
[22:34:31]      + chapter markers
[22:34:31]  * video track
[22:34:31]    + decoder: mpeg2video
[22:34:31]    + filters
[22:34:31]      + Comb Detect (mode=3:spatial-metric=2:motion-thresh=1:spatial-thresh=1:filter-mode=2:block-thresh=40:block-width=16:block-height=16)
[22:34:31]      + Decomb (mode=39)
[22:34:31]      + Framerate Shaper (mode=2:rate=27000000/900000)
[22:34:31]        + frame rate: 23.976 fps -> peak rate limited to 30.000 fps
[22:34:31]      + Crop and Scale (width=720:height=360:crop-top=58:crop-bottom=62:crop-left=0:crop-right=0)
[22:34:31]        + source: 720 * 480, crop (58/62/0/0): 720 * 360, scale: 720 * 360
[22:34:31]    + Output geometry
[22:34:31]      + storage dimensions: 720 x 360
[22:34:31]      + pixel aspect ratio: 32 : 27
[22:34:31]      + display dimensions: 853 x 360
[22:34:31]  * Foreign Audio Search: Render/Burn-in, Forced Only
[22:34:31]    + subtitle, English [VOBSUB] (track 0, id 0x3, Picture)
[22:34:31]    + subtitle, English [VOBSUB] (track 1, id 0x4, Picture)
[22:34:31] sync: expecting 193862 video frames
[22:35:17] reader: done. 1 scr changes
[22:35:17] work: average encoding speed for job is 0.000000 fps
[22:35:17] comb detect: heavy 0 | light 0 | uncombed 0 | total 0
[22:35:17] decomb: deinterlaced 0 | blended 0 | unfiltered 0 | total 0
[22:35:17] vfr: 0 frames output, 0 dropped and 0 duped for CFR/PFR
[22:35:17] vfr: lost time: 0 (0 frames)
[22:35:17] vfr: gained time: 0 (0 frames) (0 not accounted for)
[22:35:17] mpeg2video-decoder done: 0 frames, 0 decoder errors
[22:35:17] sync: got 0 frames, 193862 expected
[22:35:17] Subtitle track 0 (id 0x3) 'English [VOBSUB]': 2282 hits (0 forced)
[22:35:17] Subtitle track 1 (id 0x4) 'English [VOBSUB]': 50 hits (18 forced)
[22:35:17] Found a subtitle candidate with id 0x4 (contains forced subs)
[22:35:17] Starting Task: Encoding Pass
[22:35:17] job configuration:
[22:35:17]  * source
[22:35:17]    + D:\Video\Solo\04a) Solo.mkv
[22:35:17]    + title 1, chapter(s) 1 to 50
[22:35:17]    + container: matroska,webm
[22:35:17]    + data rate: 5811 kbps
[22:35:17]  * destination
[22:35:17]    + C:\Users\Doug\Videos\04A) Solo-1 (SuperHQ 1080p30 Surround, MP4, all defaults left alone).m4v
[22:35:17]    + container: MPEG-4 (libavformat)
[22:35:17]      + align initial A/V stream timestamps
[22:35:17]      + chapter markers
[22:35:17]  * video track
[22:35:17]    + decoder: mpeg2video
[22:35:17]    + filters
[22:35:17]      + Comb Detect (mode=3:spatial-metric=2:motion-thresh=1:spatial-thresh=1:filter-mode=2:block-thresh=40:block-width=16:block-height=16)
[22:35:17]      + Decomb (mode=39)
[22:35:17]      + Framerate Shaper (mode=2:rate=27000000/900000)
[22:35:17]        + frame rate: 23.976 fps -> peak rate limited to 30.000 fps
[22:35:17]      + Subtitle renderer ()
[22:35:17]      + Crop and Scale (width=720:height=360:crop-top=58:crop-bottom=62:crop-left=0:crop-right=0)
[22:35:17]        + source: 720 * 480, crop (58/62/0/0): 720 * 360, scale: 720 * 360
[22:35:17]    + Output geometry
[22:35:17]      + storage dimensions: 720 x 360
[22:35:17]      + pixel aspect ratio: 32 : 27
[22:35:17]      + display dimensions: 853 x 360
[22:35:17]    + encoder: H.264 (libx264)
[22:35:17]      + preset:  veryslow
[22:35:17]      + options: ref=5:bframes=5
[22:35:17]      + profile: high
[22:35:17]      + level:   4.0
[22:35:17]      + quality: 18.00 (RF)
[22:35:17]      + color profile: 6-6-6
[22:35:17]  * subtitle track 1, English [VOBSUB] (track 1, id 0x4, Picture) -> Render/Burn-in, Forced Only
[22:35:17]  * audio track 1
[22:35:17]    + name: Surround 5.1
[22:35:17]    + decoder: English (AC3) (5.1 ch) (448 kbps) (track 1, id 0x1)
[22:35:17]      + bitrate: 448 kbps, samplerate: 48000 Hz
[22:35:17]    + mixdown: Stereo
[22:35:17]    + dither: none
[22:35:17]    + encoder: AAC (libavcodec)
[22:35:17]      + bitrate: 160 kbps, samplerate: 48000 Hz
[22:35:17]  * audio track 2
[22:35:17]    + name: Surround 5.1
[22:35:17]    + decoder: English (AC3) (5.1 ch) (448 kbps) (track 1, id 0x1)
[22:35:17]      + bitrate: 448 kbps, samplerate: 48000 Hz
[22:35:17]    + AC3 Passthru
[22:35:17] sync: expecting 193862 video frames
[22:35:17] encx264: min-keyint: 24, keyint: 240
[22:35:17] encx264: encoding at constant RF 18.000000
[22:35:17] encx264: unparsed options: ref=5:bframes=5:level=4.0:b-adapt=2:direct=auto:analyse=all:me=umh:merange=24:subme=10:trellis=2:vbv-bufsize=31250:vbv-maxrate=25000:rc-lookahead=60
x264 [info]: using SAR=32/27
x264 [info]: using cpu capabilities: MMX2 SSE2Fast SSSE3 SSE4.2 AVX XOP FMA3 BMI1
x264 [info]: profile High, level 4.0, 4:2:0, 8-bit
[22:35:18] sync: first pts video is 0
[22:35:18] sync: "Chapter 1" (1) at frame 1 time 0
[22:35:18] sync: first pts audio 0x1 is 0
[22:35:18] sync: first pts audio 0x1 is 0
[22:35:26] sync: "Chapter 2" (2) at frame 1273 time 4774770
[22:36:20] sync: "Chapter 3" (3) at frame 3105 time 11651640
[22:37:11] sync: first pts subtitle 0x4 is 18396360
[22:37:30] sync: "Chapter 4" (4) at frame 5573 time 20915895
[22:38:56] sync: "Chapter 5" (5) at frame 8625 time 32372340
[22:41:41] sync: "Chapter 6" (6) at frame 13589 time 51005955
[22:43:53] sync: "Chapter 7" (7) at frame 19069 time 71576505
[22:44:22] sync: "Chapter 8" (8) at frame 20457 time 76786710
[22:45:55] sync: "Chapter 9" (9) at frame 23293 time 87432345
[22:47:55] sync: "Chapter 10" (10) at frame 28397 time 106591485
[22:49:51] sync: "Chapter 11" (11) at frame 32684 time 122683811
[22:51:00] sync: "Chapter 12" (12) at frame 35401 time 132882750
[22:52:23] sync: "Chapter 13" (13) at frame 38828 time 145746851
[22:54:12] sync: "Chapter 14" (14) at frame 43209 time 162192030
[22:56:21] sync: "Chapter 15" (15) at frame 47326 time 177646218
[23:00:58] sync: "Chapter 16" (16) at frame 56324 time 211422461
[23:02:29] sync: "Chapter 17" (17) at frame 60382 time 226655178
[23:03:21] sync: "Chapter 18" (18) at frame 62328 time 233959976
[23:04:05] sync: "Chapter 19" (19) at frame 64052 time 240431441
[23:06:03] sync: "Chapter 20" (20) at frame 69125 time 259474215
[23:07:59] sync: "Chapter 21" (21) at frame 74749 time 280585305
[23:08:45] sync: "Chapter 22" (22) at frame 76645 time 287702415
[23:10:49] sync: "Chapter 23" (23) at frame 82545 time 309849540
[23:12:30] sync: "Chapter 24" (24) at frame 86697 time 325435110
[23:13:53] sync: "Chapter 25" (25) at frame 90153 time 338408070
[23:15:07] sync: "Chapter 26" (26) at frame 93278 time 350138538
[23:15:29] sync: "Chapter 27" (27) at frame 94200 time 353599496
[23:16:23] sync: "Chapter 28" (28) at frame 96653 time 362807445
[23:16:52] sync: "Chapter 29" (29) at frame 97945 time 367657290
[23:17:58] sync: "Chapter 30" (30) at frame 100685 time 377942565
[23:19:41] sync: "Chapter 31" (31) at frame 104617 time 392702310
[23:20:51] sync: "Chapter 32" (32) at frame 107414 time 403201548
[23:23:14] sync: "Chapter 33" (33) at frame 112929 time 423903480
[23:27:02] sync: "Chapter 34" (34) at frame 119761 time 449549100
[23:29:04] sync: "Chapter 35" (35) at frame 124484 time 467278061
[23:32:13] sync: "Chapter 36" (36) at frame 130246 time 488907168
[23:35:39] sync: "Chapter 37" (37) at frame 137117 time 514699185
[23:36:44] sync: "Chapter 38" (38) at frame 139641 time 524173650
[23:37:45] sync: "Chapter 39" (39) at frame 142229 time 533888355
[23:39:11] sync: "Chapter 40" (40) at frame 145724 time 547007711
[23:40:12] sync: "Chapter 41" (41) at frame 148220 time 556377071
[23:41:35] sync: "Chapter 42" (42) at frame 151700 time 569440121
[23:42:09] sync: "Chapter 43" (43) at frame 153241 time 575224650
[23:43:54] sync: "Chapter 44" (44) at frame 157892 time 592683341
[23:46:07] sync: "Chapter 45" (45) at frame 163353 time 613182570
[23:48:16] sync: "Chapter 46" (46) at frame 168629 time 632987355
[23:49:22] sync: "Chapter 47" (47) at frame 171053 time 642086445
[23:50:48] sync: "Chapter 48" (48) at frame 174882 time 656459553
[23:51:47] sync: "Chapter 49" (49) at frame 177428 time 666016601
[23:53:24] sync: "Chapter 50" (50) at frame 181465 time 681170490
[23:58:05] reader: done. 1 scr changes
[23:58:06] work: average encoding speed for job is 39.018261 fps
[23:58:06] comb detect: heavy 1357 | light 3848 | uncombed 188656 | total 193861
[23:58:06] decomb: deinterlaced 1357 | blended 3848 | unfiltered 188656 | total 193861
[23:58:06] vfr: 193861 frames output, 0 dropped and 0 duped for CFR/PFR
[23:58:06] vfr: lost time: 0 (0 frames)
[23:58:06] vfr: gained time: 0 (0 frames) (0 not accounted for)
[23:58:06] ac3-decoder done: 252677 frames, 0 decoder errors
[23:58:06] ac3-decoder done: 252677 frames, 0 decoder errors
[23:58:06] mpeg2video-decoder done: 193861 frames, 0 decoder errors
[23:58:06] sync: got 193861 frames, 193862 expected
[23:58:06] sync: framerate min 23.976 fps, max 29.970 fps, avg 23.976 fps
x264 [info]: frame I:2477  Avg QP:14.21  size: 35722
x264 [info]: frame P:42960 Avg QP:18.29  size:  9508
x264 [info]: frame B:148424 Avg QP:21.89  size:  2294
x264 [info]: consecutive B-frames:  3.1%  3.3%  9.6% 14.4%  7.9% 61.7%
x264 [info]: mb I  I16..4:  5.7% 76.0% 18.4%
x264 [info]: mb P  I16..4:  2.0% 10.9%  1.4%  P16..4: 41.0% 19.6% 13.6%  0.5%  0.2%    skip:10.6%
x264 [info]: mb B  I16..4:  0.1%  0.9%  0.1%  B16..8: 41.8%  8.0%  1.9%  direct: 3.9%  skip:43.3%  L0:47.8% L1:43.1% BI: 9.1%
x264 [info]: 8x8 transform intra:76.3% inter:68.6%
x264 [info]: direct mvs  spatial:99.9% temporal:0.1%
x264 [info]: coded y,uvDC,uvAC intra: 79.7% 74.8% 43.8% inter: 14.4% 12.6% 2.7%
x264 [info]: i16 v,h,dc,p: 15% 15% 10% 60%
x264 [info]: i8 v,h,dc,ddl,ddr,vr,hd,vl,hu: 13%  8%  6%  9% 13% 13% 13% 12% 13%
x264 [info]: i4 v,h,dc,ddl,ddr,vr,hd,vl,hu: 12%  7%  4% 10% 15% 14% 13% 11% 12%
x264 [info]: i8c dc,h,v,p: 35% 27% 20% 17%
x264 [info]: Weighted P-Frames: Y:8.2% UV:6.4%
x264 [info]: ref P L0: 55.2%  9.3% 18.5%  8.4%  7.8%  0.8%  0.1%
x264 [info]: ref B L0: 83.5% 11.7%  3.8%  1.1%
x264 [info]: ref B L1: 95.3%  4.7%
x264 [info]: kb/s:828.62
[23:58:06] mux: track 0, 193861 frames, 837380547 bytes, 828.50 kbps, fifo 4096
[23:58:06] mux: track 1, 379016 frames, 162098642 bytes, 160.38 kbps, fifo 8192
[23:58:06] mux: track 2, 252677 frames, 452797184 bytes, 448.00 kbps, fifo 4096
[23:58:06] Finished work at: Sun Jan 03 23:58:06 2021
[23:58:06] libhb: work result = 0

# Encode Completed ...


musicvid
Veteran User
Posts: 3822
Joined: Sat Jun 27, 2009 1:19 am

Re: Re-encode a DVD rip (MKV) with as little compression as possible?

Post by musicvid »

that one is better than what I've *been* using, but the resulting output file is still a good bit smaller...
Even when I tried "Super HQ 1080p30 Surround", the output file shrank from 5.47 GB way down to less than 2 GB.
x264 (Handbrake) produces files that are natively 30-70% smaller than MPEG-2 (DVD).

Instead of trying to make an apple look like an orange, if you want similar file sizes, encode MPEG-2.
musicvid
Veteran User
Posts: 3822
Joined: Sat Jun 27, 2009 1:19 am

Re: Re-encode a DVD rip (MKV) with as little compression as possible?

Post by musicvid »

Also, you're using a previous version of Handbrake. Stock advice is to stay current.
Happy 2021.
rollin_eng
Veteran User
Posts: 3707
Joined: Wed May 04, 2011 11:06 pm

Re: Re-encode a DVD rip (MKV) with as little compression as possible?

Post by rollin_eng »

Don’t worry about size, if it looks good you are ok.
Dougmeister
Posts: 9
Joined: Tue Dec 29, 2020 10:38 pm

Re: Re-encode a DVD rip (MKV) with as little compression as possible?

Post by Dougmeister »

The only reason I worry about the size of the output file is that I want as little compression as possible. I.e., I want it to be as close to the original as possible because the video editor I'm using (VideoRedo) is having problems with the file after it is compressed.
rollin_eng
Veteran User
Posts: 3707
Joined: Wed May 04, 2011 11:06 pm

Re: Re-encode a DVD rip (MKV) with as little compression as possible?

Post by rollin_eng »

If you want to use the file in an editor, try the production presets.
Post Reply