H.265 (AMD VCE) File Compression Help

HandBrake for Windows support
Forum rules
An Activity Log is required for support requests. Please read How-to get an activity log? for details on how and why this should be provided.
Post Reply
Matrixprime83
Posts: 3
Joined: Sun Jun 28, 2020 5:45 pm

H.265 (AMD VCE) File Compression Help

Post by Matrixprime83 »

Description of problem or question:

I recently pulled my Radeon RX 580 card out of my computer to try to use Topaz AI Video Upconvert program but after the results were less than impressive decided to return the card and reinstall my old RX 580. I normally encode ripped movies from MakeMKV with the following setup:

Video Codec: H.265 (AMD VCE)
Constant Quality: 22 RF
Framerate (FPS): Same as Source (Variable Framerate)
Encoder Preset: Quality
Encoder Profile: Main
Encoder Level: Auto

When I encoded my latest purchase (3:10 to Yuma on BD) the rip output was 26.5 GB. Once I ran the encode the final size of the file was at 1.42 GB.

After the reinstall of the card and update of all video card drivers. If I run AMD VCE encode the file outputs at 7.07 GB :shock: . I also encoded the same file using using H.265 10-bit and the final file size was 3.00 GB and again using just H.265 and the final file size was 2.72 GB. My rig setup is listed below and I've attached my logs. AMD VCE typically takes 45 minutes to encode, H.265 and H.265 10-bit typically take around 3 hours to encode, which is why I chose to go with AMD VCE.

Rig Setup
  • AMD Ryzen 7 1700
  • 16.0 GB RAM
  • ATI AMD Radeon RX 580

Steps to reproduce the problem (If Applicable):




HandBrake version (e.g., 1.0.0):

1.3.3


Operating system and version (e.g., Ubuntu 16.04 LTS, macOS 10.13 High Sierra, Windows 10 Creators Update):

Windows 10 Home 64-Bit


HandBrake Activity Log ***required*** (see How-to get an activity log)

Code: Select all

HandBrake 1.3.3 (2020061300)
OS: Microsoft Windows NT 10.0.18362.0
CPU: AMD Ryzen 7 1700 Eight-Core Processor          
Ram: 16277 MB, 
GPU Information:
  AMD Radeon (TM) RX 580 - 27.20.1017.1011
Screen: 1920x1080
Temp Dir: C:\Users\ajaco\AppData\Local\Temp\
Install Dir: C:\Program Files\HandBrake
Data Dir: C:\Users\ajaco\AppData\Roaming\HandBrake

-------------------------------------------


# Starting Encode ...

[09:20:55] base preset: H.265 10-Bit Custom (Modified)
[09:20:55] hb_init: starting libhb thread
[09:20:55] Starting work at: Sun Jun 28 09:20:55 2020
[09:20:55] 1 job(s) to process
[09:20:55] json job:
{
  "Audio": {
    "AudioList": [
      {
        "Bitrate": 160,
        "DRC": 0.0,
        "Encoder": "av_aac",
        "Gain": 0.0,
        "Mixdown": 6,
        "NormalizeMixLevel": false,
        "Samplerate": 0,
        "Name": "Surround 7.1",
        "Track": 0,
        "DitherMethod": 0
      },
      {
        "Bitrate": 384,
        "DRC": 0.0,
        "Encoder": "av_aac",
        "Gain": 0.0,
        "Mixdown": 7,
        "NormalizeMixLevel": false,
        "Samplerate": 48000,
        "Name": "Surround 7.1",
        "Track": 0,
        "DitherMethod": 0
      }
    ],
    "CopyMask": [
      "copy:aac",
      "copy:ac3",
      "copy:dtshd",
      "copy:dts",
      "copy:eac3",
      "copy:flac",
      "copy:mp3",
      "copy:truehd"
    ],
    "FallbackEncoder": "ac3"
  },
  "Destination": {
    "ChapterList": [
      {
        "Name": "Chapter 1"
      },
      {
        "Name": "Chapter 2"
      },
      {
        "Name": "Chapter 3"
      },
      {
        "Name": "Chapter 4"
      },
      {
        "Name": "Chapter 5"
      },
      {
        "Name": "Chapter 6"
      },
      {
        "Name": "Chapter 7"
      },
      {
        "Name": "Chapter 8"
      },
      {
        "Name": "Chapter 9"
      },
      {
        "Name": "Chapter 10"
      },
      {
        "Name": "Chapter 11"
      },
      {
        "Name": "Chapter 12"
      },
      {
        "Name": "Chapter 13"
      },
      {
        "Name": "Chapter 14"
      },
      {
        "Name": "Chapter 15"
      },
      {
        "Name": "Chapter 16"
      }
    ],
    "ChapterMarkers": true,
    "AlignAVStart": false,
    "File": "F:\\Plex Media Server Files\\Media Recovery\\310 to Yuma (H.265 amd vce).mkv",
    "Mp4Options": {
      "IpodAtom": false,
      "Mp4Optimize": false
    },
    "Mux": "av_mkv"
  },
  "Filters": {
    "FilterList": [
      {
        "ID": 4,
        "Settings": {
          "mode": "7"
        }
      },
      {
        "ID": 3,
        "Settings": {
          "block-height": "16",
          "block-thresh": "40",
          "block-width": "16",
          "filter-mode": "2",
          "mode": "3",
          "motion-thresh": "1",
          "spatial-metric": "2",
          "spatial-thresh": "1"
        }
      },
      {
        "ID": 12,
        "Settings": {
          "crop-bottom": "140",
          "crop-left": "0",
          "crop-right": "0",
          "crop-top": "140",
          "height": "800",
          "width": "1920"
        }
      },
      {
        "ID": 6,
        "Settings": {
          "mode": "0"
        }
      }
    ]
  },
  "PAR": {
    "Num": 1,
    "Den": 1
  },
  "Metadata": {},
  "SequenceID": 0,
  "Source": {
    "Angle": 1,
    "Range": {
      "Type": "chapter",
      "Start": 1,
      "End": 16
    },
    "Title": 1,
    "Path": "C:\\Users\\ajaco\\OneDrive\\Desktop\\MakeMKV Output\\title_t00.mkv"
  },
  "Subtitle": {
    "Search": {
      "Burn": true,
      "Default": false,
      "Enable": true,
      "Forced": true
    },
    "SubtitleList": [
      {
        "Burn": false,
        "Default": false,
        "Forced": false,
        "ID": 1,
        "Offset": 0,
        "Track": 0
      }
    ]
  },
  "Video": {
    "Encoder": "vce_h265",
    "Level": "auto",
    "TwoPass": false,
    "Turbo": false,
    "ColorMatrixCode": 0,
    "Options": "",
    "Preset": "balanced",
    "Profile": "main",
    "Quality": 22.0,
    "QSV": {
      "Decode": false,
      "AsyncDepth": 0
    }
  }
}
[09:20:55] CPU:
[09:20:55]  - logical processor count: 16
[09:20:55] Intel Quick Sync Video support: no
[09:20:55] hb_scan: path=C:\Users\ajaco\OneDrive\Desktop\MakeMKV Output\title_t00.mkv, title_index=1
udfread ERROR: ECMA 167 Volume Recognition failed
src/libbluray/disc/disc.c:323: failed opening UDF image C:\Users\ajaco\OneDrive\Desktop\MakeMKV Output\title_t00.mkv
src/libbluray/disc/disc.c:424: error opening file BDMV\index.bdmv
src/libbluray/disc/disc.c:424: error opening file BDMV\BACKUP\index.bdmv
src/libbluray/bluray.c:2585: nav_get_title_list(C:\Users\ajaco\OneDrive\Desktop\MakeMKV Output\title_t00.mkv\) failed
[09:20:55] bd: not a bd - trying as a stream/file instead
libdvdnav: Using dvdnav version 6.0.1
libdvdread: Encrypted DVD support unavailable.
libdvdread:DVDOpenFileUDF:UDFFindFile /VIDEO_TS/VIDEO_TS.IFO failed
libdvdread:DVDOpenFileUDF:UDFFindFile /VIDEO_TS/VIDEO_TS.BUP failed
libdvdread: Can't open file VIDEO_TS.IFO.
libdvdnav: vm: failed to read VIDEO_TS.IFO
[09:20:55] dvd: not a dvd - trying as a stream/file instead
Input #0, matroska,webm, from 'C:\Users\ajaco\OneDrive\Desktop\MakeMKV Output\title_t00.mkv':
  Metadata:
    encoder         : libmakemkv v1.15.1 (1.3.5/1.4.7) win(x64-release)
    creation_time   : 2020-06-28T13:29:13.000000Z
  Duration: 02:02:30.56, start: 0.000000, bitrate: 31072 kb/s
    Chapter #0:0: start 0.000000, end 452.243458
    Metadata:
      title           : Chapter 01
    Chapter #0:1: start 452.243458, end 852.017833
    Metadata:
      title           : Chapter 02
    Chapter #0:2: start 852.017833, end 1143.725917
    Metadata:
      title           : Chapter 03
    Chapter #0:3: start 1143.725917, end 1823.363208
    Metadata:
      title           : Chapter 04
    Chapter #0:4: start 1823.363208, end 2200.615083
    Metadata:
      title           : Chapter 05
    Chapter #0:5: start 2200.615083, end 2713.752708
    Metadata:
      title           : Chapter 06
    Chapter #0:6: start 2713.752708, end 3118.448667
    Metadata:
      title           : Chapter 07
    Chapter #0:7: start 3118.448667, end 3455.160042
    Metadata:
      title           : Chapter 08
    Chapter #0:8: start 3455.160042, end 3946.943000
    Metadata:
      title           : Chapter 09
    Chapter #0:9: start 3946.943000, end 4613.775833
    Metadata:
      title           : Chapter 10
    Chapter #0:10: start 4613.775833, end 5098.426667
    Metadata:
      title           : Chapter 11
    Chapter #0:11: start 5098.426667, end 5710.079375
    Metadata:
      title           : Chapter 12
    Chapter #0:12: start 5710.079375, end 6235.562667
    Metadata:
      title           : Chapter 13
    Chapter #0:13: start 6235.562667, end 6631.333042
    Metadata:
      title           : Chapter 14
    Chapter #0:14: start 6631.333042, end 6892.051833
    Metadata:
      title           : Chapter 15
    Chapter #0:15: start 6892.051833, end 7350.555000
    Metadata:
      title           : Chapter 16
    Stream #0:0(eng): Video: vc1 (Advanced) (WVC1 / 0x31435657), yuv420p(progressive), 1920x1080 [SAR 1:1 DAR 16:9], 23.98 fps, 23.98 tbr, 1k tbn, 47.95 tbc
    Metadata:
      BPS-eng         : 23936232
      DURATION-eng    : 02:02:30.551541666
      NUMBER_OF_FRAMES-eng: 176237
      NUMBER_OF_BYTES-eng: 21993061847
      SOURCE_ID-eng   : 001011
      _STATISTICS_WRITING_APP-eng: MakeMKV v1.15.1 win(x64-release)
      _STATISTICS_WRITING_DATE_UTC-eng: 2020-06-28 13:29:13
      _STATISTICS_TAGS-eng: BPS DURATION NUMBER_OF_FRAMES NUMBER_OF_BYTES SOURCE_ID
    Stream #0:1(eng): Audio: pcm_s16le ([1][0][0][0] / 0x0001), 48000 Hz, 7.1, s16, 6144 kb/s (default)
    Metadata:
      title           : Surround 7.1
      BPS-eng         : 6144000
      DURATION-eng    : 02:02:30.555000000
      NUMBER_OF_FRAMES-eng: 220517
      NUMBER_OF_BYTES-eng: 5645226240
      SOURCE_ID-eng   : 001100
      _STATISTICS_WRITING_APP-eng: MakeMKV v1.15.1 win(x64-release)
      _STATISTICS_WRITING_DATE_UTC-eng: 2020-06-28 13:29:13
      _STATISTICS_TAGS-eng: BPS DURATION NUMBER_OF_FRAMES NUMBER_OF_BYTES SOURCE_ID
    Stream #0:2(eng): Audio: ac3, 48000 Hz, 5.1(side), fltp, 640 kb/s
    Metadata:
      title           : Surround 5.1
      BPS-eng         : 640000
      DURATION-eng    : 02:02:30.560000000
      NUMBER_OF_FRAMES-eng: 229705
      NUMBER_OF_BYTES-eng: 588044800
      SOURCE_ID-eng   : 001101
      _STATISTICS_WRITING_APP-eng: MakeMKV v1.15.1 win(x64-release)
      _STATISTICS_WRITING_DATE_UTC-eng: 2020-06-28 13:29:13
      _STATISTICS_TAGS-eng: BPS DURATION NUMBER_OF_FRAMES NUMBER_OF_BYTES SOURCE_ID
    Stream #0:3(eng): Audio: ac3, 48000 Hz, stereo, fltp, 192 kb/s
    Metadata:
      title           : Stereo
      BPS-eng         : 192000
      DURATION-eng    : 02:02:30.560000000
      NUMBER_OF_FRAMES-eng: 229705
      NUMBER_OF_BYTES-eng: 176413440
      SOURCE_ID-eng   : 001102
      _STATISTICS_WRITING_APP-eng: MakeMKV v1.15.1 win(x64-release)
      _STATISTICS_WRITING_DATE_UTC-eng: 2020-06-28 13:29:13
      _STATISTICS_TAGS-eng: BPS DURATION NUMBER_OF_FRAMES NUMBER_OF_BYTES SOURCE_ID
    Stream #0:4(eng): Subtitle: hdmv_pgs_subtitle
    Metadata:
      BPS-eng         : 39447
      DURATION-eng    : 02:00:45.425687500
      NUMBER_OF_FRAMES-eng: 2480
      NUMBER_OF_BYTES-eng: 35726404
      SOURCE_ID-eng   : 001200
      _STATISTICS_WRITING_APP-eng: MakeMKV v1.15.1 win(x64-release)
      _STATISTICS_WRITING_DATE_UTC-eng: 2020-06-28 13:29:13
      _STATISTICS_TAGS-eng: BPS DURATION NUMBER_OF_FRAMES NUMBER_OF_BYTES SOURCE_ID
    Stream #0:5(spa): Subtitle: hdmv_pgs_subtitle
    Metadata:
      BPS-eng         : 37246
      DURATION-eng    : 01:56:19.326520833
      NUMBER_OF_FRAMES-eng: 2495
      NUMBER_OF_BYTES-eng: 32494208
      SOURCE_ID-eng   : 001201
      _STATISTICS_WRITING_APP-eng: MakeMKV v1.15.1 win(x64-release)
      _STATISTICS_WRITING_DATE_UTC-eng: 2020-06-28 13:29:13
      _STATISTICS_TAGS-eng: BPS DURATION NUMBER_OF_FRAMES NUMBER_OF_BYTES SOURCE_ID
    Stream #0:6(eng): Subtitle: hdmv_pgs_subtitle
    Metadata:
      BPS-eng         : 14591
      DURATION-eng    : 01:56:26.083270833
      NUMBER_OF_FRAMES-eng: 1887
      NUMBER_OF_BYTES-eng: 12742318
      SOURCE_ID-eng   : 001202
      _STATISTICS_WRITING_APP-eng: MakeMKV v1.15.1 win(x64-release)
      _STATISTICS_WRITING_DATE_UTC-eng: 2020-06-28 13:29:13
      _STATISTICS_TAGS-eng: BPS DURATION NUMBER_OF_FRAMES NUMBER_OF_BYTES SOURCE_ID
    Stream #0:7(eng): Subtitle: hdmv_pgs_subtitle
    Metadata:
      BPS-eng         : 70419
      DURATION-eng    : 01:56:02.601479166
      NUMBER_OF_FRAMES-eng: 219
      NUMBER_OF_BYTES-eng: 61287559
      SOURCE_ID-eng   : 001203
      _STATISTICS_WRITING_APP-eng: MakeMKV v1.15.1 win(x64-release)
      _STATISTICS_WRITING_DATE_UTC-eng: 2020-06-28 13:29:13
      _STATISTICS_TAGS-eng: BPS DURATION NUMBER_OF_FRAMES NUMBER_OF_BYTES SOURCE_ID
[09:20:55] scan: decoding previews for title 1
[09:20:55] scan: audio 0x1: pcm_s16le, rate=48000Hz, bitrate=6144000 English (pcm_s16le) (7.1 ch) (6144 kbps)
[09:20:55] scan: audio 0x2: ac3, rate=48000Hz, bitrate=640000 English (AC3) (5.1 ch) (Dolby Digital EX) (640 kbps)
[09:20:55] scan: audio 0x3: ac3, rate=48000Hz, bitrate=192000 English (AC3) (2.0 ch) (Dolby Surround) (192 kbps)
[09:20:55] scan: 10 previews, 1920x1080, 23.976 fps, autocrop = 140/140/0/0, aspect 16:9, PAR 1:1
[09:20:55] libhb: scan thread found 1 valid title(s)
[09:20:55] Starting Task: Subtitle Scan
[09:20:55] Skipping vfr filter
[09:20:56] job configuration:
[09:20:56]  * source
[09:20:56]    + C:\Users\ajaco\OneDrive\Desktop\MakeMKV Output\title_t00.mkv
[09:20:56]    + title 1, chapter(s) 1 to 16
[09:20:56]    + container: matroska,webm
[09:20:56]    + data rate: 31072 kbps
[09:20:56]  * destination
[09:20:56]    + F:\Plex Media Server Files\Media Recovery\310 to Yuma (H.265 amd vce).mkv
[09:20:56]    + container: Matroska (libavformat)
[09:20:56]      + chapter markers
[09:20:56]  * video track
[09:20:56]    + decoder: vc1
[09:20:56]    + filters
[09:20:56]      + Comb Detect (mode=3:spatial-metric=2:motion-thresh=1:spatial-thresh=1:filter-mode=2:block-thresh=40:block-width=16:block-height=16)
[09:20:56]      + Decomb (mode=39)
[09:20:56]      + Crop and Scale (width=1920:height=800:crop-top=140:crop-bottom=140:crop-left=0:crop-right=0)
[09:20:56]        + source: 1920 * 1080, crop (140/140/0/0): 1920 * 800, scale: 1920 * 800
[09:20:56]    + Output geometry
[09:20:56]      + storage dimensions: 1920 x 800
[09:20:56]      + pixel aspect ratio: 1 : 1
[09:20:56]      + display dimensions: 1920 x 800
[09:20:56]  * Foreign Audio Search: Render/Burn-in, Forced Only
[09:20:56]    + subtitle, English [PGS] (track 0, id 0x4, Picture)
[09:20:56]    + subtitle, English [PGS] (track 2, id 0x6, Picture)
[09:20:56]    + subtitle, English [PGS] (track 3, id 0x7, Picture)
[09:20:56] sync: expecting 176237 video frames
[09:25:29] reader: done. 1 scr changes
[09:25:29] work: average encoding speed for job is 0.000000 fps
[09:25:29] comb detect: heavy 0 | light 0 | uncombed 0 | total 0
[09:25:29] decomb: deinterlaced 0 | blended 0 | unfiltered 0 | total 0
[09:25:30] vc1-decoder done: 0 frames, 0 decoder errors
[09:25:30] sync: got 0 frames, 176237 expected
[09:25:30] Subtitle track 0 (id 0x4) 'English [PGS]': 1241 hits (0 forced)
[09:25:30] Subtitle track 2 (id 0x6) 'English [PGS]': 1770 hits (0 forced)
[09:25:30] Subtitle track 3 (id 0x7) 'English [PGS]': 114 hits (0 forced)
[09:25:30] Found a subtitle candidate with id 0x7
[09:25:30] Starting Task: Encoding Pass
[09:25:30] Skipping vfr filter
[09:25:30] job configuration:
[09:25:30]  * source
[09:25:30]    + C:\Users\ajaco\OneDrive\Desktop\MakeMKV Output\title_t00.mkv
[09:25:30]    + title 1, chapter(s) 1 to 16
[09:25:30]    + container: matroska,webm
[09:25:30]    + data rate: 31072 kbps
[09:25:30]  * destination
[09:25:30]    + F:\Plex Media Server Files\Media Recovery\310 to Yuma (H.265 amd vce).mkv
[09:25:30]    + container: Matroska (libavformat)
[09:25:30]      + chapter markers
[09:25:30]  * video track
[09:25:30]    + decoder: vc1
[09:25:30]    + filters
[09:25:30]      + Comb Detect (mode=3:spatial-metric=2:motion-thresh=1:spatial-thresh=1:filter-mode=2:block-thresh=40:block-width=16:block-height=16)
[09:25:30]      + Decomb (mode=39)
[09:25:30]      + Subtitle renderer ()
[09:25:30]      + Crop and Scale (width=1920:height=800:crop-top=140:crop-bottom=140:crop-left=0:crop-right=0)
[09:25:30]        + source: 1920 * 1080, crop (140/140/0/0): 1920 * 800, scale: 1920 * 800
[09:25:30]    + Output geometry
[09:25:30]      + storage dimensions: 1920 x 800
[09:25:30]      + pixel aspect ratio: 1 : 1
[09:25:30]      + display dimensions: 1920 x 800
[09:25:30]    + encoder: H.265 (AMD VCE)
[09:25:30]      + preset:  balanced
[09:25:30]      + profile: main
[09:25:30]      + level:   auto
[09:25:30]      + quality: 22.00 (QP)
[09:25:30]      + color profile: 1-1-1
[09:25:30]  * subtitle track 1, English [PGS] (track 3, id 0x7, Picture) -> Render/Burn-in
[09:25:30]  * subtitle track 2, English [PGS] (track 0, id 0x4, Picture) -> Passthrough
[09:25:30]  * audio track 1
[09:25:30]    + name: Surround 7.1
[09:25:30]    + decoder: English (pcm_s16le) (7.1 ch) (6144 kbps) (track 1, id 0x1)
[09:25:30]      + bitrate: 6144 kbps, samplerate: 48000 Hz
[09:25:30]    + mixdown: Dolby Pro Logic II
[09:25:30]    + dither: none
[09:25:30]    + encoder: AAC (libavcodec)
[09:25:30]      + bitrate: 160 kbps, samplerate: 48000 Hz
[09:25:30]  * audio track 2
[09:25:30]    + name: Surround 7.1
[09:25:30]    + decoder: English (pcm_s16le) (7.1 ch) (6144 kbps) (track 1, id 0x1)
[09:25:30]      + bitrate: 6144 kbps, samplerate: 48000 Hz
[09:25:30]    + mixdown: 5.1 Channels
[09:25:30]    + dither: none
[09:25:30]    + encoder: AAC (libavcodec)
[09:25:30]      + bitrate: 384 kbps, samplerate: 48000 Hz
[09:25:30] sync: expecting 176237 video frames
[09:25:30] encavcodecInit: H.265 (AMD VCE)
[09:25:30] encavcodec: encoding at QP 22.00
[09:25:30] encavcodec: encoding with stored aspect 1/1
[09:25:31] sync: first pts video is 0
[09:25:31] sync: "Chapter 1" (1) at frame 1 time 0
[09:25:31] sync: first pts audio 0x1 is 0
[09:25:31] sync: first pts audio 0x1 is 0
[09:25:49] sync: first pts subtitle 0x7 is 5675670
[09:26:02] sync: first pts subtitle 0x4 is 8866350
[09:28:19] sync: "Chapter 2" (2) at frame 10844 time 40701911
[09:31:13] sync: "Chapter 3" (3) at frame 20429 time 76681605
[09:33:10] sync: "Chapter 4" (4) at frame 27423 time 102935332
[09:37:34] sync: "Chapter 5" (5) at frame 43718 time 164102688
[09:39:51] sync: "Chapter 6" (6) at frame 52763 time 198055357
[09:43:04] sync: "Chapter 7" (7) at frame 65066 time 244237743
[09:45:25] sync: "Chapter 8" (8) at frame 74769 time 280660380
[09:47:27] sync: "Chapter 9" (9) at frame 82842 time 310964403
[09:50:56] sync: "Chapter 10" (10) at frame 94633 time 355224870
[09:55:02] sync: "Chapter 11" (11) at frame 110621 time 415239825
[09:58:02] sync: "Chapter 12" (12) at frame 122241 time 458858400
[10:02:00] sync: "Chapter 13" (13) at frame 136906 time 513907143
[10:05:10] sync: "Chapter 14" (14) at frame 149505 time 561200640
[10:07:39] sync: "Chapter 15" (15) at frame 158994 time 596819973
[10:09:17] sync: "Chapter 16" (16) at frame 165245 time 620284665
[10:11:10] reader: done. 1 scr changes
[10:11:11] work: average encoding speed for job is 64.309387 fps
[10:11:11] comb detect: heavy 2819 | light 49496 | uncombed 123921 | total 176236
[10:11:11] decomb: deinterlaced 2819 | blended 49496 | unfiltered 123921 | total 176236
[10:11:11] pcm_s16le-decoder done: 220517 frames, 0 decoder errors
[10:11:11] pcm_s16le-decoder done: 220517 frames, 0 decoder errors
[10:11:11] vc1-decoder done: 176237 frames, 0 decoder errors
[10:11:11] sync: got 176236 frames, 176237 expected
[10:11:11] sync: framerate min 23.976 fps, max 23.976 fps, avg 23.976 fps
[10:11:12] mux: track 0, 176236 frames, 7053396419 bytes, 7676.55 kbps, fifo 4096
[10:11:12] mux: track 1, 344558 frames, 147818901 bytes, 160.88 kbps, fifo 8192
[10:11:12] mux: track 2, 344558 frames, 353329104 bytes, 384.54 kbps, fifo 8192
[10:11:12] mux: track 3, 2480 frames, 35726404 bytes, 38.88 kbps, fifo 32
[10:11:12] Finished work at: Sun Jun 28 10:11:12 2020
[10:11:12] libhb: work result = 0

# Encode Completed ...


rollin_eng
Veteran User
Posts: 3558
Joined: Wed May 04, 2011 11:06 pm

Re: H.265 (AMD VCE) File Compression Help

Post by rollin_eng »

I’m not sure what the question is?

Your previous encode was 1.42gb and the new one is 7.07gb?

If this is the case see if the log for the old encode exists so we can see what you used to do.
Matrixprime83
Posts: 3
Joined: Sun Jun 28, 2020 5:45 pm

Re: H.265 (AMD VCE) File Compression Help

Post by Matrixprime83 »

Code: Select all

HandBrake 1.3.1 (2020010400)
OS: Microsoft Windows NT 10.0.18362.0
CPU: AMD Ryzen 7 1700 Eight-Core Processor          
Ram: 16277 MB, 
GPU Information:
  AMD Radeon (TM) RX 580 - 25.20.15026.2
Screen: 1920x1080
Temp Dir: C:\Users\ajaco\AppData\Local\Temp\
Install Dir: C:\Program Files\HandBrake
Data Dir: C:\Users\ajaco\AppData\Roaming\HandBrake

-------------------------------------------


# Starting Encode ...

[05:27:54] base preset: H.265 MKV 1080P Custom
[17:27:54] hb_init: starting libhb thread
[17:27:54] Starting work at: Mon Jun 15 17:27:54 2020
[17:27:54] 1 job(s) to process
[17:27:54] json job:
{
  "Audio": {
    "AudioList": [
      {
        "Bitrate": 160,
        "DRC": 0.0,
        "Encoder": "av_aac",
        "Gain": 0.0,
        "Mixdown": 6,
        "NormalizeMixLevel": false,
        "Samplerate": 0,
        "Name": "Surround 7.1",
        "Track": 0,
        "DitherMethod": 0
      },
      {
        "Bitrate": 384,
        "DRC": 0.0,
        "Encoder": "av_aac",
        "Gain": 0.0,
        "Mixdown": 7,
        "NormalizeMixLevel": false,
        "Samplerate": 48000,
        "Name": "Surround 7.1",
        "Track": 0,
        "DitherMethod": 0
      }
    ],
    "CopyMask": [
      "copy:aac",
      "copy:ac3",
      "copy:dtshd",
      "copy:dts",
      "copy:eac3",
      "copy:flac",
      "copy:mp3",
      "copy:truehd"
    ],
    "FallbackEncoder": "ac3"
  },
  "Destination": {
    "ChapterList": [
      {
        "Name": "Chapter 1"
      },
      {
        "Name": "Chapter 2"
      },
      {
        "Name": "Chapter 3"
      },
      {
        "Name": "Chapter 4"
      },
      {
        "Name": "Chapter 5"
      },
      {
        "Name": "Chapter 6"
      },
      {
        "Name": "Chapter 7"
      },
      {
        "Name": "Chapter 8"
      },
      {
        "Name": "Chapter 9"
      },
      {
        "Name": "Chapter 10"
      },
      {
        "Name": "Chapter 11"
      },
      {
        "Name": "Chapter 12"
      },
      {
        "Name": "Chapter 13"
      },
      {
        "Name": "Chapter 14"
      },
      {
        "Name": "Chapter 15"
      },
      {
        "Name": "Chapter 16"
      }
    ],
    "ChapterMarkers": true,
    "AlignAVStart": false,
    "File": "F:\\Plex Media Server Files\\Media Recovery\\310 To Yuma (2007)-1.mkv",
    "Mp4Options": {
      "IpodAtom": false,
      "Mp4Optimize": false
    },
    "Mux": "mkv"
  },
  "Filters": {
    "FilterList": [
      {
        "ID": 4,
        "Settings": {
          "mode": "7"
        }
      },
      {
        "ID": 3,
        "Settings": {
          "block-height": "16",
          "block-thresh": "40",
          "block-width": "16",
          "filter-mode": "2",
          "mode": "3",
          "motion-thresh": "1",
          "spatial-metric": "2",
          "spatial-thresh": "1"
        }
      },
      {
        "ID": 12,
        "Settings": {
          "crop-bottom": "140",
          "crop-left": "0",
          "crop-right": "0",
          "crop-top": "140",
          "height": "800",
          "width": "1920"
        }
      },
      {
        "ID": 6,
        "Settings": {
          "mode": "0"
        }
      }
    ]
  },
  "PAR": {
    "Num": 1,
    "Den": 1
  },
  "Metadata": {},
  "SequenceID": 0,
  "Source": {
    "Angle": 1,
    "Range": {
      "Type": "chapter",
      "Start": 1,
      "End": 16
    },
    "Title": 1,
    "Path": "C:\\Users\\ajaco\\OneDrive\\Desktop\\MakeMKV Output\\310 to Yuma (2007).mkv"
  },
  "Subtitle": {
    "Search": {
      "Burn": true,
      "Default": false,
      "Enable": true,
      "Forced": true
    },
    "SubtitleList": [
      {
        "Burn": false,
        "Default": false,
        "Forced": false,
        "ID": 1,
        "Offset": 0,
        "Track": 0
      }
    ]
  },
  "Video": {
    "Encoder": "vce_h265",
    "Level": "auto",
    "Bitrate": 0,
    "TwoPass": false,
    "Turbo": false,
    "ColorMatrixCode": 0,
    "Options": "",
    "Preset": "quality",
    "Profile": "main",
    "QSV": {
      "Decode": false,
      "AsyncDepth": 0
    }
  }
}
[17:27:54] CPU:
[17:27:54]  - logical processor count: 16
[17:27:54] Intel Quick Sync Video support: no
[17:27:54] hb_scan: path=C:\Users\ajaco\OneDrive\Desktop\MakeMKV Output\310 to Yuma (2007).mkv, title_index=1
udfread ERROR: ECMA 167 Volume Recognition failed
src/libbluray/disc/disc.c:323: failed opening UDF image C:\Users\ajaco\OneDrive\Desktop\MakeMKV Output\310 to Yuma (2007).mkv
src/libbluray/disc/disc.c:424: error opening file BDMV\index.bdmv
src/libbluray/disc/disc.c:424: error opening file BDMV\BACKUP\index.bdmv
src/libbluray/bluray.c:2585: nav_get_title_list(C:\Users\ajaco\OneDrive\Desktop\MakeMKV Output\310 to Yuma (2007).mkv\) failed
[17:27:54] bd: not a bd - trying as a stream/file instead
libdvdnav: Using dvdnav version 6.0.1
libdvdread: Encrypted DVD support unavailable.
libdvdread:DVDOpenFileUDF:UDFFindFile /VIDEO_TS/VIDEO_TS.IFO failed
libdvdread:DVDOpenFileUDF:UDFFindFile /VIDEO_TS/VIDEO_TS.BUP failed
libdvdread: Can't open file VIDEO_TS.IFO.
libdvdnav: vm: failed to read VIDEO_TS.IFO
[17:27:54] dvd: not a dvd - trying as a stream/file instead
Input #0, matroska,webm, from 'C:\Users\ajaco\OneDrive\Desktop\MakeMKV Output\310 to Yuma (2007).mkv':
  Metadata:
    encoder         : libmakemkv v1.15.1 (1.3.5/1.4.7) win(x64-release)
    creation_time   : 2020-06-14T21:51:12.000000Z
  Duration: 02:02:30.56, start: 0.000000, bitrate: 31072 kb/s
    Chapter #0:0: start 0.000000, end 452.243458
    Metadata:
      title           : Chapter 01
    Chapter #0:1: start 452.243458, end 852.017833
    Metadata:
      title           : Chapter 02
    Chapter #0:2: start 852.017833, end 1143.725917
    Metadata:
      title           : Chapter 03
    Chapter #0:3: start 1143.725917, end 1823.363208
    Metadata:
      title           : Chapter 04
    Chapter #0:4: start 1823.363208, end 2200.615083
    Metadata:
      title           : Chapter 05
    Chapter #0:5: start 2200.615083, end 2713.752708
    Metadata:
      title           : Chapter 06
    Chapter #0:6: start 2713.752708, end 3118.448667
    Metadata:
      title           : Chapter 07
    Chapter #0:7: start 3118.448667, end 3455.160042
    Metadata:
      title           : Chapter 08
    Chapter #0:8: start 3455.160042, end 3946.943000
    Metadata:
      title           : Chapter 09
    Chapter #0:9: start 3946.943000, end 4613.775833
    Metadata:
      title           : Chapter 10
    Chapter #0:10: start 4613.775833, end 5098.426667
    Metadata:
      title           : Chapter 11
    Chapter #0:11: start 5098.426667, end 5710.079375
    Metadata:
      title           : Chapter 12
    Chapter #0:12: start 5710.079375, end 6235.562667
    Metadata:
      title           : Chapter 13
    Chapter #0:13: start 6235.562667, end 6631.333042
    Metadata:
      title           : Chapter 14
    Chapter #0:14: start 6631.333042, end 6892.051833
    Metadata:
      title           : Chapter 15
    Chapter #0:15: start 6892.051833, end 7350.555000
    Metadata:
      title           : Chapter 16
    Stream #0:0(eng): Video: vc1 (Advanced) (WVC1 / 0x31435657), yuv420p(progressive), 1920x1080 [SAR 1:1 DAR 16:9], 23.98 fps, 23.98 tbr, 1k tbn, 47.95 tbc
    Metadata:
      BPS-eng         : 23936232
      DURATION-eng    : 02:02:30.551541666
      NUMBER_OF_FRAMES-eng: 176237
      NUMBER_OF_BYTES-eng: 21993061847
      SOURCE_ID-eng   : 001011
      _STATISTICS_WRITING_APP-eng: MakeMKV v1.15.1 win(x64-release)
      _STATISTICS_WRITING_DATE_UTC-eng: 2020-06-14 21:51:12
      _STATISTICS_TAGS-eng: BPS DURATION NUMBER_OF_FRAMES NUMBER_OF_BYTES SOURCE_ID
    Stream #0:1(eng): Audio: pcm_s16le ([1][0][0][0] / 0x0001), 48000 Hz, 7.1, s16, 6144 kb/s (default)
    Metadata:
      title           : Surround 7.1
      BPS-eng         : 6144000
      DURATION-eng    : 02:02:30.555000000
      NUMBER_OF_FRAMES-eng: 220517
      NUMBER_OF_BYTES-eng: 5645226240
      SOURCE_ID-eng   : 001100
      _STATISTICS_WRITING_APP-eng: MakeMKV v1.15.1 win(x64-release)
      _STATISTICS_WRITING_DATE_UTC-eng: 2020-06-14 21:51:12
      _STATISTICS_TAGS-eng: BPS DURATION NUMBER_OF_FRAMES NUMBER_OF_BYTES SOURCE_ID
    Stream #0:2(eng): Audio: ac3, 48000 Hz, 5.1(side), fltp, 640 kb/s
    Metadata:
      title           : Surround 5.1
      BPS-eng         : 640000
      DURATION-eng    : 02:02:30.560000000
      NUMBER_OF_FRAMES-eng: 229705
      NUMBER_OF_BYTES-eng: 588044800
      SOURCE_ID-eng   : 001101
      _STATISTICS_WRITING_APP-eng: MakeMKV v1.15.1 win(x64-release)
      _STATISTICS_WRITING_DATE_UTC-eng: 2020-06-14 21:51:12
      _STATISTICS_TAGS-eng: BPS DURATION NUMBER_OF_FRAMES NUMBER_OF_BYTES SOURCE_ID
    Stream #0:3(eng): Audio: ac3, 48000 Hz, stereo, fltp, 192 kb/s
    Metadata:
      title           : Stereo
      BPS-eng         : 192000
      DURATION-eng    : 02:02:30.560000000
      NUMBER_OF_FRAMES-eng: 229705
      NUMBER_OF_BYTES-eng: 176413440
      SOURCE_ID-eng   : 001102
      _STATISTICS_WRITING_APP-eng: MakeMKV v1.15.1 win(x64-release)
      _STATISTICS_WRITING_DATE_UTC-eng: 2020-06-14 21:51:12
      _STATISTICS_TAGS-eng: BPS DURATION NUMBER_OF_FRAMES NUMBER_OF_BYTES SOURCE_ID
    Stream #0:4(eng): Subtitle: hdmv_pgs_subtitle
    Metadata:
      BPS-eng         : 39447
      DURATION-eng    : 02:00:45.425687500
      NUMBER_OF_FRAMES-eng: 2480
      NUMBER_OF_BYTES-eng: 35726404
      SOURCE_ID-eng   : 001200
      _STATISTICS_WRITING_APP-eng: MakeMKV v1.15.1 win(x64-release)
      _STATISTICS_WRITING_DATE_UTC-eng: 2020-06-14 21:51:12
      _STATISTICS_TAGS-eng: BPS DURATION NUMBER_OF_FRAMES NUMBER_OF_BYTES SOURCE_ID
    Stream #0:5(spa): Subtitle: hdmv_pgs_subtitle
    Metadata:
      BPS-eng         : 37246
      DURATION-eng    : 01:56:19.326520833
      NUMBER_OF_FRAMES-eng: 2495
      NUMBER_OF_BYTES-eng: 32494208
      SOURCE_ID-eng   : 001201
      _STATISTICS_WRITING_APP-eng: MakeMKV v1.15.1 win(x64-release)
      _STATISTICS_WRITING_DATE_UTC-eng: 2020-06-14 21:51:12
      _STATISTICS_TAGS-eng: BPS DURATION NUMBER_OF_FRAMES NUMBER_OF_BYTES SOURCE_ID
    Stream #0:6(eng): Subtitle: hdmv_pgs_subtitle
    Metadata:
      BPS-eng         : 14591
      DURATION-eng    : 01:56:26.083270833
      NUMBER_OF_FRAMES-eng: 1887
      NUMBER_OF_BYTES-eng: 12742318
      SOURCE_ID-eng   : 001202
      _STATISTICS_WRITING_APP-eng: MakeMKV v1.15.1 win(x64-release)
      _STATISTICS_WRITING_DATE_UTC-eng: 2020-06-14 21:51:12
      _STATISTICS_TAGS-eng: BPS DURATION NUMBER_OF_FRAMES NUMBER_OF_BYTES SOURCE_ID
    Stream #0:7(eng): Subtitle: hdmv_pgs_subtitle
    Metadata:
      BPS-eng         : 70419
      DURATION-eng    : 01:56:02.601479166
      NUMBER_OF_FRAMES-eng: 219
      NUMBER_OF_BYTES-eng: 61287559
      SOURCE_ID-eng   : 001203
      _STATISTICS_WRITING_APP-eng: MakeMKV v1.15.1 win(x64-release)
      _STATISTICS_WRITING_DATE_UTC-eng: 2020-06-14 21:51:12
      _STATISTICS_TAGS-eng: BPS DURATION NUMBER_OF_FRAMES NUMBER_OF_BYTES SOURCE_ID
[17:27:54] scan: decoding previews for title 1
[17:27:54] scan: audio 0x1: pcm_s16le, rate=48000Hz, bitrate=6144000 English (pcm_s16le) (7.1 ch) (6144 kbps)
[17:27:54] scan: audio 0x2: ac3, rate=48000Hz, bitrate=640000 English (AC3) (5.1 ch) (Dolby Digital EX) (640 kbps)
[17:27:54] scan: audio 0x3: ac3, rate=48000Hz, bitrate=192000 English (AC3) (2.0 ch) (Dolby Surround) (192 kbps)
[17:27:55] scan: 10 previews, 1920x1080, 23.976 fps, autocrop = 140/140/0/0, aspect 16:9, PAR 1:1
[17:27:55] libhb: scan thread found 1 valid title(s)
[17:27:55] Starting Task: Subtitle Scan
[17:27:55] Skipping vfr filter
[17:27:55] job configuration:
[17:27:55]  * source
[17:27:55]    + C:\Users\ajaco\OneDrive\Desktop\MakeMKV Output\310 to Yuma (2007).mkv
[17:27:55]    + title 1, chapter(s) 1 to 16
[17:27:55]    + container: matroska,webm
[17:27:55]    + data rate: 31072 kbps
[17:27:55]  * destination
[17:27:55]    + F:\Plex Media Server Files\Media Recovery\310 To Yuma (2007)-1.mkv
[17:27:55]    + container: Matroska (libavformat)
[17:27:55]      + chapter markers
[17:27:55]  * video track
[17:27:55]    + decoder: vc1
[17:27:55]    + filters
[17:27:55]      + Comb Detect (mode=3:spatial-metric=2:motion-thresh=1:spatial-thresh=1:filter-mode=2:block-thresh=40:block-width=16:block-height=16)
[17:27:55]      + Decomb (mode=39)
[17:27:55]      + Crop and Scale (width=1920:height=800:crop-top=140:crop-bottom=140:crop-left=0:crop-right=0)
[17:27:55]        + source: 1920 * 1080, crop (140/140/0/0): 1920 * 800, scale: 1920 * 800
[17:27:55]    + Output geometry
[17:27:55]      + storage dimensions: 1920 x 800
[17:27:55]      + pixel aspect ratio: 1 : 1
[17:27:55]      + display dimensions: 1920 x 800
[17:27:55]  * Foreign Audio Search: Render/Burn-in, Forced Only
[17:27:55]    + subtitle, English [PGS] (track 0, id 0x4, Picture)
[17:27:55]    + subtitle, English [PGS] (track 2, id 0x6, Picture)
[17:27:55]    + subtitle, English [PGS] (track 3, id 0x7, Picture)
[17:27:55] sync: expecting 176237 video frames
[17:31:43] reader: done. 1 scr changes
[17:31:43] work: average encoding speed for job is 0.000000 fps
[17:31:43] comb detect: heavy 0 | light 0 | uncombed 0 | total 0
[17:31:43] decomb: deinterlaced 0 | blended 0 | unfiltered 0 | total 0
[17:31:44] vc1-decoder done: 0 frames, 0 decoder errors
[17:31:44] sync: got 0 frames, 176237 expected
[17:31:44] Subtitle track 0 (id 0x4) 'English [PGS]': 1241 hits (0 forced)
[17:31:44] Subtitle track 2 (id 0x6) 'English [PGS]': 1770 hits (0 forced)
[17:31:44] Subtitle track 3 (id 0x7) 'English [PGS]': 114 hits (0 forced)
[17:31:44] Found a subtitle candidate with id 0x7
[17:31:44] Starting Task: Encoding Pass
[17:31:44] Skipping vfr filter
[17:31:44] job configuration:
[17:31:44]  * source
[17:31:44]    + C:\Users\ajaco\OneDrive\Desktop\MakeMKV Output\310 to Yuma (2007).mkv
[17:31:44]    + title 1, chapter(s) 1 to 16
[17:31:44]    + container: matroska,webm
[17:31:44]    + data rate: 31072 kbps
[17:31:44]  * destination
[17:31:44]    + F:\Plex Media Server Files\Media Recovery\310 To Yuma (2007)-1.mkv
[17:31:44]    + container: Matroska (libavformat)
[17:31:44]      + chapter markers
[17:31:44]  * video track
[17:31:44]    + decoder: vc1
[17:31:44]    + filters
[17:31:44]      + Comb Detect (mode=3:spatial-metric=2:motion-thresh=1:spatial-thresh=1:filter-mode=2:block-thresh=40:block-width=16:block-height=16)
[17:31:44]      + Decomb (mode=39)
[17:31:44]      + Subtitle renderer ()
[17:31:44]      + Crop and Scale (width=1920:height=800:crop-top=140:crop-bottom=140:crop-left=0:crop-right=0)
[17:31:44]        + source: 1920 * 1080, crop (140/140/0/0): 1920 * 800, scale: 1920 * 800
[17:31:44]    + Output geometry
[17:31:44]      + storage dimensions: 1920 x 800
[17:31:44]      + pixel aspect ratio: 1 : 1
[17:31:44]      + display dimensions: 1920 x 800
[17:31:44]    + encoder: H.265 (AMD VCE)
[17:31:44]      + preset:  quality
[17:31:44]      + profile: main
[17:31:44]      + level:   auto
[17:31:44]      + bitrate: 1000 kbps, pass: 0
[17:31:44]      + color profile: 1-1-1
[17:31:44]  * subtitle track 1, English [PGS] (track 3, id 0x7, Picture) -> Render/Burn-in
[17:31:44]  * subtitle track 2, English [PGS] (track 0, id 0x4, Picture) -> Passthrough
[17:31:44]  * audio track 1
[17:31:44]    + name: Surround 7.1
[17:31:44]    + decoder: English (pcm_s16le) (7.1 ch) (6144 kbps) (track 1, id 0x1)
[17:31:44]      + bitrate: 6144 kbps, samplerate: 48000 Hz
[17:31:44]    + mixdown: Dolby Pro Logic II
[17:31:44]    + dither: none
[17:31:44]    + encoder: AAC (libavcodec)
[17:31:44]      + bitrate: 160 kbps, samplerate: 48000 Hz
[17:31:44]  * audio track 2
[17:31:44]    + name: Surround 7.1
[17:31:44]    + decoder: English (pcm_s16le) (7.1 ch) (6144 kbps) (track 1, id 0x1)
[17:31:44]      + bitrate: 6144 kbps, samplerate: 48000 Hz
[17:31:44]    + mixdown: 5.1 Channels
[17:31:44]    + dither: none
[17:31:44]    + encoder: AAC (libavcodec)
[17:31:44]      + bitrate: 384 kbps, samplerate: 48000 Hz
[17:31:44] sync: expecting 176237 video frames
[17:31:44] encavcodecInit: H.265 (AMD VCE)
[17:31:44] encavcodec: encoding at rc=vbr_peak Bitrate 1000
[17:31:44] encavcodec: encoding with stored aspect 1/1
[17:31:44] sync: first pts video is 0
[17:31:44] sync: "Chapter 1" (1) at frame 1 time 0
[17:31:44] sync: first pts audio 0x1 is 0
[17:31:44] sync: first pts audio 0x1 is 0
[17:32:29] sync: first pts subtitle 0x7 is 5675670
[17:32:55] sync: first pts subtitle 0x4 is 8866350
[17:37:11] sync: "Chapter 2" (2) at frame 10844 time 40701911
[17:42:00] sync: "Chapter 3" (3) at frame 20429 time 76681605
[17:45:33] sync: "Chapter 4" (4) at frame 27423 time 102935332
[17:53:44] sync: "Chapter 5" (5) at frame 43718 time 164102688
[17:58:16] sync: "Chapter 6" (6) at frame 52763 time 198055357
[18:04:27] sync: "Chapter 7" (7) at frame 65066 time 244237743
[18:09:18] sync: "Chapter 8" (8) at frame 74769 time 280660380
[18:13:23] sync: "Chapter 9" (9) at frame 82842 time 310964403
[18:19:20] sync: "Chapter 10" (10) at frame 94633 time 355224870
[18:27:26] sync: "Chapter 11" (11) at frame 110621 time 415239825
[18:33:17] sync: "Chapter 12" (12) at frame 122241 time 458858400
[18:40:37] sync: "Chapter 13" (13) at frame 136906 time 513907143
[18:46:58] sync: "Chapter 14" (14) at frame 149505 time 561200640
[18:51:43] sync: "Chapter 15" (15) at frame 158994 time 596819973
[18:54:51] sync: "Chapter 16" (16) at frame 165245 time 620284665
[19:00:18] reader: done. 1 scr changes
[19:00:21] work: average encoding speed for job is 33.155220 fps
[19:00:21] comb detect: heavy 2819 | light 49496 | uncombed 123921 | total 176236
[19:00:21] decomb: deinterlaced 2819 | blended 49496 | unfiltered 123921 | total 176236
[19:00:21] pcm_s16le-decoder done: 220517 frames, 0 decoder errors
[19:00:21] pcm_s16le-decoder done: 220517 frames, 0 decoder errors
[19:00:21] vc1-decoder done: 176237 frames, 0 decoder errors
[19:00:21] sync: got 176236 frames, 176237 expected
[19:00:21] sync: framerate min 23.976 fps, max 23.976 fps, avg 23.976 fps
[19:00:22] mux: track 0, 176236 frames, 988581804 bytes, 1075.92 kbps, fifo 4096
[19:00:22] mux: track 1, 344558 frames, 147818901 bytes, 160.88 kbps, fifo 8192
[19:00:22] mux: track 2, 344558 frames, 353329104 bytes, 384.54 kbps, fifo 8192
[19:00:22] mux: track 3, 2480 frames, 35726404 bytes, 38.88 kbps, fifo 64
[19:00:22] Finished work at: Mon Jun 15 19:00:22 2020
[19:00:22] libhb: work result = 0

# Encode Completed ...

Here's the log from my first encode from the 15th that created the initial small file.
User avatar
s55
HandBrake Team
Posts: 9829
Joined: Sun Dec 24, 2006 1:05 pm

Re: H.265 (AMD VCE) File Compression Help

Post by s55 »

[09:25:30] + encoder: H.265 (AMD VCE)
[09:25:30] + preset: balanced
[09:25:30] + profile: main
[09:25:30] + level: auto
[09:25:30] + quality: 22.00 (QP)

vs

[17:31:44] + encoder: H.265 (AMD VCE)
[17:31:44] + preset: quality
[17:31:44] + profile: main
[17:31:44] + level: auto
[17:31:44] + bitrate: 1000 kbps, pass: 0


Very different settings there.
Matrixprime83
Posts: 3
Joined: Sun Jun 28, 2020 5:45 pm

Re: H.265 (AMD VCE) File Compression Help

Post by Matrixprime83 »

Hmm I must have changed the preset by accident. So I should just have to set click off off constant quality and click on avg bitrate. I don't think I had a value in there before and it should at least generate a file size closer to what I'm used to seeing if not exactly. I guess I'm still unfamiliar with the program.

Thanks for all the help!
musicvid
Veteran User
Posts: 3718
Joined: Sat Jun 27, 2009 1:19 am

Re: H.265 (AMD VCE) File Compression Help

Post by musicvid »

Just save your custom settings as a preset if you plan on using them again.
Post Reply