No valid source or titles found

HandBrake for Windows support
Forum rules
An Activity Log is required for support requests. Please read How-to get an activity log? for details on how and why this should be provided.
Post Reply
BryanDustin
Posts: 3
Joined: Mon Jun 22, 2020 1:52 am

No valid source or titles found

Post by BryanDustin »

Description of problem or question:

I'm trying to open an mp4 file on my laptop but it says that there is no valid source or titles found. I'm new to HandBrake and definitely not familiar with what's happening right now.

HandBrake version (e.g., 1.0.0): HandBrake Nightly 20200616205056-cbce13ddf-master (2020061601)


Operating system and version (e.g., Ubuntu 16.04 LTS, macOS 10.13 High Sierra, Windows 10 Creators Update): Windows 10


HandBrake Activity Log

Code: Select all




HandBrake Nightly 20200616205056-cbce13ddf-master (2020061601)
OS: Microsoft Windows NT 6.2.9200.0
CPU: Intel(R) Core(TM) i5-5200U CPU @ 2.20GHz
Ram: 8097 MB, 
GPU Information:
  Intel(R) HD Graphics 5500 - 20.19.15.4835
Screen: 1366x768
Temp Dir: C:\Users\BryanDustin\AppData\Local\Temp\
Install Dir: C:\Program Files\HandBrake Nightly
Data Dir: C:\Users\BryanDustin\AppData\Roaming\HandBrake\Nightly

-------------------------------------------

[09:51:49] Compile-time hardening features are enabled
Cannot load nvEncodeAPI64.dll
Cannot load nvEncodeAPI64.dll
Cannot load nvEncodeAPI64.dll
Cannot load nvEncodeAPI64.dll
Cannot load nvEncodeAPI64.dll
[09:53:01] hb_init: starting libhb thread

 # Starting Scan ...

[09:53:01] CPU: Intel(R) Core(TM) i5-5200U CPU @ 2.20GHz
[09:53:01]  - Intel microarchitecture Broadwell
[09:53:01]  - logical processor count: 4
[09:53:01] Intel Quick Sync Video support: yes
[09:53:01]  - Intel Media SDK hardware: API 1.20 (minimum: 1.3)
[09:53:01]  - H.264 encoder: yes
[09:53:01]     - preferred implementation: hardware (any) via D3D11
[09:53:01]     - capabilities (hardware):  breftype icq+la+i+downs vsinfo opt1 opt2+mbbrc+extbrc+trellis+ib_adapt+nmpslice
[09:53:01]  - H.265 encoder: no
[09:53:01] hb_scan: path=D:\BryanDustin\Academic\Videos\(2018) Media and Information Literacy - Production - Part 3.mp4, title_index=0
udfread ERROR: ECMA 167 Volume Recognition failed
src/libbluray/disc/disc.c:323: failed opening UDF image D:\BryanDustin\Academic\Videos\(2018) Media and Information Literacy - Production - Part 3.mp4
src/libbluray/disc/disc.c:424: error opening file BDMV\index.bdmv
src/libbluray/disc/disc.c:424: error opening file BDMV\BACKUP\index.bdmv
src/libbluray/bluray.c:2585: nav_get_title_list(D:\BryanDustin\Academic\Videos\(2018) Media and Information Literacy - Production - Part 3.mp4\) failed
[09:53:01] bd: not a bd - trying as a stream/file instead
libdvdnav: Using dvdnav version 6.0.1
libdvdread: Encrypted DVD support unavailable.
libdvdread:DVDOpenFileUDF:UDFFindFile /VIDEO_TS/VIDEO_TS.IFO failed
libdvdread:DVDOpenFileUDF:UDFFindFile /VIDEO_TS/VIDEO_TS.BUP failed
libdvdread: Can't open file VIDEO_TS.IFO.
libdvdnav: vm: failed to read VIDEO_TS.IFO
[09:53:01] dvd: not a dvd - trying as a stream/file instead
[h264 @ 00000239dc6b3c80] Overread VUI by 8 bits
[h264 @ 00000239dc6b3c80] Overread VUI by 8 bits
[h264 @ 00000239dc6b3c80] sps_id 0 out of range
[h264 @ 00000239dc6b3c80] sps_id 0 out of range
[h264 @ 00000239dc6b3c80] non-existing SPS 0 referenced in buffering period
[h264 @ 00000239dc6b3c80] non-existing PPS 0 referenced
[h264 @ 00000239dc6b3c80] decode_slice_header error
[h264 @ 00000239dc6b3c80] no frame!
[h264 @ 00000239dc6b3c80] non-existing PPS 0 referenced
[h264 @ 00000239dc6b3c80] decode_slice_header error
[h264 @ 00000239dc6b3c80] no frame!
[h264 @ 00000239dc6b3c80] non-existing PPS 0 referenced
[h264 @ 00000239dc6b3c80] decode_slice_header error
[h264 @ 00000239dc6b3c80] no frame!
[h264 @ 00000239dc6b3c80] non-existing PPS 0 referenced
[h264 @ 00000239dc6b3c80] decode_slice_header error
[h264 @ 00000239dc6b3c80] no frame!
[h264 @ 00000239dc6b3c80] non-existing PPS 0 referenced
[h264 @ 00000239dc6b3c80] decode_slice_header error
[h264 @ 00000239dc6b3c80] no frame!
[h264 @ 00000239dc6b3c80] non-existing PPS 0 referenced
[h264 @ 00000239dc6b3c80] decode_slice_header error
[h264 @ 00000239dc6b3c80] no frame!
[h264 @ 00000239dc6b3c80] non-existing PPS 0 referenced
[h264 @ 00000239dc6b3c80] decode_slice_header error
[h264 @ 00000239dc6b3c80] no frame!
[h264 @ 00000239dc6b3c80] non-existing PPS 0 referenced
[h264 @ 00000239dc6b3c80] decode_slice_header error
[h264 @ 00000239dc6b3c80] no frame!
[h264 @ 00000239dc6b3c80] non-existing PPS 0 referenced
[h264 @ 00000239dc6b3c80] decode_slice_header error
[h264 @ 00000239dc6b3c80] no frame!
[h264 @ 00000239dc6b3c80] non-existing PPS 0 referenced
[h264 @ 00000239dc6b3c80] decode_slice_header error
[h264 @ 00000239dc6b3c80] no frame!
[h264 @ 00000239dc6b3c80] non-existing PPS 0 referenced
[h264 @ 00000239dc6b3c80] decode_slice_header error
[h264 @ 00000239dc6b3c80] no frame!
[h264 @ 00000239dc6b3c80] non-existing PPS 0 referenced
[h264 @ 00000239dc6b3c80] decode_slice_header error
[h264 @ 00000239dc6b3c80] no frame!
[h264 @ 00000239dc6b3c80] non-existing PPS 0 referenced
[h264 @ 00000239dc6b3c80] decode_slice_header error
[h264 @ 00000239dc6b3c80] no frame!
[h264 @ 00000239dc6b3c80] non-existing PPS 0 referenced
[h264 @ 00000239dc6b3c80] decode_slice_header error
[h264 @ 00000239dc6b3c80] no frame!
[h264 @ 00000239dc6b3c80] non-existing PPS 0 referenced
[h264 @ 00000239dc6b3c80] decode_slice_header error
[h264 @ 00000239dc6b3c80] no frame!
[h264 @ 00000239dc6b3c80] non-existing PPS 0 referenced
[h264 @ 00000239dc6b3c80] decode_slice_header error
[h264 @ 00000239dc6b3c80] no frame!
[h264 @ 00000239dc6b3c80] non-existing PPS 0 referenced
[h264 @ 00000239dc6b3c80] decode_slice_header error
[h264 @ 00000239dc6b3c80] no frame!
[h264 @ 00000239dc6b3c80] non-existing PPS 0 referenced
[h264 @ 00000239dc6b3c80] decode_slice_header error
[h264 @ 00000239dc6b3c80] no frame!
[h264 @ 00000239dc6b3c80] non-existing PPS 0 referenced
[h264 @ 00000239dc6b3c80] decode_slice_header error
[h264 @ 00000239dc6b3c80] no frame!
[h264 @ 00000239dc6b3c80] non-existing PPS 0 referenced
[h264 @ 00000239dc6b3c80] decode_slice_header error
[h264 @ 00000239dc6b3c80] no frame!
[h264 @ 00000239dc6b3c80] non-existing PPS 0 referenced
[h264 @ 00000239dc6b3c80] decode_slice_header error
[h264 @ 00000239dc6b3c80] no frame!
[h264 @ 00000239dc6b3c80] non-existing PPS 0 referenced
[h264 @ 00000239dc6b3c80] decode_slice_header error
[h264 @ 00000239dc6b3c80] no frame!
[h264 @ 00000239dc6b3c80] non-existing PPS 0 referenced
[h264 @ 00000239dc6b3c80] decode_slice_header error
[h264 @ 00000239dc6b3c80] no frame!
[h264 @ 00000239dc6b3c80] non-existing PPS 0 referenced
[h264 @ 00000239dc6b3c80] decode_slice_header error
[h264 @ 00000239dc6b3c80] no frame!
[h264 @ 00000239dc6b3c80] non-existing PPS 0 referenced
[h264 @ 00000239dc6b3c80] decode_slice_header error
[h264 @ 00000239dc6b3c80] no frame!
[h264 @ 00000239dc6b3c80] non-existing PPS 0 referenced
[h264 @ 00000239dc6b3c80] decode_slice_header error
[h264 @ 00000239dc6b3c80] no frame!
[h264 @ 00000239dc6b3c80] non-existing PPS 0 referenced
[h264 @ 00000239dc6b3c80] decode_slice_header error
[h264 @ 00000239dc6b3c80] no frame!
[h264 @ 00000239dc6b3c80] non-existing PPS 0 referenced
[h264 @ 00000239dc6b3c80] decode_slice_header error
[h264 @ 00000239dc6b3c80] no frame!
[h264 @ 00000239dc6b3c80] non-existing PPS 0 referenced
[h264 @ 00000239dc6b3c80] decode_slice_header error
[h264 @ 00000239dc6b3c80] no frame!
[h264 @ 00000239dc6b3c80] non-existing PPS 0 referenced
[h264 @ 00000239dc6b3c80] decode_slice_header error
[h264 @ 00000239dc6b3c80] no frame!
[h264 @ 00000239dc6b3c80] non-existing PPS 0 referenced
[h264 @ 00000239dc6b3c80] decode_slice_header error
[h264 @ 00000239dc6b3c80] no frame!
[h264 @ 00000239dc6b3c80] non-existing PPS 0 referenced
[h264 @ 00000239dc6b3c80] decode_slice_header error
[h264 @ 00000239dc6b3c80] no frame!
[h264 @ 00000239dc6b3c80] non-existing PPS 0 referenced
[h264 @ 00000239dc6b3c80] decode_slice_header error
[h264 @ 00000239dc6b3c80] no frame!
[h264 @ 00000239dc6b3c80] non-existing PPS 0 referenced
[h264 @ 00000239dc6b3c80] decode_slice_header error
[h264 @ 00000239dc6b3c80] no frame!
[h264 @ 00000239dc6b3c80] non-existing PPS 0 referenced
[h264 @ 00000239dc6b3c80] decode_slice_header error
[h264 @ 00000239dc6b3c80] no frame!
[h264 @ 00000239dc6b3c80] non-existing PPS 0 referenced
[h264 @ 00000239dc6b3c80] decode_slice_header error
[h264 @ 00000239dc6b3c80] no frame!
[h264 @ 00000239dc6b3c80] non-existing PPS 0 referenced
[h264 @ 00000239dc6b3c80] decode_slice_header error
[h264 @ 00000239dc6b3c80] no frame!
[h264 @ 00000239dc6b3c80] non-existing PPS 0 referenced
[h264 @ 00000239dc6b3c80] decode_slice_header error
[h264 @ 00000239dc6b3c80] no frame!
[h264 @ 00000239dc6b3c80] non-existing PPS 0 referenced
[h264 @ 00000239dc6b3c80] decode_slice_header error
[h264 @ 00000239dc6b3c80] no frame!
[h264 @ 00000239dc6b3c80] non-existing PPS 0 referenced
[h264 @ 00000239dc6b3c80] decode_slice_header error
[h264 @ 00000239dc6b3c80] no frame!
[h264 @ 00000239dc6b3c80] non-existing PPS 0 referenced
[h264 @ 00000239dc6b3c80] decode_slice_header error
[h264 @ 00000239dc6b3c80] no frame!
[h264 @ 00000239dc6b3c80] non-existing PPS 0 referenced
[h264 @ 00000239dc6b3c80] decode_slice_header error
[h264 @ 00000239dc6b3c80] no frame!
[h264 @ 00000239dc6b3c80] non-existing PPS 0 referenced
[h264 @ 00000239dc6b3c80] decode_slice_header error
[h264 @ 00000239dc6b3c80] no frame!
[h264 @ 00000239dc6b3c80] non-existing PPS 0 referenced
[h264 @ 00000239dc6b3c80] decode_slice_header error
[h264 @ 00000239dc6b3c80] no frame!
[h264 @ 00000239dc6b3c80] non-existing PPS 0 referenced
[h264 @ 00000239dc6b3c80] decode_slice_header error
[h264 @ 00000239dc6b3c80] no frame!
[h264 @ 00000239dc6b3c80] non-existing PPS 0 referenced
[h264 @ 00000239dc6b3c80] decode_slice_header error
[h264 @ 00000239dc6b3c80] no frame!
[h264 @ 00000239dc6b3c80] non-existing PPS 0 referenced
[h264 @ 00000239dc6b3c80] decode_slice_header error
[h264 @ 00000239dc6b3c80] no frame!
[h264 @ 00000239dc6b3c80] non-existing PPS 0 referenced
[h264 @ 00000239dc6b3c80] decode_slice_header error
[h264 @ 00000239dc6b3c80] no frame!
[h264 @ 00000239dc6b3c80] non-existing PPS 0 referenced
[h264 @ 00000239dc6b3c80] decode_slice_header error
[h264 @ 00000239dc6b3c80] no frame!
[h264 @ 00000239dc6b3c80] non-existing PPS 0 referenced
[h264 @ 00000239dc6b3c80] decode_slice_header error
[h264 @ 00000239dc6b3c80] no frame!
[h264 @ 00000239dc6b3c80] non-existing PPS 0 referenced
[h264 @ 00000239dc6b3c80] decode_slice_header error
[h264 @ 00000239dc6b3c80] no frame!
[h264 @ 00000239dc6b3c80] non-existing PPS 0 referenced
[h264 @ 00000239dc6b3c80] decode_slice_header error
[h264 @ 00000239dc6b3c80] no frame!
[h264 @ 00000239dc6b3c80] non-existing PPS 0 referenced
[h264 @ 00000239dc6b3c80] decode_slice_header error
[h264 @ 00000239dc6b3c80] no frame!
[h264 @ 00000239dc6b3c80] non-existing PPS 0 referenced
[h264 @ 00000239dc6b3c80] decode_slice_header error
[h264 @ 00000239dc6b3c80] no frame!
[h264 @ 00000239dc6b3c80] non-existing PPS 0 referenced
[h264 @ 00000239dc6b3c80] decode_slice_header error
[h264 @ 00000239dc6b3c80] no frame!
[h264 @ 00000239dc6b3c80] non-existing PPS 0 referenced
[h264 @ 00000239dc6b3c80] decode_slice_header error
[h264 @ 00000239dc6b3c80] no frame!
[h264 @ 00000239dc6b3c80] non-existing PPS 0 referenced
[h264 @ 00000239dc6b3c80] decode_slice_header error
[h264 @ 00000239dc6b3c80] no frame!
[h264 @ 00000239dc6b3c80] non-existing PPS 0 referenced
[h264 @ 00000239dc6b3c80] decode_slice_header error
[h264 @ 00000239dc6b3c80] no frame!
[h264 @ 00000239dc6b3c80] non-existing PPS 0 referenced
[h264 @ 00000239dc6b3c80] decode_slice_header error
[h264 @ 00000239dc6b3c80] no frame!
[h264 @ 00000239dc6b3c80] non-existing PPS 0 referenced
[h264 @ 00000239dc6b3c80] decode_slice_header error
[h264 @ 00000239dc6b3c80] no frame!
[h264 @ 00000239dc6b3c80] non-existing PPS 0 referenced
[h264 @ 00000239dc6b3c80] decode_slice_header error
[h264 @ 00000239dc6b3c80] no frame!
[h264 @ 00000239dc6b3c80] non-existing PPS 0 referenced
[h264 @ 00000239dc6b3c80] decode_slice_header error
[h264 @ 00000239dc6b3c80] no frame!
[h264 @ 00000239dc6b3c80] non-existing PPS 0 referenced
[h264 @ 00000239dc6b3c80] decode_slice_header error
[h264 @ 00000239dc6b3c80] no frame!
[h264 @ 00000239dc6b3c80] non-existing PPS 0 referenced
[h264 @ 00000239dc6b3c80] decode_slice_header error
[h264 @ 00000239dc6b3c80] no frame!
[h264 @ 00000239dc6b3c80] non-existing PPS 0 referenced
[h264 @ 00000239dc6b3c80] decode_slice_header error
[h264 @ 00000239dc6b3c80] no frame!
[h264 @ 00000239dc6b3c80] non-existing PPS 0 referenced
[h264 @ 00000239dc6b3c80] decode_slice_header error
[h264 @ 00000239dc6b3c80] no frame!
[h264 @ 00000239dc6b3c80] non-existing PPS 0 referenced
[h264 @ 00000239dc6b3c80] decode_slice_header error
[h264 @ 00000239dc6b3c80] no frame!
[h264 @ 00000239dc6b3c80] non-existing PPS 0 referenced
[h264 @ 00000239dc6b3c80] decode_slice_header error
[h264 @ 00000239dc6b3c80] no frame!
[h264 @ 00000239dc6b3c80] non-existing PPS 0 referenced
[h264 @ 00000239dc6b3c80] decode_slice_header error
[h264 @ 00000239dc6b3c80] no frame!
[h264 @ 00000239dc6b3c80] non-existing PPS 0 referenced
[h264 @ 00000239dc6b3c80] decode_slice_header error
[h264 @ 00000239dc6b3c80] no frame!
[h264 @ 00000239dc6b3c80] non-existing PPS 0 referenced
[h264 @ 00000239dc6b3c80] decode_slice_header error
[h264 @ 00000239dc6b3c80] no frame!
[h264 @ 00000239dc6b3c80] non-existing PPS 0 referenced
[h264 @ 00000239dc6b3c80] decode_slice_header error
[h264 @ 00000239dc6b3c80] no frame!
[h264 @ 00000239dc6b3c80] non-existing PPS 0 referenced
[h264 @ 00000239dc6b3c80] decode_slice_header error
[h264 @ 00000239dc6b3c80] no frame!
[h264 @ 00000239dc6b3c80] non-existing PPS 0 referenced
[h264 @ 00000239dc6b3c80] decode_slice_header error
[h264 @ 00000239dc6b3c80] no frame!
[h264 @ 00000239dc6b3c80] non-existing PPS 0 referenced
[h264 @ 00000239dc6b3c80] decode_slice_header error
[h264 @ 00000239dc6b3c80] no frame!
[h264 @ 00000239dc6b3c80] non-existing PPS 0 referenced
[h264 @ 00000239dc6b3c80] decode_slice_header error
[h264 @ 00000239dc6b3c80] no frame!
[h264 @ 00000239dc6b3c80] non-existing PPS 0 referenced
[h264 @ 00000239dc6b3c80] decode_slice_header error
[h264 @ 00000239dc6b3c80] no frame!
[h264 @ 00000239dc6b3c80] non-existing PPS 0 referenced
[h264 @ 00000239dc6b3c80] decode_slice_header error
[h264 @ 00000239dc6b3c80] no frame!
[h264 @ 00000239dc6b3c80] non-existing PPS 0 referenced
[h264 @ 00000239dc6b3c80] decode_slice_header error
[h264 @ 00000239dc6b3c80] no frame!
[h264 @ 00000239dc6b3c80] non-existing PPS 0 referenced
[h264 @ 00000239dc6b3c80] decode_slice_header error
[h264 @ 00000239dc6b3c80] no frame!
[h264 @ 00000239dc6b3c80] non-existing PPS 0 referenced
[h264 @ 00000239dc6b3c80] decode_slice_header error
[h264 @ 00000239dc6b3c80] no frame!
[h264 @ 00000239dc6b3c80] non-existing PPS 0 referenced
[h264 @ 00000239dc6b3c80] decode_slice_header error
[h264 @ 00000239dc6b3c80] no frame!
[h264 @ 00000239dc6b3c80] non-existing PPS 0 referenced
[h264 @ 00000239dc6b3c80] decode_slice_header error
[h264 @ 00000239dc6b3c80] no frame!
[h264 @ 00000239dc6b3c80] non-existing PPS 0 referenced
[h264 @ 00000239dc6b3c80] decode_slice_header error
[h264 @ 00000239dc6b3c80] no frame!
[h264 @ 00000239dc6b3c80] non-existing PPS 0 referenced
[h264 @ 00000239dc6b3c80] decode_slice_header error
[h264 @ 00000239dc6b3c80] no frame!
[h264 @ 00000239dc6b3c80] non-existing PPS 0 referenced
[h264 @ 00000239dc6b3c80] decode_slice_header error
[h264 @ 00000239dc6b3c80] no frame!
[h264 @ 00000239dc6b3c80] non-existing PPS 0 referenced
[h264 @ 00000239dc6b3c80] decode_slice_header error
[h264 @ 00000239dc6b3c80] no frame!
[h264 @ 00000239dc6b3c80] non-existing SPS 0 referenced in buffering period
[h264 @ 00000239dc6b3c80] non-existing PPS 0 referenced
[h264 @ 00000239dc6b3c80] decode_slice_header error
[h264 @ 00000239dc6b3c80] no frame!
[h264 @ 00000239dc6b3c80] non-existing PPS 0 referenced
[h264 @ 00000239dc6b3c80] decode_slice_header error
[h264 @ 00000239dc6b3c80] no frame!
[h264 @ 00000239dc6b3c80] non-existing PPS 0 referenced
[h264 @ 00000239dc6b3c80] decode_slice_header error
[h264 @ 00000239dc6b3c80] no frame!
[h264 @ 00000239dc6b3c80] non-existing PPS 0 referenced
[h264 @ 00000239dc6b3c80] decode_slice_header error
[h264 @ 00000239dc6b3c80] no frame!
[h264 @ 00000239dc6b3c80] non-existing PPS 0 referenced
[h264 @ 00000239dc6b3c80] decode_slice_header error
[h264 @ 00000239dc6b3c80] no frame!
[h264 @ 00000239dc6b3c80] non-existing PPS 0 referenced
[h264 @ 00000239dc6b3c80] decode_slice_header error
[h264 @ 00000239dc6b3c80] no frame!
[h264 @ 00000239dc6b3c80] non-existing PPS 0 referenced
[h264 @ 00000239dc6b3c80] decode_slice_header error
[h264 @ 00000239dc6b3c80] no frame!
[h264 @ 00000239dc6b3c80] non-existing PPS 0 referenced
[h264 @ 00000239dc6b3c80] decode_slice_header error
[h264 @ 00000239dc6b3c80] no frame!
[h264 @ 00000239dc6b3c80] non-existing PPS 0 referenced
[h264 @ 00000239dc6b3c80] decode_slice_header error
[h264 @ 00000239dc6b3c80] no frame!
[h264 @ 00000239dc6b3c80] non-existing PPS 0 referenced
[h264 @ 00000239dc6b3c80] decode_slice_header error
[h264 @ 00000239dc6b3c80] no frame!
[h264 @ 00000239dc6b3c80] non-existing PPS 0 referenced
[h264 @ 00000239dc6b3c80] decode_slice_header error
[h264 @ 00000239dc6b3c80] no frame!
[h264 @ 00000239dc6b3c80] non-existing PPS 0 referenced
[h264 @ 00000239dc6b3c80] decode_slice_header error
[h264 @ 00000239dc6b3c80] no frame!
[h264 @ 00000239dc6b3c80] non-existing PPS 0 referenced
[h264 @ 00000239dc6b3c80] decode_slice_header error
[h264 @ 00000239dc6b3c80] no frame!
[h264 @ 00000239dc6b3c80] non-existing PPS 0 referenced
[h264 @ 00000239dc6b3c80] decode_slice_header error
[h264 @ 00000239dc6b3c80] no frame!
[h264 @ 00000239dc6b3c80] non-existing PPS 0 referenced
[h264 @ 00000239dc6b3c80] decode_slice_header error
[h264 @ 00000239dc6b3c80] no frame!
[h264 @ 00000239dc6b3c80] non-existing PPS 0 referenced
[h264 @ 00000239dc6b3c80] decode_slice_header error
[h264 @ 00000239dc6b3c80] no frame!
[h264 @ 00000239dc6b3c80] non-existing PPS 0 referenced
[h264 @ 00000239dc6b3c80] decode_slice_header error
[h264 @ 00000239dc6b3c80] no frame!
[h264 @ 00000239dc6b3c80] non-existing PPS 0 referenced
[h264 @ 00000239dc6b3c80] decode_slice_header error
[h264 @ 00000239dc6b3c80] no frame!
[h264 @ 00000239dc6b3c80] non-existing PPS 0 referenced
[h264 @ 00000239dc6b3c80] decode_slice_header error
[h264 @ 00000239dc6b3c80] no frame!
[h264 @ 00000239dc6b3c80] non-existing PPS 0 referenced
[h264 @ 00000239dc6b3c80] decode_slice_header error
[h264 @ 00000239dc6b3c80] no frame!
[h264 @ 00000239dc6b3c80] non-existing PPS 0 referenced
[h264 @ 00000239dc6b3c80] decode_slice_header error
[h264 @ 00000239dc6b3c80] no frame!
[h264 @ 00000239dc6b3c80] non-existing PPS 0 referenced
[h264 @ 00000239dc6b3c80] decode_slice_header error
[h264 @ 00000239dc6b3c80] no frame!
[h264 @ 00000239dc6b3c80] non-existing PPS 0 referenced
[h264 @ 00000239dc6b3c80] decode_slice_header error
[h264 @ 00000239dc6b3c80] no frame!
[h264 @ 00000239dc6b3c80] non-existing PPS 0 referenced
[h264 @ 00000239dc6b3c80] decode_slice_header error
[h264 @ 00000239dc6b3c80] no frame!
[h264 @ 00000239dc6b3c80] non-existing PPS 0 referenced
[h264 @ 00000239dc6b3c80] decode_slice_header error
[h264 @ 00000239dc6b3c80] no frame!
[h264 @ 00000239dc6b3c80] non-existing PPS 0 referenced
[h264 @ 00000239dc6b3c80] decode_slice_header error
[h264 @ 00000239dc6b3c80] no frame!
[h264 @ 00000239dc6b3c80] non-existing PPS 0 referenced
[h264 @ 00000239dc6b3c80] decode_slice_header error
[h264 @ 00000239dc6b3c80] no frame!
[h264 @ 00000239dc6b3c80] non-existing PPS 0 referenced
[h264 @ 00000239dc6b3c80] decode_slice_header error
[h264 @ 00000239dc6b3c80] no frame!
[h264 @ 00000239dc6b3c80] non-existing PPS 0 referenced
[h264 @ 00000239dc6b3c80] decode_slice_header error
[h264 @ 00000239dc6b3c80] no frame!
[h264 @ 00000239dc6b3c80] non-existing PPS 0 referenced
[h264 @ 00000239dc6b3c80] decode_slice_header error
[h264 @ 00000239dc6b3c80] no frame!
[h264 @ 00000239dc6b3c80] non-existing PPS 0 referenced
[h264 @ 00000239dc6b3c80] decode_slice_header error
[h264 @ 00000239dc6b3c80] no frame!
[h264 @ 00000239dc6b3c80] non-existing PPS 0 referenced
[h264 @ 00000239dc6b3c80] decode_slice_header error
[h264 @ 00000239dc6b3c80] no frame!
[h264 @ 00000239dc6b3c80] non-existing PPS 0 referenced
[h264 @ 00000239dc6b3c80] decode_slice_header error
[h264 @ 00000239dc6b3c80] no frame!
[h264 @ 00000239dc6b3c80] non-existing PPS 0 referenced
[h264 @ 00000239dc6b3c80] decode_slice_header error
[h264 @ 00000239dc6b3c80] no frame!
[h264 @ 00000239dc6b3c80] non-existing PPS 0 referenced
[h264 @ 00000239dc6b3c80] decode_slice_header error
[h264 @ 00000239dc6b3c80] no frame!
[h264 @ 00000239dc6b3c80] non-existing PPS 0 referenced
[h264 @ 00000239dc6b3c80] decode_slice_header error
[h264 @ 00000239dc6b3c80] no frame!
[h264 @ 00000239dc6b3c80] non-existing PPS 0 referenced
[h264 @ 00000239dc6b3c80] decode_slice_header error
[h264 @ 00000239dc6b3c80] no frame!
[h264 @ 00000239dc6b3c80] non-existing PPS 0 referenced
[h264 @ 00000239dc6b3c80] decode_slice_header error
[h264 @ 00000239dc6b3c80] no frame!
[h264 @ 00000239dc6b3c80] non-existing PPS 0 referenced
[h264 @ 00000239dc6b3c80] decode_slice_header error
[h264 @ 00000239dc6b3c80] no frame!
[h264 @ 00000239dc6b3c80] non-existing PPS 0 referenced
[h264 @ 00000239dc6b3c80] decode_slice_header error
[h264 @ 00000239dc6b3c80] no frame!
[h264 @ 00000239dc6b3c80] non-existing PPS 0 referenced
[h264 @ 00000239dc6b3c80] decode_slice_header error
[h264 @ 00000239dc6b3c80] no frame!
[h264 @ 00000239dc6b3c80] non-existing PPS 0 referenced
[h264 @ 00000239dc6b3c80] decode_slice_header error
[h264 @ 00000239dc6b3c80] no frame!
[h264 @ 00000239dc6b3c80] non-existing PPS 0 referenced
[h264 @ 00000239dc6b3c80] decode_slice_header error
[h264 @ 00000239dc6b3c80] no frame!
[h264 @ 00000239dc6b3c80] non-existing PPS 0 referenced
[h264 @ 00000239dc6b3c80] decode_slice_header error
[h264 @ 00000239dc6b3c80] no frame!
[h264 @ 00000239dc6b3c80] non-existing PPS 0 referenced
[h264 @ 00000239dc6b3c80] decode_slice_header error
[h264 @ 00000239dc6b3c80] no frame!
[h264 @ 00000239dc6b3c80] non-existing PPS 0 referenced
[h264 @ 00000239dc6b3c80] decode_slice_header error
[h264 @ 00000239dc6b3c80] no frame!
[h264 @ 00000239dc6b3c80] non-existing PPS 0 referenced
[h264 @ 00000239dc6b3c80] decode_slice_header error
[h264 @ 00000239dc6b3c80] no frame!
[h264 @ 00000239dc6b3c80] non-existing PPS 0 referenced
[h264 @ 00000239dc6b3c80] decode_slice_header error
[h264 @ 00000239dc6b3c80] no frame!
[h264 @ 00000239dc6b3c80] non-existing PPS 0 referenced
[h264 @ 00000239dc6b3c80] decode_slice_header error
[h264 @ 00000239dc6b3c80] no frame!
[h264 @ 00000239dc6b3c80] non-existing PPS 0 referenced
[h264 @ 00000239dc6b3c80] decode_slice_header error
[h264 @ 00000239dc6b3c80] no frame!
[h264 @ 00000239dc6b3c80] non-existing PPS 0 referenced
[h264 @ 00000239dc6b3c80] decode_slice_header error
[h264 @ 00000239dc6b3c80] no frame!
[h264 @ 00000239dc6b3c80] non-existing PPS 0 referenced
[h264 @ 00000239dc6b3c80] decode_slice_header error
[h264 @ 00000239dc6b3c80] no frame!
[h264 @ 00000239dc6b3c80] non-existing PPS 0 referenced
[h264 @ 00000239dc6b3c80] decode_slice_header error
[h264 @ 00000239dc6b3c80] no frame!
[h264 @ 00000239dc6b3c80] non-existing PPS 0 referenced
[h264 @ 00000239dc6b3c80] decode_slice_header error
[h264 @ 00000239dc6b3c80] no frame!
[h264 @ 00000239dc6b3c80] non-existing PPS 0 referenced
[h264 @ 00000239dc6b3c80] decode_slice_header error
[h264 @ 00000239dc6b3c80] no frame!
[h264 @ 00000239dc6b3c80] non-existing PPS 0 referenced
[h264 @ 00000239dc6b3c80] decode_slice_header error
[h264 @ 00000239dc6b3c80] no frame!
[h264 @ 00000239dc6b3c80] non-existing PPS 0 referenced
[h264 @ 00000239dc6b3c80] decode_slice_header error
[h264 @ 00000239dc6b3c80] no frame!
[h264 @ 00000239dc6b3c80] non-existing PPS 0 referenced
[h264 @ 00000239dc6b3c80] decode_slice_header error
[h264 @ 00000239dc6b3c80] no frame!
[h264 @ 00000239dc6b3c80] non-existing PPS 0 referenced
[h264 @ 00000239dc6b3c80] decode_slice_header error
[h264 @ 00000239dc6b3c80] no frame!
[h264 @ 00000239dc6b3c80] non-existing PPS 0 referenced
[h264 @ 00000239dc6b3c80] decode_slice_header error
[h264 @ 00000239dc6b3c80] no frame!
[h264 @ 00000239dc6b3c80] non-existing PPS 0 referenced
[h264 @ 00000239dc6b3c80] decode_slice_header error
[h264 @ 00000239dc6b3c80] no frame!
[h264 @ 00000239dc6b3c80] non-existing PPS 0 referenced
[h264 @ 00000239dc6b3c80] decode_slice_header error
[h264 @ 00000239dc6b3c80] no frame!
[h264 @ 00000239dc6b3c80] non-existing PPS 0 referenced
[h264 @ 00000239dc6b3c80] decode_slice_header error
[h264 @ 00000239dc6b3c80] no frame!
Input #0, mov,mp4,m4a,3gp,3g2,mj2, from 'D:\BryanDustin\Academic\Videos\(2018) Media and Information Literacy - Production - Part 3.mp4':
  Metadata:
    major_brand     : MSNV
    minor_version   : 16786688
    compatible_brands: MSNVisommp42
    creation_time   : 2018-05-10T15:00:53.000000Z
  Duration: 01:47:58.30, start: 0.021333, bitrate: 13124 kb/s
    Stream #0:0(eng): Video: h264 (avc1 / 0x31637661), none, 1920x1080, 12915 kb/s, 29.97 fps, 29.97 tbr, 30k tbn, 60k tbc (default)
    Metadata:
      creation_time   : 2018-05-10T15:00:53.000000Z
      handler_name    : Video Media Handler
      encoder         : AVC Coding
    Stream #0:1(eng): Audio: aac (LC) (mp4a / 0x6134706D), 48000 Hz, stereo, fltp, 204 kb/s (default)
    Metadata:
      creation_time   : 2018-05-10T15:00:53.000000Z
      handler_name    : Sound Media Handler
[09:53:01] scan: decoding previews for title 1
[h264 @ 00000239e13558c0] Overread VUI by 8 bits
[h264 @ 00000239e13558c0] Overread VUI by 8 bits
[h264 @ 00000239e13558c0] sps_id 0 out of range
[h264 @ 00000239e13558c0] sps_id 0 out of range
[h264 @ 00000239e13558c0] non-existing SPS 0 referenced in buffering period
[h264 @ 00000239e13558c0] non-existing PPS 0 referenced
[h264 @ 00000239e13558c0] decode_slice_header error
[h264 @ 00000239e13558c0] no frame!
[h264 @ 00000239e13558c0] non-existing PPS 0 referenced
[h264 @ 00000239e13558c0] decode_slice_header error
[h264 @ 00000239e13558c0] no frame!
[h264 @ 00000239e13558c0] non-existing PPS 0 referenced
[h264 @ 00000239e13558c0] decode_slice_header error
[h264 @ 00000239e13558c0] no frame!
[h264 @ 00000239e13558c0] non-existing PPS 0 referenced
[h264 @ 00000239e13558c0] decode_slice_header error
[h264 @ 00000239e13558c0] no frame!
[h264 @ 00000239e13558c0] non-existing PPS 0 referenced
[h264 @ 00000239e13558c0] decode_slice_header error
[h264 @ 00000239e13558c0] no frame!
[h264 @ 00000239e13558c0] non-existing PPS 0 referenced
[h264 @ 00000239e13558c0] decode_slice_header error
[h264 @ 00000239e13558c0] no frame!
[h264 @ 00000239e13558c0] non-existing PPS 0 referenced
[h264 @ 00000239e13558c0] decode_slice_header error
[h264 @ 00000239e13558c0] no frame!
[h264 @ 00000239e13558c0] non-existing PPS 0 referenced
[h264 @ 00000239e13558c0] decode_slice_header error
[h264 @ 00000239e13558c0] no frame!
[h264 @ 00000239e13558c0] non-existing PPS 0 referenced
[h264 @ 00000239e13558c0] decode_slice_header error
[h264 @ 00000239e13558c0] no frame!
[h264 @ 00000239e13558c0] non-existing PPS 0 referenced
[h264 @ 00000239e13558c0] decode_slice_header error
[h264 @ 00000239e13558c0] no frame!
[h264 @ 00000239e13558c0] non-existing PPS 0 referenced
[h264 @ 00000239e13558c0] decode_slice_header error
[h264 @ 00000239e13558c0] no frame!
[h264 @ 00000239e13558c0] non-existing PPS 0 referenced
[h264 @ 00000239e13558c0] decode_slice_header error
[h264 @ 00000239e13558c0] no frame!
[h264 @ 00000239e13558c0] non-existing PPS 0 referenced
[h264 @ 00000239e13558c0] decode_slice_header error
[h264 @ 00000239e13558c0] no frame!
[h264 @ 00000239e13558c0] non-existing PPS 0 referenced
[h264 @ 00000239e13558c0] decode_slice_header error
[h264 @ 00000239e13558c0] no frame!
[h264 @ 00000239e13558c0] non-existing PPS 0 referenced
[h264 @ 00000239e13558c0] decode_slice_header error
[h264 @ 00000239e13558c0] no frame!
[h264 @ 00000239e13558c0] non-existing PPS 0 referenced
[h264 @ 00000239e13558c0] decode_slice_header error
[h264 @ 00000239e13558c0] no frame!
[h264 @ 00000239e13558c0] non-existing PPS 0 referenced
[h264 @ 00000239e13558c0] decode_slice_header error
[h264 @ 00000239e13558c0] no frame!
[h264 @ 00000239e13558c0] non-existing PPS 0 referenced
[h264 @ 00000239e13558c0] decode_slice_header error
[h264 @ 00000239e13558c0] no frame!
[h264 @ 00000239e13558c0] non-existing PPS 0 referenced
[h264 @ 00000239e13558c0] decode_slice_header error
[h264 @ 00000239e13558c0] no frame!
[h264 @ 00000239e13558c0] non-existing PPS 0 referenced
[h264 @ 00000239e13558c0] decode_slice_header error
[h264 @ 00000239e13558c0] no frame!
[h264 @ 00000239e13558c0] non-existing PPS 0 referenced
[h264 @ 00000239e13558c0] decode_slice_header error
[h264 @ 00000239e13558c0] no frame!
[h264 @ 00000239e13558c0] non-existing PPS 0 referenced
[h264 @ 00000239e13558c0] decode_slice_header error
[h264 @ 00000239e13558c0] no frame!
[h264 @ 00000239e13558c0] non-existing PPS 0 referenced
[h264 @ 00000239e13558c0] decode_slice_header error
[h264 @ 00000239e13558c0] no frame!
[h264 @ 00000239e13558c0] non-existing PPS 0 referenced
[h264 @ 00000239e13558c0] decode_slice_header error
[h264 @ 00000239e13558c0] no frame!
[h264 @ 00000239e13558c0] non-existing PPS 0 referenced
[h264 @ 00000239e13558c0] decode_slice_header error
[h264 @ 00000239e13558c0] no frame!
[h264 @ 00000239e13558c0] non-existing PPS 0 referenced
[h264 @ 00000239e13558c0] decode_slice_header error
[h264 @ 00000239e13558c0] no frame!
[h264 @ 00000239e13558c0] non-existing PPS 0 referenced
[h264 @ 00000239e13558c0] decode_slice_header error
[h264 @ 00000239e13558c0] no frame!
[h264 @ 00000239e13558c0] non-existing PPS 0 referenced
[h264 @ 00000239e13558c0] decode_slice_header error
[h264 @ 00000239e13558c0] no frame!
[h264 @ 00000239e13558c0] non-existing PPS 0 referenced
[h264 @ 00000239e13558c0] decode_slice_header error
[h264 @ 00000239e13558c0] no frame!
[h264 @ 00000239e13558c0] non-existing PPS 0 referenced
[h264 @ 00000239e13558c0] decode_slice_header error
[h264 @ 00000239e13558c0] no frame!
[h264 @ 00000239e13558c0] non-existing PPS 0 referenced
[h264 @ 00000239e13558c0] decode_slice_header error
[h264 @ 00000239e13558c0] no frame!
[h264 @ 00000239e13558c0] non-existing PPS 0 referenced
[h264 @ 00000239e13558c0] decode_slice_header error
[h264 @ 00000239e13558c0] no frame!
[h264 @ 00000239e13558c0] non-existing PPS 0 referenced
[h264 @ 00000239e13558c0] decode_slice_header error
[h264 @ 00000239e13558c0] no frame!
[h264 @ 00000239e13558c0] non-existing PPS 0 referenced
[h264 @ 00000239e13558c0] decode_slice_header error
[h264 @ 00000239e13558c0] no frame!
[h264 @ 00000239e13558c0] non-existing PPS 0 referenced
[h264 @ 00000239e13558c0] decode_slice_header error
[h264 @ 00000239e13558c0] no frame!
[h264 @ 00000239e13558c0] non-existing PPS 0 referenced
[h264 @ 00000239e13558c0] decode_slice_header error
[h264 @ 00000239e13558c0] no frame!
[h264 @ 00000239e13558c0] non-existing PPS 0 referenced
[h264 @ 00000239e13558c0] decode_slice_header error
[h264 @ 00000239e13558c0] no frame!
[h264 @ 00000239e13558c0] non-existing PPS 0 referenced
[h264 @ 00000239e13558c0] decode_slice_header error
[h264 @ 00000239e13558c0] no frame!
[h264 @ 00000239e13558c0] non-existing PPS 0 referenced
[h264 @ 00000239e13558c0] decode_slice_header error
[h264 @ 00000239e13558c0] no frame!
[h264 @ 00000239e13558c0] non-existing PPS 0 referenced
[h264 @ 00000239e13558c0] decode_slice_header error
[h264 @ 00000239e13558c0] no frame!
[h264 @ 00000239e13558c0] non-existing PPS 0 referenced
[h264 @ 00000239e13558c0] decode_slice_header error
[h264 @ 00000239e13558c0] no frame!
[h264 @ 00000239e13558c0] non-existing PPS 0 referenced
[h264 @ 00000239e13558c0] decode_slice_header error
[h264 @ 00000239e13558c0] no frame!
[h264 @ 00000239e13558c0] non-existing PPS 0 referenced
[h264 @ 00000239e13558c0] decode_slice_header error
[h264 @ 00000239e13558c0] no frame!
[h264 @ 00000239e13558c0] non-existing PPS 0 referenced
[h264 @ 00000239e13558c0] decode_slice_header error
[h264 @ 00000239e13558c0] no frame!
[h264 @ 00000239e13558c0] non-existing PPS 0 referenced
[h264 @ 00000239e13558c0] decode_slice_header error
[h264 @ 00000239e13558c0] no frame!
[h264 @ 00000239e13558c0] non-existing PPS 0 referenced
[h264 @ 00000239e13558c0] decode_slice_header error
[h264 @ 00000239e13558c0] no frame!
[h264 @ 00000239e13558c0] non-existing PPS 0 referenced
[h264 @ 00000239e13558c0] decode_slice_header error
[h264 @ 00000239e13558c0] no frame!
[h264 @ 00000239e13558c0] non-existing PPS 0 referenced
[h264 @ 00000239e13558c0] decode_slice_header error
[h264 @ 00000239e13558c0] no frame!
[h264 @ 00000239e13558c0] non-existing PPS 0 referenced
[h264 @ 00000239e13558c0] decode_slice_header error
[h264 @ 00000239e13558c0] no frame!
[h264 @ 00000239e13558c0] non-existing PPS 0 referenced
[h264 @ 00000239e13558c0] decode_slice_header error
[h264 @ 00000239e13558c0] no frame!
[h264 @ 00000239e13558c0] non-existing PPS 0 referenced
[h264 @ 00000239e13558c0] decode_slice_header error
[h264 @ 00000239e13558c0] no frame!
[h264 @ 00000239e13558c0] non-existing PPS 0 referenced
[h264 @ 00000239e13558c0] decode_slice_header error
[h264 @ 00000239e13558c0] no frame!
[h264 @ 00000239e13558c0] non-existing PPS 0 referenced
[h264 @ 00000239e13558c0] decode_slice_header error
[h264 @ 00000239e13558c0] no frame!
[h264 @ 00000239e13558c0] non-existing PPS 0 referenced
[h264 @ 00000239e13558c0] decode_slice_header error
[h264 @ 00000239e13558c0] no frame!
[h264 @ 00000239e13558c0] non-existing PPS 0 referenced
[h264 @ 00000239e13558c0] decode_slice_header error
[h264 @ 00000239e13558c0] no frame!
[h264 @ 00000239e13558c0] non-existing PPS 0 referenced
[h264 @ 00000239e13558c0] decode_slice_header error
[h264 @ 00000239e13558c0] no frame!
[h264 @ 00000239e13558c0] non-existing PPS 0 referenced
[h264 @ 00000239e13558c0] decode_slice_header error
[h264 @ 00000239e13558c0] no frame!
[h264 @ 00000239e13558c0] non-existing PPS 0 referenced
[h264 @ 00000239e13558c0] decode_slice_header error
[h264 @ 00000239e13558c0] no frame!
[h264 @ 00000239e13558c0] non-existing PPS 0 referenced
[h264 @ 00000239e13558c0] decode_slice_header error
[h264 @ 00000239e13558c0] no frame!
[h264 @ 00000239e13558c0] non-existing PPS 0 referenced
[h264 @ 00000239e13558c0] decode_slice_header error
[h264 @ 00000239e13558c0] no frame!
[h264 @ 00000239e13558c0] non-existing PPS 0 referenced
[h264 @ 00000239e13558c0] decode_slice_header error
[h264 @ 00000239e13558c0] no frame!
[h264 @ 00000239e13558c0] non-existing PPS 0 referenced
[h264 @ 00000239e13558c0] decode_slice_header error
[h264 @ 00000239e13558c0] no frame!
[h264 @ 00000239e13558c0] non-existing PPS 0 referenced
[h264 @ 00000239e13558c0] decode_slice_header error
[h264 @ 00000239e13558c0] no frame!
[h264 @ 00000239e13558c0] non-existing PPS 0 referenced
[h264 @ 00000239e13558c0] decode_slice_header error
[h264 @ 00000239e13558c0] no frame!
[h264 @ 00000239e13558c0] non-existing PPS 0 referenced
[h264 @ 00000239e13558c0] decode_slice_header error
[h264 @ 00000239e13558c0] no frame!
[h264 @ 00000239e13558c0] non-existing PPS 0 referenced
[h264 @ 00000239e13558c0] decode_slice_header error
[h264 @ 00000239e13558c0] no frame!
[h264 @ 00000239e13558c0] non-existing PPS 0 referenced
[h264 @ 00000239e13558c0] decode_slice_header error
[h264 @ 00000239e13558c0] no frame!
[h264 @ 00000239e13558c0] non-existing PPS 0 referenced
[h264 @ 00000239e13558c0] decode_slice_header error
[h264 @ 00000239e13558c0] no frame!
[h264 @ 00000239e13558c0] non-existing PPS 0 referenced
[h264 @ 00000239e13558c0] decode_slice_header error
[h264 @ 00000239e13558c0] no frame!
[h264 @ 00000239e13558c0] non-existing PPS 0 referenced
[h264 @ 00000239e13558c0] decode_slice_header error
[h264 @ 00000239e13558c0] no frame!
[h264 @ 00000239e13558c0] non-existing PPS 0 referenced
[h264 @ 00000239e13558c0] decode_slice_header error
[h264 @ 00000239e13558c0] no frame!
[h264 @ 00000239e13558c0] non-existing PPS 0 referenced
[h264 @ 00000239e13558c0] decode_slice_header error
[h264 @ 00000239e13558c0] no frame!
[h264 @ 00000239e13558c0] non-existing PPS 0 referenced
[h264 @ 00000239e13558c0] decode_slice_header error
[h264 @ 00000239e13558c0] no frame!
[h264 @ 00000239e13558c0] non-existing PPS 0 referenced
[h264 @ 00000239e13558c0] decode_slice_header error
[h264 @ 00000239e13558c0] no frame!
[h264 @ 00000239e13558c0] non-existing PPS 0 referenced
[h264 @ 00000239e13558c0] decode_slice_header error
[h264 @ 00000239e13558c0] no frame!
[h264 @ 00000239e13558c0] non-existing PPS 0 referenced
[h264 @ 00000239e13558c0] decode_slice_header error
[h264 @ 00000239e13558c0] no frame!
[h264 @ 00000239e13558c0] non-existing PPS 0 referenced
[h264 @ 00000239e13558c0] decode_slice_header error
[h264 @ 00000239e13558c0] no frame!
[h264 @ 00000239e13558c0] non-existing PPS 0 referenced
[h264 @ 00000239e13558c0] decode_slice_header error
[h264 @ 00000239e13558c0] no frame!
[h264 @ 00000239e13558c0] non-existing PPS 0 referenced
[h264 @ 00000239e13558c0] decode_slice_header error
[h264 @ 00000239e13558c0] no frame!
[h264 @ 00000239e13558c0] non-existing PPS 0 referenced
[h264 @ 00000239e13558c0] decode_slice_header error
[h264 @ 00000239e13558c0] no frame!
[h264 @ 00000239e13558c0] non-existing PPS 0 referenced
[h264 @ 00000239e13558c0] decode_slice_header error
[h264 @ 00000239e13558c0] no frame!
[h264 @ 00000239e13558c0] non-existing PPS 0 referenced
[h264 @ 00000239e13558c0] decode_slice_header error
[h264 @ 00000239e13558c0] no frame!
[h264 @ 00000239e13558c0] non-existing PPS 0 referenced
[h264 @ 00000239e13558c0] decode_slice_header error
[h264 @ 00000239e13558c0] no frame!
[h264 @ 00000239e13558c0] non-existing PPS 0 referenced
[h264 @ 00000239e13558c0] decode_slice_header error
[h264 @ 00000239e13558c0] no frame!
[h264 @ 00000239e13558c0] non-existing PPS 0 referenced
[h264 @ 00000239e13558c0] decode_slice_header error
[h264 @ 00000239e13558c0] no frame!
[h264 @ 00000239e13558c0] non-existing PPS 0 referenced
[h264 @ 00000239e13558c0] decode_slice_header error
[h264 @ 00000239e13558c0] no frame!
[h264 @ 00000239e13558c0] non-existing PPS 0 referenced
[h264 @ 00000239e13558c0] decode_slice_header error
[h264 @ 00000239e13558c0] no frame!
[h264 @ 00000239e13558c0] non-existing SPS 0 referenced in buffering period
[h264 @ 00000239e13558c0] non-existing PPS 0 referenced
[h264 @ 00000239e13558c0] decode_slice_header error
[h264 @ 00000239e13558c0] no frame!
[h264 @ 00000239e13558c0] non-existing PPS 0 referenced
[h264 @ 00000239e13558c0] decode_slice_header error
[h264 @ 00000239e13558c0] no frame!
[h264 @ 00000239e13558c0] non-existing PPS 0 referenced
[h264 @ 00000239e13558c0] decode_slice_header error
[h264 @ 00000239e13558c0] no frame!
[h264 @ 00000239e13558c0] non-existing PPS 0 referenced
[h264 @ 00000239e13558c0] decode_slice_header error
[h264 @ 00000239e13558c0] no frame!
[h264 @ 00000239e13558c0] non-existing PPS 0 referenced
[h264 @ 00000239e13558c0] decode_slice_header error
[h264 @ 00000239e13558c0] no frame!
[h264 @ 00000239e13558c0] non-existing PPS 0 referenced
[h264 @ 00000239e13558c0] decode_slice_header error
[h264 @ 00000239e13558c0] no frame!
[h264 @ 00000239e13558c0] non-existing PPS 0 referenced
[h264 @ 00000239e13558c0] decode_slice_header error
[h264 @ 00000239e13558c0] no frame!
[h264 @ 00000239e13558c0] non-existing PPS 0 referenced
[h264 @ 00000239e13558c0] decode_slice_header error
[h264 @ 00000239e13558c0] no frame!
[h264 @ 00000239e13558c0] non-existing PPS 0 referenced
[h264 @ 00000239e13558c0] decode_slice_header error
[h264 @ 00000239e13558c0] no frame!
[h264 @ 00000239e13558c0] non-existing PPS 0 referenced
[h264 @ 00000239e13558c0] decode_slice_header error
[h264 @ 00000239e13558c0] no frame!
[h264 @ 00000239e13558c0] non-existing PPS 0 referenced
[h264 @ 00000239e13558c0] decode_slice_header error
[h264 @ 00000239e13558c0] no frame!
[h264 @ 00000239e13558c0] non-existing PPS 0 referenced
[h264 @ 00000239e13558c0] decode_slice_header error
[h264 @ 00000239e13558c0] no frame!
[h264 @ 00000239e13558c0] non-existing PPS 0 referenced
[h264 @ 00000239e13558c0] decode_slice_header error
[h264 @ 00000239e13558c0] no frame!
[h264 @ 00000239e13558c0] non-existing PPS 0 referenced
[h264 @ 00000239e13558c0] decode_slice_header error
[h264 @ 00000239e13558c0] no frame!
[h264 @ 00000239e13558c0] non-existing PPS 0 referenced
[h264 @ 00000239e13558c0] decode_slice_header error
[h264 @ 00000239e13558c0] no frame!
[h264 @ 00000239e13558c0] non-existing PPS 0 referenced
[h264 @ 00000239e13558c0] decode_slice_header error
[h264 @ 00000239e13558c0] no frame!
[h264 @ 00000239e13558c0] non-existing PPS 0 referenced
[h264 @ 00000239e13558c0] decode_slice_header error
[h264 @ 00000239e13558c0] no frame!
[h264 @ 00000239e13558c0] non-existing PPS 0 referenced
[h264 @ 00000239e13558c0] decode_slice_header error
[h264 @ 00000239e13558c0] no frame!
[h264 @ 00000239e13558c0] non-existing PPS 0 referenced
[h264 @ 00000239e13558c0] decode_slice_header error
[h264 @ 00000239e13558c0] no frame!
[h264 @ 00000239e13558c0] non-existing PPS 0 referenced
[h264 @ 00000239e13558c0] decode_slice_header error
[h264 @ 00000239e13558c0] no frame!
[h264 @ 00000239e13558c0] non-existing PPS 0 referenced
[h264 @ 00000239e13558c0] decode_slice_header error
[h264 @ 00000239e13558c0] no frame!
[h264 @ 00000239e13558c0] non-existing PPS 0 referenced
[h264 @ 00000239e13558c0] decode_slice_header error
[h264 @ 00000239e13558c0] no frame!
[h264 @ 00000239e13558c0] non-existing PPS 0 referenced
[h264 @ 00000239e13558c0] decode_slice_header error
[h264 @ 00000239e13558c0] no frame!
[h264 @ 00000239e13558c0] non-existing PPS 0 referenced
[h264 @ 00000239e13558c0] decode_slice_header error
[h264 @ 00000239e13558c0] no frame!
[h264 @ 00000239e13558c0] non-existing PPS 0 referenced
[h264 @ 00000239e13558c0] decode_slice_header error
[h264 @ 00000239e13558c0] no frame!
[h264 @ 00000239e13558c0] non-existing PPS 0 referenced
[h264 @ 00000239e13558c0] decode_slice_header error
[h264 @ 00000239e13558c0] no frame!
[h264 @ 00000239e13558c0] non-existing PPS 0 referenced
[h264 @ 00000239e13558c0] decode_slice_header error
[h264 @ 00000239e13558c0] no frame!
[h264 @ 00000239e13558c0] non-existing PPS 0 referenced
[h264 @ 00000239e13558c0] decode_slice_header error
[h264 @ 00000239e13558c0] no frame!
[h264 @ 00000239e13558c0] non-existing PPS 0 referenced
[h264 @ 00000239e13558c0] decode_slice_header error
[h264 @ 00000239e13558c0] no frame!
[h264 @ 00000239e13558c0] non-existing PPS 0 referenced
[h264 @ 00000239e13558c0] decode_slice_header error
[h264 @ 00000239e13558c0] no frame!
[h264 @ 00000239e13558c0] non-existing PPS 0 referenced
[h264 @ 00000239e13558c0] decode_slice_header error
[h264 @ 00000239e13558c0] no frame!
[h264 @ 00000239e13558c0] non-existing PPS 0 referenced
[h264 @ 00000239e13558c0] decode_slice_header error
[h264 @ 00000239e13558c0] no frame!
[h264 @ 00000239e13558c0] non-existing PPS 0 referenced
[h264 @ 00000239e13558c0] decode_slice_header error
[h264 @ 00000239e13558c0] no frame!
[h264 @ 00000239e13558c0] non-existing PPS 0 referenced
[h264 @ 00000239e13558c0] decode_slice_header error
[h264 @ 00000239e13558c0] no frame!
[h264 @ 00000239e13558c0] non-existing PPS 0 referenced
[h264 @ 00000239e13558c0] decode_slice_header error
[h264 @ 00000239e13558c0] no frame!
[h264 @ 00000239e13558c0] non-existing PPS 0 referenced
[h264 @ 00000239e13558c0] decode_slice_header error
[h264 @ 00000239e13558c0] no frame!
[h264 @ 00000239e13558c0] non-existing PPS 0 referenced
[h264 @ 00000239e13558c0] decode_slice_header error
[h264 @ 00000239e13558c0] no frame!
[h264 @ 00000239e13558c0] non-existing PPS 0 referenced
[h264 @ 00000239e13558c0] decode_slice_header error
[h264 @ 00000239e13558c0] no frame!
[h264 @ 00000239e13558c0] non-existing PPS 0 referenced
[h264 @ 00000239e13558c0] decode_slice_header error
[h264 @ 00000239e13558c0] no frame!
[h264 @ 00000239e13558c0] non-existing PPS 0 referenced
[h264 @ 00000239e13558c0] decode_slice_header error
[h264 @ 00000239e13558c0] no frame!
[h264 @ 00000239e13558c0] non-existing PPS 0 referenced
[h264 @ 00000239e13558c0] decode_slice_header error
[h264 @ 00000239e13558c0] no frame!
[h264 @ 00000239e13558c0] non-existing PPS 0 referenced
[h264 @ 00000239e13558c0] decode_slice_header error
[h264 @ 00000239e13558c0] no frame!
[h264 @ 00000239e13558c0] non-existing PPS 0 referenced
[h264 @ 00000239e13558c0] decode_slice_header error
[h264 @ 00000239e13558c0] no frame!
[h264 @ 00000239e13558c0] non-existing PPS 0 referenced
[h264 @ 00000239e13558c0] decode_slice_header error
[h264 @ 00000239e13558c0] no frame!
[h264 @ 00000239e13558c0] non-existing PPS 0 referenced
[h264 @ 00000239e13558c0] decode_slice_header error
[h264 @ 00000239e13558c0] no frame!
[h264 @ 00000239e13558c0] non-existing PPS 0 referenced
[h264 @ 00000239e13558c0] decode_slice_header error
[h264 @ 00000239e13558c0] no frame!
[h264 @ 00000239e13558c0] non-existing PPS 0 referenced
[h264 @ 00000239e13558c0] decode_slice_header error
[h264 @ 00000239e13558c0] no frame!
[h264 @ 00000239e13558c0] non-existing PPS 0 referenced
[h264 @ 00000239e13558c0] decode_slice_header error
[h264 @ 00000239e13558c0] no frame!
[h264 @ 00000239e13558c0] non-existing PPS 0 referenced
[h264 @ 00000239e13558c0] decode_slice_header error
[h264 @ 00000239e13558c0] no frame!
[h264 @ 00000239e13558c0] non-existing PPS 0 referenced
[h264 @ 00000239e13558c0] decode_slice_header error
[h264 @ 00000239e13558c0] no frame!
[h264 @ 00000239e13558c0] non-existing PPS 0 referenced
[h264 @ 00000239e13558c0] decode_slice_header error
[h264 @ 00000239e13558c0] no frame!
[h264 @ 00000239e13558c0] non-existing PPS 0 referenced
[h264 @ 00000239e13558c0] decode_slice_header error
[h264 @ 00000239e13558c0] no frame!
[h264 @ 00000239e13558c0] non-existing PPS 0 referenced
[h264 @ 00000239e13558c0] decode_slice_header error
[h264 @ 00000239e13558c0] no frame!
[h264 @ 00000239e13558c0] non-existing PPS 0 referenced
[h264 @ 00000239e13558c0] decode_slice_header error
[h264 @ 00000239e13558c0] no frame!
[h264 @ 00000239e13558c0] non-existing PPS 0 referenced
[h264 @ 00000239e13558c0] decode_slice_header error
[h264 @ 00000239e13558c0] no frame!
[h264 @ 00000239e13558c0] non-existing PPS 0 referenced
[h264 @ 00000239e13558c0] decode_slice_header error
[h264 @ 00000239e13558c0] no frame!
[h264 @ 00000239e13558c0] non-existing PPS 0 referenced
[h264 @ 00000239e13558c0] decode_slice_header error
[h264 @ 00000239e13558c0] no frame!
[h264 @ 00000239e13558c0] non-existing PPS 0 referenced
[h264 @ 00000239e13558c0] decode_slice_header error
[h264 @ 00000239e13558c0] no frame!
[h264 @ 00000239e13558c0] non-existing PPS 0 referenced
[h264 @ 00000239e13558c0] decode_slice_header error
[h264 @ 00000239e13558c0] no frame!
[h264 @ 00000239e13558c0] non-existing PPS 0 referenced
[h264 @ 00000239e13558c0] decode_slice_header error
[h264 @ 00000239e13558c0] no frame!
[h264 @ 00000239e13558c0] non-existing PPS 0 referenced
[h264 @ 00000239e13558c0] decode_slice_header error
[h264 @ 00000239e13558c0] no frame!
[h264 @ 00000239e13558c0] non-existing PPS 0 referenced
[h264 @ 00000239e13558c0] decode_slice_header error
[h264 @ 00000239e13558c0] no frame!
[h264 @ 00000239e13558c0] non-existing PPS 0 referenced
[h264 @ 00000239e13558c0] decode_slice_header error
[h264 @ 00000239e13558c0] no frame!
[h264 @ 00000239e1356680] Overread VUI by 8 bits
[h264 @ 00000239e1356680] Overread VUI by 8 bits
[h264 @ 00000239e1356680] sps_id 0 out of range
[h264 @ 00000239e1356680] sps_id 0 out of range
[09:53:01] scan: audio 0x1: aac, rate=48000Hz, bitrate=204716 English (AAC LC) (2.0 ch) (204 kbps)
[09:53:01] scan: could not get a decoded picture
[09:53:01] scan: could not get a decoded picture
[09:53:01] scan: could not get a decoded picture
[09:53:01] scan: could not get a decoded picture
[09:53:01] scan: could not get a decoded picture
[09:53:01] scan: could not get a decoded picture
[09:53:01] scan: could not get a decoded picture
[09:53:01] scan: could not get a decoded picture
[09:53:01] scan: could not get a decoded picture
[09:53:01] scan: could not get a decoded picture
[09:53:01] scan: Too few previews (0), trying harder
[09:53:01] scan: decoding previews for title 1
[h264 @ 00000239e1355440] Overread VUI by 8 bits
[h264 @ 00000239e1355440] Overread VUI by 8 bits
[h264 @ 00000239e1355440] sps_id 0 out of range
[h264 @ 00000239e1355440] sps_id 0 out of range
[h264 @ 00000239e1355440] non-existing SPS 0 referenced in buffering period
[h264 @ 00000239e1355440] non-existing PPS 0 referenced
[h264 @ 00000239e1355440] decode_slice_header error
[h264 @ 00000239e1355440] no frame!
[h264 @ 00000239e1355440] non-existing PPS 0 referenced
[h264 @ 00000239e1355440] decode_slice_header error
[h264 @ 00000239e1355440] no frame!
[h264 @ 00000239e1355440] non-existing PPS 0 referenced
[h264 @ 00000239e1355440] decode_slice_header error
[h264 @ 00000239e1355440] no frame!
[h264 @ 00000239e1355440] non-existing PPS 0 referenced
[h264 @ 00000239e1355440] decode_slice_header error
[h264 @ 00000239e1355440] no frame!
[h264 @ 00000239e1355440] non-existing PPS 0 referenced
[h264 @ 00000239e1355440] decode_slice_header error
[h264 @ 00000239e1355440] no frame!
[h264 @ 00000239e1355440] non-existing PPS 0 referenced
[h264 @ 00000239e1355440] decode_slice_header error
[h264 @ 00000239e1355440] no frame!
[h264 @ 00000239e1355440] non-existing PPS 0 referenced
[h264 @ 00000239e1355440] decode_slice_header error
[h264 @ 00000239e1355440] no frame!
[h264 @ 00000239e1355440] non-existing PPS 0 referenced
[h264 @ 00000239e1355440] decode_slice_header error
[h264 @ 00000239e1355440] no frame!
[h264 @ 00000239e1355440] non-existing PPS 0 referenced
[h264 @ 00000239e1355440] decode_slice_header error
[h264 @ 00000239e1355440] no frame!
[h264 @ 00000239e1355440] non-existing PPS 0 referenced
[h264 @ 00000239e1355440] decode_slice_header error
[h264 @ 00000239e1355440] no frame!
[h264 @ 00000239e1355440] non-existing PPS 0 referenced
[h264 @ 00000239e1355440] decode_slice_header error
[h264 @ 00000239e1355440] no frame!
[h264 @ 00000239e1355440] non-existing PPS 0 referenced
[h264 @ 00000239e1355440] decode_slice_header error
[h264 @ 00000239e1355440] no frame!
[h264 @ 00000239e1355440] non-existing PPS 0 referenced
[h264 @ 00000239e1355440] decode_slice_header error
[h264 @ 00000239e1355440] no frame!
[h264 @ 00000239e1355440] non-existing PPS 0 referenced
[h264 @ 00000239e1355440] decode_slice_header error
[h264 @ 00000239e1355440] no frame!
[h264 @ 00000239e1355440] non-existing PPS 0 referenced
[h264 @ 00000239e1355440] decode_slice_header error
[h264 @ 00000239e1355440] no frame!
[h264 @ 00000239e1355440] non-existing PPS 0 referenced
[h264 @ 00000239e1355440] decode_slice_header error
[h264 @ 00000239e1355440] no frame!
[h264 @ 00000239e1355440] non-existing PPS 0 referenced
[h264 @ 00000239e1355440] decode_slice_header error
[h264 @ 00000239e1355440] no frame!
[h264 @ 00000239e1355440] non-existing PPS 0 referenced
[h264 @ 00000239e1355440] decode_slice_header error
[h264 @ 00000239e1355440] no frame!
[h264 @ 00000239e1355440] non-existing PPS 0 referenced
[h264 @ 00000239e1355440] decode_slice_header error
[h264 @ 00000239e1355440] no frame!
[h264 @ 00000239e1355440] non-existing PPS 0 referenced
[h264 @ 00000239e1355440] decode_slice_header error
[h264 @ 00000239e1355440] no frame!
[h264 @ 00000239e1355440] non-existing PPS 0 referenced
[h264 @ 00000239e1355440] decode_slice_header error
[h264 @ 00000239e1355440] no frame!
[h264 @ 00000239e1355440] non-existing PPS 0 referenced
[h264 @ 00000239e1355440] decode_slice_header error
[h264 @ 00000239e1355440] no frame!
[h264 @ 00000239e1355440] non-existing PPS 0 referenced
[h264 @ 00000239e1355440] decode_slice_header error
[h264 @ 00000239e1355440] no frame!
[h264 @ 00000239e1355440] non-existing PPS 0 referenced
[h264 @ 00000239e1355440] decode_slice_header error
[h264 @ 00000239e1355440] no frame!
[h264 @ 00000239e1355440] non-existing PPS 0 referenced
[h264 @ 00000239e1355440] decode_slice_header error
[h264 @ 00000239e1355440] no frame!
[h264 @ 00000239e1355440] non-existing PPS 0 referenced
[h264 @ 00000239e1355440] decode_slice_header error
[h264 @ 00000239e1355440] no frame!
[h264 @ 00000239e1355440] non-existing PPS 0 referenced
[h264 @ 00000239e1355440] decode_slice_header error
[h264 @ 00000239e1355440] no frame!
[h264 @ 00000239e1355440] non-existing PPS 0 referenced
[h264 @ 00000239e1355440] decode_slice_header error
[h264 @ 00000239e1355440] no frame!
[h264 @ 00000239e1355440] non-existing PPS 0 referenced
[h264 @ 00000239e1355440] decode_slice_header error
[h264 @ 00000239e1355440] no frame!
[h264 @ 00000239e1355440] non-existing PPS 0 referenced
[h264 @ 00000239e1355440] decode_slice_header error
[h264 @ 00000239e1355440] no frame!
[h264 @ 00000239e1355440] non-existing PPS 0 referenced
[h264 @ 00000239e1355440] decode_slice_header error
[h264 @ 00000239e1355440] no frame!
[h264 @ 00000239e1355440] non-existing PPS 0 referenced
[h264 @ 00000239e1355440] decode_slice_header error
[h264 @ 00000239e1355440] no frame!
[h264 @ 00000239e1355440] non-existing PPS 0 referenced
[h264 @ 00000239e1355440] decode_slice_header error
[h264 @ 00000239e1355440] no frame!
[h264 @ 00000239e1355440] non-existing PPS 0 referenced
[h264 @ 00000239e1355440] decode_slice_header error
[h264 @ 00000239e1355440] no frame!
[h264 @ 00000239e1355440] non-existing PPS 0 referenced
[h264 @ 00000239e1355440] decode_slice_header error
[h264 @ 00000239e1355440] no frame!
[h264 @ 00000239e1355440] non-existing PPS 0 referenced
[h264 @ 00000239e1355440] decode_slice_header error
[h264 @ 00000239e1355440] no frame!
[h264 @ 00000239e1355440] non-existing PPS 0 referenced
[h264 @ 00000239e1355440] decode_slice_header error
[h264 @ 00000239e1355440] no frame!
[h264 @ 00000239e1355440] non-existing PPS 0 referenced
[h264 @ 00000239e1355440] decode_slice_header error
[h264 @ 00000239e1355440] no frame!
[h264 @ 00000239e1355440] non-existing PPS 0 referenced
[h264 @ 00000239e1355440] decode_slice_header error
[h264 @ 00000239e1355440] no frame!
[h264 @ 00000239e1355440] non-existing PPS 0 referenced
[h264 @ 00000239e1355440] decode_slice_header error
[h264 @ 00000239e1355440] no frame!
[h264 @ 00000239e1355440] non-existing PPS 0 referenced
[h264 @ 00000239e1355440] decode_slice_header error
[h264 @ 00000239e1355440] no frame!
[h264 @ 00000239e1355440] non-existing PPS 0 referenced
[h264 @ 00000239e1355440] decode_slice_header error
[h264 @ 00000239e1355440] no frame!
[h264 @ 00000239e1355440] non-existing PPS 0 referenced
[h264 @ 00000239e1355440] decode_slice_header error
[h264 @ 00000239e1355440] no frame!
[h264 @ 00000239e1355440] non-existing PPS 0 referenced
[h264 @ 00000239e1355440] decode_slice_header error
[h264 @ 00000239e1355440] no frame!
[h264 @ 00000239e1355440] non-existing PPS 0 referenced
[h264 @ 00000239e1355440] decode_slice_header error
[h264 @ 00000239e1355440] no frame!
[h264 @ 00000239e1355440] non-existing PPS 0 referenced
[h264 @ 00000239e1355440] decode_slice_header error
[h264 @ 00000239e1355440] no frame!
[h264 @ 00000239e1355440] non-existing PPS 0 referenced
[h264 @ 00000239e1355440] decode_slice_header error
[h264 @ 00000239e1355440] no frame!
[h264 @ 00000239e1355440] non-existing PPS 0 referenced
[h264 @ 00000239e1355440] decode_slice_header error
[h264 @ 00000239e1355440] no frame!
[h264 @ 00000239e1355440] non-existing PPS 0 referenced
[h264 @ 00000239e1355440] decode_slice_header error
[h264 @ 00000239e1355440] no frame!
[h264 @ 00000239e1355440] non-existing PPS 0 referenced
[h264 @ 00000239e1355440] decode_slice_header error
[h264 @ 00000239e1355440] no frame!
[h264 @ 00000239e1355440] non-existing PPS 0 referenced
[h264 @ 00000239e1355440] decode_slice_header error
[h264 @ 00000239e1355440] no frame!
[h264 @ 00000239e1355440] non-existing PPS 0 referenced
[h264 @ 00000239e1355440] decode_slice_header error
[h264 @ 00000239e1355440] no frame!
[h264 @ 00000239e1355440] non-existing PPS 0 referenced
[h264 @ 00000239e1355440] decode_slice_header error
[h264 @ 00000239e1355440] no frame!
[h264 @ 00000239e1355440] non-existing PPS 0 referenced
[h264 @ 00000239e1355440] decode_slice_header error
[h264 @ 00000239e1355440] no frame!
[h264 @ 00000239e1355440] non-existing PPS 0 referenced
[h264 @ 00000239e1355440] decode_slice_header error
[h264 @ 00000239e1355440] no frame!
[h264 @ 00000239e1355440] non-existing PPS 0 referenced
[h264 @ 00000239e1355440] decode_slice_header error
[h264 @ 00000239e1355440] no frame!
[h264 @ 00000239e1355440] non-existing PPS 0 referenced
[h264 @ 00000239e1355440] decode_slice_header error
[h264 @ 00000239e1355440] no frame!
[h264 @ 00000239e1355440] non-existing PPS 0 referenced
[h264 @ 00000239e1355440] decode_slice_header error
[h264 @ 00000239e1355440] no frame!
[h264 @ 00000239e1355440] non-existing PPS 0 referenced
[h264 @ 00000239e1355440] decode_slice_header error
[h264 @ 00000239e1355440] no frame!
[h264 @ 00000239e1355440] non-existing PPS 0 referenced
[h264 @ 00000239e1355440] decode_slice_header error
[h264 @ 00000239e1355440] no frame!
[h264 @ 00000239e1355440] non-existing PPS 0 referenced
[h264 @ 00000239e1355440] decode_slice_header error
[h264 @ 00000239e1355440] no frame!
[h264 @ 00000239e1355440] non-existing PPS 0 referenced
[h264 @ 00000239e1355440] decode_slice_header error
[h264 @ 00000239e1355440] no frame!
[h264 @ 00000239e1355440] non-existing PPS 0 referenced
[h264 @ 00000239e1355440] decode_slice_header error
[h264 @ 00000239e1355440] no frame!
[h264 @ 00000239e1355440] non-existing PPS 0 referenced
[h264 @ 00000239e1355440] decode_slice_header error
[h264 @ 00000239e1355440] no frame!
[h264 @ 00000239e1355440] non-existing PPS 0 referenced
[h264 @ 00000239e1355440] decode_slice_header error
[h264 @ 00000239e1355440] no frame!
[h264 @ 00000239e1355440] non-existing PPS 0 referenced
[h264 @ 00000239e1355440] decode_slice_header error
[h264 @ 00000239e1355440] no frame!
[h264 @ 00000239e1355440] non-existing PPS 0 referenced
[h264 @ 00000239e1355440] decode_slice_header error
[h264 @ 00000239e1355440] no frame!
[h264 @ 00000239e1355440] non-existing PPS 0 referenced
[h264 @ 00000239e1355440] decode_slice_header error
[h264 @ 00000239e1355440] no frame!
[h264 @ 00000239e1355440] non-existing PPS 0 referenced
[h264 @ 00000239e1355440] decode_slice_header error
[h264 @ 00000239e1355440] no frame!
[h264 @ 00000239e1355440] non-existing PPS 0 referenced
[h264 @ 00000239e1355440] decode_slice_header error
[h264 @ 00000239e1355440] no frame!
[h264 @ 00000239e1355440] non-existing PPS 0 referenced
[h264 @ 00000239e1355440] decode_slice_header error
[h264 @ 00000239e1355440] no frame!
[h264 @ 00000239e1355440] non-existing PPS 0 referenced
[h264 @ 00000239e1355440] decode_slice_header error
[h264 @ 00000239e1355440] no frame!
[h264 @ 00000239e1355440] non-existing PPS 0 referenced
[h264 @ 00000239e1355440] decode_slice_header error
[h264 @ 00000239e1355440] no frame!
[h264 @ 00000239e1355440] non-existing PPS 0 referenced
[h264 @ 00000239e1355440] decode_slice_header error
[h264 @ 00000239e1355440] no frame!
[h264 @ 00000239e1355440] non-existing PPS 0 referenced
[h264 @ 00000239e1355440] decode_slice_header error
[h264 @ 00000239e1355440] no frame!
[h264 @ 00000239e1355440] non-existing PPS 0 referenced
[h264 @ 00000239e1355440] decode_slice_header error
[h264 @ 00000239e1355440] no frame!
[h264 @ 00000239e1355440] non-existing PPS 0 referenced
[h264 @ 00000239e1355440] decode_slice_header error
[h264 @ 00000239e1355440] no frame!
[h264 @ 00000239e1355440] non-existing PPS 0 referenced
[h264 @ 00000239e1355440] decode_slice_header error
[h264 @ 00000239e1355440] no frame!
[h264 @ 00000239e1355440] non-existing PPS 0 referenced
[h264 @ 00000239e1355440] decode_slice_header error
[h264 @ 00000239e1355440] no frame!
[h264 @ 00000239e1355440] non-existing PPS 0 referenced
[h264 @ 00000239e1355440] decode_slice_header error
[h264 @ 00000239e1355440] no frame!
[h264 @ 00000239e1355440] non-existing PPS 0 referenced
[h264 @ 00000239e1355440] decode_slice_header error
[h264 @ 00000239e1355440] no frame!
[h264 @ 00000239e1355440] non-existing PPS 0 referenced
[h264 @ 00000239e1355440] decode_slice_header error
[h264 @ 00000239e1355440] no frame!
[h264 @ 00000239e1355440] non-existing PPS 0 referenced
[h264 @ 00000239e1355440] decode_slice_header error
[h264 @ 00000239e1355440] no frame!
[h264 @ 00000239e1355440] non-existing PPS 0 referenced
[h264 @ 00000239e1355440] decode_slice_header error
[h264 @ 00000239e1355440] no frame!
[h264 @ 00000239e1355440] non-existing PPS 0 referenced
[h264 @ 00000239e1355440] decode_slice_header error
[h264 @ 00000239e1355440] no frame!
[h264 @ 00000239e1355440] non-existing PPS 0 referenced
[h264 @ 00000239e1355440] decode_slice_header error
[h264 @ 00000239e1355440] no frame!
[h264 @ 00000239e1355440] non-existing PPS 0 referenced
[h264 @ 00000239e1355440] decode_slice_header error
[h264 @ 00000239e1355440] no frame!
[h264 @ 00000239e1355440] non-existing SPS 0 referenced in buffering period
[h264 @ 00000239e1355440] non-existing PPS 0 referenced
[h264 @ 00000239e1355440] decode_slice_header error
[h264 @ 00000239e1355440] no frame!
[h264 @ 00000239e1355440] non-existing PPS 0 referenced
[h264 @ 00000239e1355440] decode_slice_header error
[h264 @ 00000239e1355440] no frame!
[h264 @ 00000239e1355440] non-existing PPS 0 referenced
[h264 @ 00000239e1355440] decode_slice_header error
[h264 @ 00000239e1355440] no frame!
[h264 @ 00000239e1355440] non-existing PPS 0 referenced
[h264 @ 00000239e1355440] decode_slice_header error
[h264 @ 00000239e1355440] no frame!
[h264 @ 00000239e1355440] non-existing PPS 0 referenced
[h264 @ 00000239e1355440] decode_slice_header error
[h264 @ 00000239e1355440] no frame!
[h264 @ 00000239e1355440] non-existing PPS 0 referenced
[h264 @ 00000239e1355440] decode_slice_header error
[h264 @ 00000239e1355440] no frame!
[h264 @ 00000239e1355440] non-existing PPS 0 referenced
[h264 @ 00000239e1355440] decode_slice_header error
[h264 @ 00000239e1355440] no frame!
[h264 @ 00000239e1355440] non-existing PPS 0 referenced
[h264 @ 00000239e1355440] decode_slice_header error
[h264 @ 00000239e1355440] no frame!
[h264 @ 00000239e1355440] non-existing PPS 0 referenced
[h264 @ 00000239e1355440] decode_slice_header error
[h264 @ 00000239e1355440] no frame!
[h264 @ 00000239e1355440] non-existing PPS 0 referenced
[h264 @ 00000239e1355440] decode_slice_header error
[h264 @ 00000239e1355440] no frame!
[h264 @ 00000239e1355440] non-existing PPS 0 referenced
[h264 @ 00000239e1355440] decode_slice_header error
[h264 @ 00000239e1355440] no frame!
[h264 @ 00000239e1355440] non-existing PPS 0 referenced
[h264 @ 00000239e1355440] decode_slice_header error
[h264 @ 00000239e1355440] no frame!
[h264 @ 00000239e1355440] non-existing PPS 0 referenced
[h264 @ 00000239e1355440] decode_slice_header error
[h264 @ 00000239e1355440] no frame!
[h264 @ 00000239e1355440] non-existing PPS 0 referenced
[h264 @ 00000239e1355440] decode_slice_header error
[h264 @ 00000239e1355440] no frame!
[h264 @ 00000239e1355440] non-existing PPS 0 referenced
[h264 @ 00000239e1355440] decode_slice_header error
[h264 @ 00000239e1355440] no frame!
[h264 @ 00000239e1355440] non-existing PPS 0 referenced
[h264 @ 00000239e1355440] decode_slice_header error
[h264 @ 00000239e1355440] no frame!
[h264 @ 00000239e1355440] non-existing PPS 0 referenced
[h264 @ 00000239e1355440] decode_slice_header error
[h264 @ 00000239e1355440] no frame!
[h264 @ 00000239e1355440] non-existing PPS 0 referenced
[h264 @ 00000239e1355440] decode_slice_header error
[h264 @ 00000239e1355440] no frame!
[h264 @ 00000239e1355440] non-existing PPS 0 referenced
[h264 @ 00000239e1355440] decode_slice_header error
[h264 @ 00000239e1355440] no frame!
[h264 @ 00000239e1355440] non-existing PPS 0 referenced
[h264 @ 00000239e1355440] decode_slice_header error
[h264 @ 00000239e1355440] no frame!
[h264 @ 00000239e1355440] non-existing PPS 0 referenced
[h264 @ 00000239e1355440] decode_slice_header error
[h264 @ 00000239e1355440] no frame!
[h264 @ 00000239e1355440] non-existing PPS 0 referenced
[h264 @ 00000239e1355440] decode_slice_header error
[h264 @ 00000239e1355440] no frame!
[h264 @ 00000239e1355440] non-existing PPS 0 referenced
[h264 @ 00000239e1355440] decode_slice_header error
[h264 @ 00000239e1355440] no frame!
[h264 @ 00000239e1355440] non-existing PPS 0 referenced
[h264 @ 00000239e1355440] decode_slice_header error
[h264 @ 00000239e1355440] no frame!
[h264 @ 00000239e1355440] non-existing PPS 0 referenced
[h264 @ 00000239e1355440] decode_slice_header error
[h264 @ 00000239e1355440] no frame!
[h264 @ 00000239e1355440] non-existing PPS 0 referenced
[h264 @ 00000239e1355440] decode_slice_header error
[h264 @ 00000239e1355440] no frame!
[h264 @ 00000239e1355440] non-existing PPS 0 referenced
[h264 @ 00000239e1355440] decode_slice_header error
[h264 @ 00000239e1355440] no frame!
[h264 @ 00000239e1355440] non-existing PPS 0 referenced
[h264 @ 00000239e1355440] decode_slice_header error
[h264 @ 00000239e1355440] no frame!
[h264 @ 00000239e1355440] non-existing PPS 0 referenced
[h264 @ 00000239e1355440] decode_slice_header error
[h264 @ 00000239e1355440] no frame!
[h264 @ 00000239e1355440] non-existing PPS 0 referenced
[h264 @ 00000239e1355440] decode_slice_header error
[h264 @ 00000239e1355440] no frame!
[h264 @ 00000239e1355440] non-existing PPS 0 referenced
[h264 @ 00000239e1355440] decode_slice_header error
[h264 @ 00000239e1355440] no frame!
[h264 @ 00000239e1355440] non-existing PPS 0 referenced
[h264 @ 00000239e1355440] decode_slice_header error
[h264 @ 00000239e1355440] no frame!
[h264 @ 00000239e1355440] non-existing PPS 0 referenced
[h264 @ 00000239e1355440] decode_slice_header error
[h264 @ 00000239e1355440] no frame!
[h264 @ 00000239e1355440] non-existing PPS 0 referenced
[h264 @ 00000239e1355440] decode_slice_header error
[h264 @ 00000239e1355440] no frame!
[h264 @ 00000239e1355440] non-existing PPS 0 referenced
[h264 @ 00000239e1355440] decode_slice_header error
[h264 @ 00000239e1355440] no frame!
[h264 @ 00000239e1355440] non-existing PPS 0 referenced
[h264 @ 00000239e1355440] decode_slice_header error
[h264 @ 00000239e1355440] no frame!
[h264 @ 00000239e1355440] non-existing PPS 0 referenced
[h264 @ 00000239e1355440] decode_slice_header error
[h264 @ 00000239e1355440] no frame!
[h264 @ 00000239e1355440] non-existing PPS 0 referenced
[h264 @ 00000239e1355440] decode_slice_header error
[h264 @ 00000239e1355440] no frame!
[h264 @ 00000239e1355440] non-existing PPS 0 referenced
[h264 @ 00000239e1355440] decode_slice_header error
[h264 @ 00000239e1355440] no frame!
[h264 @ 00000239e1355440] non-existing PPS 0 referenced
[h264 @ 00000239e1355440] decode_slice_header error
[h264 @ 00000239e1355440] no frame!
[h264 @ 00000239e1355440] non-existing PPS 0 referenced
[h264 @ 00000239e1355440] decode_slice_header error
[h264 @ 00000239e1355440] no frame!
[h264 @ 00000239e1355440] non-existing PPS 0 referenced
[h264 @ 00000239e1355440] decode_slice_header error
[h264 @ 00000239e1355440] no frame!
[h264 @ 00000239e1355440] non-existing PPS 0 referenced
[h264 @ 00000239e1355440] decode_slice_header error
[h264 @ 00000239e1355440] no frame!
[h264 @ 00000239e1355440] non-existing PPS 0 referenced
[h264 @ 00000239e1355440] decode_slice_header error
[h264 @ 00000239e1355440] no frame!
[h264 @ 00000239e1355440] non-existing PPS 0 referenced
[h264 @ 00000239e1355440] decode_slice_header error
[h264 @ 00000239e1355440] no frame!
[h264 @ 00000239e1355440] non-existing PPS 0 referenced
[h264 @ 00000239e1355440] decode_slice_header error
[h264 @ 00000239e1355440] no frame!
[h264 @ 00000239e1355440] non-existing PPS 0 referenced
[h264 @ 00000239e1355440] decode_slice_header error
[h264 @ 00000239e1355440] no frame!
[h264 @ 00000239e1355440] non-existing PPS 0 referenced
[h264 @ 00000239e1355440] decode_slice_header error
[h264 @ 00000239e1355440] no frame!
[h264 @ 00000239e1355440] non-existing PPS 0 referenced
[h264 @ 00000239e1355440] decode_slice_header error
[h264 @ 00000239e1355440] no frame!
[h264 @ 00000239e1355440] non-existing PPS 0 referenced
[h264 @ 00000239e1355440] decode_slice_header error
[h264 @ 00000239e1355440] no frame!
[h264 @ 00000239e1355440] non-existing PPS 0 referenced
[h264 @ 00000239e1355440] decode_slice_header error
[h264 @ 00000239e1355440] no frame!
[h264 @ 00000239e1355440] non-existing PPS 0 referenced
[h264 @ 00000239e1355440] decode_slice_header error
[h264 @ 00000239e1355440] no frame!
[h264 @ 00000239e1355440] non-existing PPS 0 referenced
[h264 @ 00000239e1355440] decode_slice_header error
[h264 @ 00000239e1355440] no frame!
[h264 @ 00000239e1355440] non-existing PPS 0 referenced
[h264 @ 00000239e1355440] decode_slice_header error
[h264 @ 00000239e1355440] no frame!
[h264 @ 00000239e1355440] non-existing PPS 0 referenced
[h264 @ 00000239e1355440] decode_slice_header error
[h264 @ 00000239e1355440] no frame!
[h264 @ 00000239e1355440] non-existing PPS 0 referenced
[h264 @ 00000239e1355440] decode_slice_header error
[h264 @ 00000239e1355440] no frame!
[h264 @ 00000239e1355440] non-existing PPS 0 referenced
[h264 @ 00000239e1355440] decode_slice_header error
[h264 @ 00000239e1355440] no frame!
[h264 @ 00000239e1355440] non-existing PPS 0 referenced
[h264 @ 00000239e1355440] decode_slice_header error
[h264 @ 00000239e1355440] no frame!
[h264 @ 00000239e1355440] non-existing PPS 0 referenced
[h264 @ 00000239e1355440] decode_slice_header error
[h264 @ 00000239e1355440] no frame!
[h264 @ 00000239e1355440] non-existing PPS 0 referenced
[h264 @ 00000239e1355440] decode_slice_header error
[h264 @ 00000239e1355440] no frame!
[h264 @ 00000239e1355440] non-existing PPS 0 referenced
[h264 @ 00000239e1355440] decode_slice_header error
[h264 @ 00000239e1355440] no frame!
[h264 @ 00000239e1355440] non-existing PPS 0 referenced
[h264 @ 00000239e1355440] decode_slice_header error
[h264 @ 00000239e1355440] no frame!
[h264 @ 00000239e1355440] non-existing PPS 0 referenced
[h264 @ 00000239e1355440] decode_slice_header error
[h264 @ 00000239e1355440] no frame!
[h264 @ 00000239e1355d80] Overread VUI by 8 bits
[h264 @ 00000239e1355d80] Overread VUI by 8 bits
[h264 @ 00000239e1355d80] sps_id 0 out of range
[h264 @ 00000239e1355d80] sps_id 0 out of range
[09:53:01] scan: could not get a decoded picture
[09:53:01] scan: could not get a decoded picture
[09:53:01] scan: could not get a decoded picture
[09:53:01] scan: could not get a decoded picture
[09:53:01] scan: could not get a decoded picture
[09:53:01] scan: could not get a decoded picture
[09:53:01] scan: could not get a decoded picture
[09:53:01] scan: could not get a decoded picture
[09:53:01] scan: could not get a decoded picture
[09:53:01] scan: could not get a decoded picture
[09:53:01] libhb: scan thread found 0 valid title(s)

 # Processing Scan Information ...


 # Scan Finished ...



BryanDustin
Posts: 3
Joined: Mon Jun 22, 2020 1:52 am

Re: No valid source or titles found

Post by BryanDustin »

Here's the mp4 file info

General
Complete name : D:\BryanDustin\Academic\Videos\(2018) Media and Information Literacy - Production - Part 3.mp4
Format : MPEG-4
Format profile : Sony PSP
Codec ID : MSNV (MSNV/isom/mp42)
File size : 9.90 GiB
Duration : 1 h 47 min
Overall bit rate mode : Variable
Overall bit rate : 13.1 Mb/s
Encoded date : UTC 2018-05-10 15:00:53
Tagged date : UTC 2018-05-10 15:00:53

Video
ID : 1
Format : AVC
Format/Info : Advanced Video Codec
Codec ID : avc1
Codec ID/Info : Advanced Video Coding
Duration : 1 h 47 min
Source duration : 1 h 47 min
Bit rate : 12.9 Mb/s
Width : 1 920 pixels
Height : 1 080 pixels
Display aspect ratio : 16:9
Frame rate mode : Variable
Frame rate : 29.970 FPS
Minimum frame rate : 29.940 FPS
Maximum frame rate : 29.970 FPS
Bits/(Pixel*Frame) : 0.208
Stream size : 9.74 GiB (98%)
Source stream size : 9.74 GiB (98%)
Language : English
Encoded date : UTC 2018-05-10 15:00:53
Tagged date : UTC 2018-05-10 15:00:53
mdhd_Duration : 6478212
Codec configuration box : avcC

Audio
ID : 2
Format : AAC LC
Format/Info : Advanced Audio Codec Low Complexity
Codec ID : mp4a-40-2
Duration : 1 h 47 min
Source duration : 1 h 47 min
Bit rate mode : Variable
Bit rate : 205 kb/s
Nominal bit rate : 192 kb/s
Maximum bit rate : 384 kb/s
Channel(s) : 2 channels
Channel layout : L R
Sampling rate : 48.0 kHz
Frame rate : 46.875 FPS (1024 SPF)
Compression mode : Lossy
Stream size : 158 MiB (2%)
Source stream size : 158 MiB (2%)
Language : English
Encoded date : UTC 2018-05-10 15:00:53
Tagged date : UTC 2018-05-10 15:00:53
mdhd_Duration : 6478305

User avatar
BradleyS
Moderator
Posts: 1843
Joined: Thu Aug 09, 2007 12:16 pm

Re: No valid source or titles found

Post by BradleyS »

Thanks for the Activity Log. HandBrake is certainly tripping over your file a bit. Try disabling Intel QSV decoding in HandBrake's preferences and let us know whether that helps.

BryanDustin
Posts: 3
Joined: Mon Jun 22, 2020 1:52 am

Re: No valid source or titles found

Post by BryanDustin »

BradleyS wrote:
Mon Jun 22, 2020 2:40 am
Thanks for the Activity Log. HandBrake is certainly tripping over your file a bit. Try disabling Intel QSV decoding in HandBrake's preferences and let us know whether that helps.
Hello. I have this disabled from the start.

User avatar
BradleyS
Moderator
Posts: 1843
Joined: Thu Aug 09, 2007 12:16 pm

Re: No valid source or titles found

Post by BradleyS »

Hmm. Is there any chance you can provide a sample?

Post Reply