AMD VCE

HandBrake for Windows support
Forum rules
An Activity Log is required for support requests. Please read How-to get an activity log? for details on how and why this should be provided.
Post Reply
GWareFR
Posts: 1
Joined: Wed May 20, 2020 8:21 am

AMD VCE

Post by GWareFR »

Description of problem or question:

Didn't find anything on VCE in the forum.
When using the AMD VCE in handbrake with the options provided in the documentation, the file generated is the same whenether we used options or not.
Example, i created a file without options and then used "preanalysis=1:me_quarter_pel=1:bf_ref=1". If i am right the second option at least should have an impact on the generated file.

Steps to reproduce the problem (If Applicable):
use the AMD VCE x265 with "preanalysis=1:me_quarter_pel=1:bf_ref=1" in options.
I have noticed that i used the old doc version so one of my parameter is wrong (last one i think)
and make the same encoding without options.
The two files compared (WinMerge) are the same.


HandBrake version (e.g., 1.0.0):
1.3.2 (2020050300)

Operating system and version (e.g., Ubuntu 16.04 LTS, macOS 10.13 High Sierra, Windows 10 Creators Update):
Windows 10 - 1909

HandBrake Activity Log ***required*** (see How-to get an activity log)

Code: Select all

HandBrake 1.3.2 (2020050300)
OS: Microsoft Windows NT 10.0.18363.0
CPU: AMD Ryzen 5 3400G with Radeon Vega Graphics    
Ram: 14284 MB, 
GPU Information:
  AMD Radeon(TM) RX Vega 11 Graphics - 26.20.15019.19000
Screen: 1920x1080
Temp Dir: C:\Users\x\AppData\Local\Temp\
Install Dir: C:\Program Files\VIDEO\HandBrake
Data Dir: C:\Users\x\AppData\Roaming\HandBrake

-------------------------------------------


# Starting Encode ...

[06:08:43] base preset: Series 720p x264-AMD VCE (Modified)
[18:08:43] hb_init: starting libhb thread
[18:08:43] Starting work at: Wed May 20 18:08:43 2020
[18:08:43] 1 job(s) to process
[18:08:43] json job:
{
  "Audio": {
    "AudioList": [
      {
        "DRC": 0.0,
        "Encoder": "copy:eac3",
        "Gain": 0.0,
        "Mixdown": -1,
        "NormalizeMixLevel": false,
        "Samplerate": 48000,
        "Track": 0,
        "DitherMethod": 0
      }
    ],
    "CopyMask": [
      "copy:ac3",
      "copy:dtshd",
      "copy:dts",
      "copy:eac3",
      "copy:truehd"
    ],
    "FallbackEncoder": "none"
  },
  "Destination": {
    "ChapterList": [],
    "ChapterMarkers": false,
    "AlignAVStart": false,
    "File": "F:\\TEMPO\\PS.x265-Ntb-@22-VCEOpti.mkv",
    "Mp4Options": {
      "IpodAtom": false,
      "Mp4Optimize": false
    },
    "Mux": "av_mkv"
  },
  "Filters": {
    "FilterList": [
      {
        "ID": 4,
        "Settings": {
          "mode": "7"
        }
      },
      {
        "ID": 3,
        "Settings": {
          "block-height": "16",
          "block-thresh": "40",
          "block-width": "16",
          "filter-mode": "2",
          "mode": "3",
          "motion-thresh": "1",
          "spatial-metric": "2",
          "spatial-thresh": "1"
        }
      },
      {
        "ID": 12,
        "Settings": {
          "crop-bottom": "0",
          "crop-left": "0",
          "crop-right": "0",
          "crop-top": "0",
          "height": "960",
          "width": "1920"
        }
      },
      {
        "ID": 6,
        "Settings": {
          "mode": "1"
        }
      }
    ]
  },
  "PAR": {
    "Num": 1,
    "Den": 1
  },
  "Metadata": {},
  "SequenceID": 0,
  "Source": {
    "Angle": 1,
    "Range": {
      "Type": "chapter",
      "Start": 1,
      "End": 1
    },
    "Title": 1,
    "Path": "F:\\_torrents_\\downloaded\\PS\\PS.H.264-NTb.mkv"
  },
  "Subtitle": {
    "Search": {
      "Burn": false,
      "Default": false,
      "Enable": false,
      "Forced": false
    },
    "SubtitleList": [
      {
        "Burn": false,
        "Default": false,
        "Forced": false,
        "ID": 1,
        "Offset": 0,
        "Track": 0,
        "Name": "SDH"
      }
    ]
  },
  "Video": {
    "Encoder": "vce_h265",
    "Level": "4.1",
    "TwoPass": false,
    "Turbo": false,
    "ColorMatrixCode": 0,
    "Options": "preanalysis=1:me_quarter_pel=1:bf_ref=1",
    "Preset": "quality",
    "Profile": "main",
    "Quality": 22.0,
    "QSV": {
      "Decode": false,
      "AsyncDepth": 0
    }
  }
}
[18:08:43] CPU:
[18:08:43]  - logical processor count: 8
[18:08:43] Intel Quick Sync Video support: no
[18:08:43] hb_scan: path=F:\_torrents_\downloaded\PS\PS.H.264-NTb.mkv, title_index=1
udfread ERROR: ECMA 167 Volume Recognition failed
src/libbluray/disc/disc.c:323: failed opening UDF image F:\_torrents_\downloaded\PS\PS.H.264-NTb.mkv
src/libbluray/disc/disc.c:424: error opening file BDMV\index.bdmv
src/libbluray/disc/disc.c:424: error opening file BDMV\BACKUP\index.bdmv
src/libbluray/bluray.c:2585: nav_get_title_list(F:\_torrents_\downloaded\PS\PS.H.264-NTb.mkv\) failed
[18:08:43] bd: not a bd - trying as a stream/file instead
libdvdnav: Using dvdnav version 6.0.1
libdvdread: Encrypted DVD support unavailable.
libdvdread:DVDOpenFileUDF:UDFFindFile /VIDEO_TS/VIDEO_TS.IFO failed
libdvdread:DVDOpenFileUDF:UDFFindFile /VIDEO_TS/VIDEO_TS.BUP failed
libdvdread: Can't open file VIDEO_TS.IFO.
libdvdnav: vm: failed to read VIDEO_TS.IFO
[18:08:43] dvd: not a dvd - trying as a stream/file instead
Input #0, matroska,webm, from 'F:\_torrents_\downloaded\PS\PS.H.264-NTb.mkv':
  Metadata:
    encoder         : libebml v1.3.5 + libmatroska v1.4.8
    creation_time   : 2019-09-24T09:17:58.000000Z
  Duration: 00:45:34.62, start: 0.000000, bitrate: 8730 kb/s
    Stream #0:0: Video: h264 (High), yuv420p(tv, bt709, progressive), 1920x960 [SAR 1:1 DAR 2:1], 23.98 fps, 23.98 tbr, 1k tbn, 47.95 tbc (default)
    Metadata:
      BPS             : 8088708
      BPS-eng         : 8088708
      DURATION        : 00:45:34.607000000
      DURATION-eng    : 00:45:34.607000000
      NUMBER_OF_FRAMES: 65565
      NUMBER_OF_FRAMES-eng: 65565
      NUMBER_OF_BYTES : 2764930026
      NUMBER_OF_BYTES-eng: 2764930026
      _STATISTICS_WRITING_APP: mkvmerge v19.0.0 ('Brave Captain') 64-bit
      _STATISTICS_WRITING_APP-eng: mkvmerge v19.0.0 ('Brave Captain') 64-bit
      _STATISTICS_WRITING_DATE_UTC: 2019-09-24 09:17:58
      _STATISTICS_WRITING_DATE_UTC-eng: 2019-09-24 09:17:58
      _STATISTICS_TAGS: BPS DURATION NUMBER_OF_FRAMES NUMBER_OF_BYTES
      _STATISTICS_TAGS-eng: BPS DURATION NUMBER_OF_FRAMES NUMBER_OF_BYTES
    Stream #0:1(eng): Audio: eac3, 48000 Hz, 6 channels, fltp (default)
    Metadata:
      BPS             : 640000
      BPS-eng         : 640000
      DURATION        : 00:45:34.624000000
      DURATION-eng    : 00:45:34.624000000
      NUMBER_OF_FRAMES: 85457
      NUMBER_OF_FRAMES-eng: 85457
      NUMBER_OF_BYTES : 218769920
      NUMBER_OF_BYTES-eng: 218769920
      _STATISTICS_WRITING_APP: mkvmerge v19.0.0 ('Brave Captain') 64-bit
      _STATISTICS_WRITING_APP-eng: mkvmerge v19.0.0 ('Brave Captain') 64-bit
      _STATISTICS_WRITING_DATE_UTC: 2019-09-24 09:17:58
      _STATISTICS_WRITING_DATE_UTC-eng: 2019-09-24 09:17:58
      _STATISTICS_TAGS: BPS DURATION NUMBER_OF_FRAMES NUMBER_OF_BYTES
      _STATISTICS_TAGS-eng: BPS DURATION NUMBER_OF_FRAMES NUMBER_OF_BYTES
    Stream #0:2(eng): Subtitle: subrip
    Metadata:
      title           : SDH
      BPS             : 75
      BPS-eng         : 75
      DURATION        : 00:44:49.338000000
      DURATION-eng    : 00:44:49.338000000
      NUMBER_OF_FRAMES: 867
      NUMBER_OF_FRAMES-eng: 867
      NUMBER_OF_BYTES : 25284
      NUMBER_OF_BYTES-eng: 25284
      _STATISTICS_WRITING_APP: mkvmerge v19.0.0 ('Brave Captain') 64-bit
      _STATISTICS_WRITING_APP-eng: mkvmerge v19.0.0 ('Brave Captain') 64-bit
      _STATISTICS_WRITING_DATE_UTC: 2019-09-24 09:17:58
      _STATISTICS_WRITING_DATE_UTC-eng: 2019-09-24 09:17:58
      _STATISTICS_TAGS: BPS DURATION NUMBER_OF_FRAMES NUMBER_OF_BYTES
      _STATISTICS_TAGS-eng: BPS DURATION NUMBER_OF_FRAMES NUMBER_OF_BYTES
[18:08:43] scan: decoding previews for title 1
[18:08:43] scan: audio 0x1: eac3, rate=48000Hz, bitrate=640000 English (E-AC3) (5.1 ch) (640 kbps)
[18:08:43] scan: 10 previews, 1920x960, 23.976 fps, autocrop = 0/0/0/0, aspect 2.00:1, PAR 1:1
[18:08:43] scan: supported video decoders: avcodec qsv
[18:08:43] libhb: scan thread found 1 valid title(s)
[18:08:43] Starting Task: Encoding Pass
[18:08:43] Skipping crop/scale filter
[18:08:43] job configuration:
[18:08:43]  * source
[18:08:43]    + F:\_torrents_\downloaded\PS\PS.H.264-NTb.mkv
[18:08:43]    + title 1, chapter(s) 1 to 1
[18:08:43]    + container: matroska,webm
[18:08:43]    + data rate: 8730 kbps
[18:08:43]  * destination
[18:08:43]    + F:\TEMPO\PS.x265-Ntb-@22-VCEOpti.mkv
[18:08:43]    + container: Matroska (libavformat)
[18:08:43]  * video track
[18:08:43]    + decoder: h264
[18:08:43]    + filters
[18:08:43]      + Comb Detect (mode=3:spatial-metric=2:motion-thresh=1:spatial-thresh=1:filter-mode=2:block-thresh=40:block-width=16:block-height=16)
[18:08:43]      + Decomb (mode=39)
[18:08:43]      + Framerate Shaper (mode=1)
[18:08:43]        + frame rate: 23.976 fps -> constant 23.976 fps
[18:08:43]    + Output geometry
[18:08:43]      + storage dimensions: 1920 x 960
[18:08:43]      + pixel aspect ratio: 1 : 1
[18:08:43]      + display dimensions: 1920 x 960
[18:08:43]    + encoder: H.265 (AMD VCE)
[18:08:43]      + preset:  quality
[18:08:43]      + options: preanalysis=1:me_quarter_pel=1:bf_ref=1
[18:08:43]      + profile: main
[18:08:43]      + level:   4.1
[18:08:43]      + quality: 22.00 (QP)
[18:08:43]      + color profile: 1-1-1
[18:08:43]  * subtitle track 1, English [UTF-8] (track 0, id 0x2, Text) -> Passthrough
[18:08:43]    + name: SDH
[18:08:43]  * audio track 1
[18:08:43]    + decoder: English (E-AC3) (5.1 ch) (640 kbps) (track 1, id 0x1)
[18:08:43]      + bitrate: 640 kbps, samplerate: 48000 Hz
[18:08:43]    + E-AC3 Passthru
[18:08:43] sync: expecting 65565 video frames
[18:08:43] encavcodecInit: H.265 (AMD VCE)
[18:08:43] encavcodec: encoding at QP 22.00
[18:08:43] encavcodec: encoding with stored aspect 1/1
[18:08:43] encavcodecInit: Unknown avcodec option bf_ref
[18:08:44] sync: first pts video is 0
[18:08:44] sync: Chapter 1 at frame 1 time 0
[18:08:44] sync: first pts audio 0x1 is 0
[18:08:44] sync: first pts subtitle 0x2 is 293760
[18:22:26] reader: done. 1 scr changes
[18:22:27] work: average encoding speed for job is 79.669525 fps
[18:22:27] comb detect: heavy 304 | light 694 | uncombed 64567 | total 65565
[18:22:27] decomb: deinterlaced 304 | blended 694 | unfiltered 64567 | total 65565
[18:22:27] vfr: 65565 frames output, 0 dropped and 0 duped for CFR/PFR
[18:22:27] vfr: lost time: 0 (0 frames)
[18:22:27] vfr: gained time: 0 (0 frames) (0 not accounted for)
[18:22:27] eac3-decoder done: 85457 frames, 0 decoder errors
[18:22:27] h264-decoder done: 65565 frames, 0 decoder errors
[18:22:27] sync: got 65565 frames, 65565 expected
[18:22:27] sync: framerate min 23.976 fps, max 23.976 fps, avg 23.976 fps
[18:22:27] mux: track 0, 65565 frames, 871892599 bytes, 2550.65 kbps, fifo 2048
[18:22:27] mux: track 1, 85457 frames, 218769920 bytes, 639.99 kbps, fifo 2048
[18:22:27] mux: track 2, 867 frames, 44250 bytes, 0.13 kbps, fifo 32
[18:22:27] Finished work at: Wed May 20 18:22:27 2020
[18:22:27] libhb: work result = 0

# Encode Completed ...

------------
second log without options
HandBrake 1.3.2 (2020050300)
OS: Microsoft Windows NT 10.0.18363.0
CPU: AMD Ryzen 5 3400G with Radeon Vega Graphics    
Ram: 14284 MB, 
GPU Information:
  AMD Radeon(TM) RX Vega 11 Graphics - 26.20.15019.19000
Screen: 1920x1080
Temp Dir: C:\Users\x\AppData\Local\Temp\
Install Dir: C:\Program Files\VIDEO\HandBrake
Data Dir: C:\Users\x\AppData\Roaming\HandBrake

-------------------------------------------


# Starting Encode ...

[06:36:16] base preset: Series 720p x264-AMD VCE (Modified)
[18:36:16] hb_init: starting libhb thread
[18:36:16] Starting work at: Wed May 20 18:36:16 2020
[18:36:16] 1 job(s) to process
[18:36:16] json job:
{
  "Audio": {
    "AudioList": [
      {
        "DRC": 0.0,
        "Encoder": "copy:eac3",
        "Gain": 0.0,
        "Mixdown": -1,
        "NormalizeMixLevel": false,
        "Samplerate": 48000,
        "Track": 0,
        "DitherMethod": 0
      }
    ],
    "CopyMask": [
      "copy:ac3",
      "copy:dtshd",
      "copy:dts",
      "copy:eac3",
      "copy:truehd"
    ],
    "FallbackEncoder": "none"
  },
  "Destination": {
    "ChapterList": [],
    "ChapterMarkers": false,
    "AlignAVStart": false,
    "File": "F:\\TEMPO\\PS.x265-Ntb-@22-VCEBase.mkv",
    "Mp4Options": {
      "IpodAtom": false,
      "Mp4Optimize": false
    },
    "Mux": "av_mkv"
  },
  "Filters": {
    "FilterList": [
      {
        "ID": 4,
        "Settings": {
          "mode": "7"
        }
      },
      {
        "ID": 3,
        "Settings": {
          "block-height": "16",
          "block-thresh": "40",
          "block-width": "16",
          "filter-mode": "2",
          "mode": "3",
          "motion-thresh": "1",
          "spatial-metric": "2",
          "spatial-thresh": "1"
        }
      },
      {
        "ID": 12,
        "Settings": {
          "crop-bottom": "0",
          "crop-left": "0",
          "crop-right": "0",
          "crop-top": "0",
          "height": "960",
          "width": "1920"
        }
      },
      {
        "ID": 6,
        "Settings": {
          "mode": "1"
        }
      }
    ]
  },
  "PAR": {
    "Num": 1,
    "Den": 1
  },
  "Metadata": {},
  "SequenceID": 0,
  "Source": {
    "Angle": 1,
    "Range": {
      "Type": "chapter",
      "Start": 1,
      "End": 1
    },
    "Title": 1,
    "Path": "F:\\_torrents_\\downloaded\\PS\\PS.H.264-NTb.mkv"
  },
  "Subtitle": {
    "Search": {
      "Burn": false,
      "Default": false,
      "Enable": false,
      "Forced": false
    },
    "SubtitleList": [
      {
        "Burn": false,
        "Default": false,
        "Forced": false,
        "ID": 1,
        "Offset": 0,
        "Track": 0,
        "Name": "SDH"
      }
    ]
  },
  "Video": {
    "Encoder": "vce_h265",
    "Level": "4.1",
    "TwoPass": false,
    "Turbo": false,
    "ColorMatrixCode": 0,
    "Options": "",
    "Preset": "quality",
    "Profile": "main",
    "Quality": 22.0,
    "QSV": {
      "Decode": false,
      "AsyncDepth": 0
    }
  }
}
[18:36:16] CPU:
[18:36:16]  - logical processor count: 8
[18:36:16] Intel Quick Sync Video support: no
[18:36:16] hb_scan: path=F:\_torrents_\downloaded\PS\PS.H.264-NTb.mkv, title_index=1
udfread ERROR: ECMA 167 Volume Recognition failed
src/libbluray/disc/disc.c:323: failed opening UDF image F:\_torrents_\downloaded\PS\PS.H.264-NTb.mkv
src/libbluray/disc/disc.c:424: error opening file BDMV\index.bdmv
src/libbluray/disc/disc.c:424: error opening file BDMV\BACKUP\index.bdmv
src/libbluray/bluray.c:2585: nav_get_title_list(F:\_torrents_\downloaded\PS\PS.H.264-NTb.mkv\) failed
[18:36:16] bd: not a bd - trying as a stream/file instead
libdvdnav: Using dvdnav version 6.0.1
libdvdread: Encrypted DVD support unavailable.
libdvdread:DVDOpenFileUDF:UDFFindFile /VIDEO_TS/VIDEO_TS.IFO failed
libdvdread:DVDOpenFileUDF:UDFFindFile /VIDEO_TS/VIDEO_TS.BUP failed
libdvdread: Can't open file VIDEO_TS.IFO.
libdvdnav: vm: failed to read VIDEO_TS.IFO
[18:36:16] dvd: not a dvd - trying as a stream/file instead
Input #0, matroska,webm, from 'F:\_torrents_\downloaded\PS\PS.H.264-NTb.mkv':
  Metadata:
    encoder         : libebml v1.3.5 + libmatroska v1.4.8
    creation_time   : 2019-09-24T09:17:58.000000Z
  Duration: 00:45:34.62, start: 0.000000, bitrate: 8730 kb/s
    Stream #0:0: Video: h264 (High), yuv420p(tv, bt709, progressive), 1920x960 [SAR 1:1 DAR 2:1], 23.98 fps, 23.98 tbr, 1k tbn, 47.95 tbc (default)
    Metadata:
      BPS             : 8088708
      BPS-eng         : 8088708
      DURATION        : 00:45:34.607000000
      DURATION-eng    : 00:45:34.607000000
      NUMBER_OF_FRAMES: 65565
      NUMBER_OF_FRAMES-eng: 65565
      NUMBER_OF_BYTES : 2764930026
      NUMBER_OF_BYTES-eng: 2764930026
      _STATISTICS_WRITING_APP: mkvmerge v19.0.0 ('Brave Captain') 64-bit
      _STATISTICS_WRITING_APP-eng: mkvmerge v19.0.0 ('Brave Captain') 64-bit
      _STATISTICS_WRITING_DATE_UTC: 2019-09-24 09:17:58
      _STATISTICS_WRITING_DATE_UTC-eng: 2019-09-24 09:17:58
      _STATISTICS_TAGS: BPS DURATION NUMBER_OF_FRAMES NUMBER_OF_BYTES
      _STATISTICS_TAGS-eng: BPS DURATION NUMBER_OF_FRAMES NUMBER_OF_BYTES
    Stream #0:1(eng): Audio: eac3, 48000 Hz, 6 channels, fltp (default)
    Metadata:
      BPS             : 640000
      BPS-eng         : 640000
      DURATION        : 00:45:34.624000000
      DURATION-eng    : 00:45:34.624000000
      NUMBER_OF_FRAMES: 85457
      NUMBER_OF_FRAMES-eng: 85457
      NUMBER_OF_BYTES : 218769920
      NUMBER_OF_BYTES-eng: 218769920
      _STATISTICS_WRITING_APP: mkvmerge v19.0.0 ('Brave Captain') 64-bit
      _STATISTICS_WRITING_APP-eng: mkvmerge v19.0.0 ('Brave Captain') 64-bit
      _STATISTICS_WRITING_DATE_UTC: 2019-09-24 09:17:58
      _STATISTICS_WRITING_DATE_UTC-eng: 2019-09-24 09:17:58
      _STATISTICS_TAGS: BPS DURATION NUMBER_OF_FRAMES NUMBER_OF_BYTES
      _STATISTICS_TAGS-eng: BPS DURATION NUMBER_OF_FRAMES NUMBER_OF_BYTES
    Stream #0:2(eng): Subtitle: subrip
    Metadata:
      title           : SDH
      BPS             : 75
      BPS-eng         : 75
      DURATION        : 00:44:49.338000000
      DURATION-eng    : 00:44:49.338000000
      NUMBER_OF_FRAMES: 867
      NUMBER_OF_FRAMES-eng: 867
      NUMBER_OF_BYTES : 25284
      NUMBER_OF_BYTES-eng: 25284
      _STATISTICS_WRITING_APP: mkvmerge v19.0.0 ('Brave Captain') 64-bit
      _STATISTICS_WRITING_APP-eng: mkvmerge v19.0.0 ('Brave Captain') 64-bit
      _STATISTICS_WRITING_DATE_UTC: 2019-09-24 09:17:58
      _STATISTICS_WRITING_DATE_UTC-eng: 2019-09-24 09:17:58
      _STATISTICS_TAGS: BPS DURATION NUMBER_OF_FRAMES NUMBER_OF_BYTES
      _STATISTICS_TAGS-eng: BPS DURATION NUMBER_OF_FRAMES NUMBER_OF_BYTES
[18:36:16] scan: decoding previews for title 1
[18:36:16] scan: audio 0x1: eac3, rate=48000Hz, bitrate=640000 English (E-AC3) (5.1 ch) (640 kbps)
[18:36:16] scan: 10 previews, 1920x960, 23.976 fps, autocrop = 0/0/0/0, aspect 2.00:1, PAR 1:1
[18:36:16] scan: supported video decoders: avcodec qsv
[18:36:16] libhb: scan thread found 1 valid title(s)
[18:36:16] Starting Task: Encoding Pass
[18:36:16] Skipping crop/scale filter
[18:36:16] job configuration:
[18:36:16]  * source
[18:36:16]    + F:\_torrents_\downloaded\PS\PS.H.264-NTb.mkv
[18:36:16]    + title 1, chapter(s) 1 to 1
[18:36:16]    + container: matroska,webm
[18:36:16]    + data rate: 8730 kbps
[18:36:16]  * destination
[18:36:16]    + F:\TEMPO\PS.x265-Ntb-@22-VCEBase.mkv
[18:36:16]    + container: Matroska (libavformat)
[18:36:16]  * video track
[18:36:16]    + decoder: h264
[18:36:16]    + filters
[18:36:16]      + Comb Detect (mode=3:spatial-metric=2:motion-thresh=1:spatial-thresh=1:filter-mode=2:block-thresh=40:block-width=16:block-height=16)
[18:36:16]      + Decomb (mode=39)
[18:36:16]      + Framerate Shaper (mode=1)
[18:36:16]        + frame rate: 23.976 fps -> constant 23.976 fps
[18:36:16]    + Output geometry
[18:36:16]      + storage dimensions: 1920 x 960
[18:36:16]      + pixel aspect ratio: 1 : 1
[18:36:16]      + display dimensions: 1920 x 960
[18:36:16]    + encoder: H.265 (AMD VCE)
[18:36:16]      + preset:  quality
[18:36:16]      + profile: main
[18:36:16]      + level:   4.1
[18:36:16]      + quality: 22.00 (QP)
[18:36:16]      + color profile: 1-1-1
[18:36:16]  * subtitle track 1, English [UTF-8] (track 0, id 0x2, Text) -> Passthrough
[18:36:16]    + name: SDH
[18:36:16]  * audio track 1
[18:36:16]    + decoder: English (E-AC3) (5.1 ch) (640 kbps) (track 1, id 0x1)
[18:36:16]      + bitrate: 640 kbps, samplerate: 48000 Hz
[18:36:16]    + E-AC3 Passthru
[18:36:16] sync: expecting 65565 video frames
[18:36:16] encavcodecInit: H.265 (AMD VCE)
[18:36:16] encavcodec: encoding at QP 22.00
[18:36:16] encavcodec: encoding with stored aspect 1/1
[18:36:16] sync: first pts video is 0
[18:36:16] sync: Chapter 1 at frame 1 time 0
[18:36:16] sync: first pts audio 0x1 is 0
[18:36:17] sync: first pts subtitle 0x2 is 293760
[18:49:57] reader: done. 1 scr changes
[18:49:59] work: average encoding speed for job is 79.769409 fps
[18:49:59] comb detect: heavy 304 | light 694 | uncombed 64567 | total 65565
[18:49:59] decomb: deinterlaced 304 | blended 694 | unfiltered 64567 | total 65565
[18:49:59] vfr: 65565 frames output, 0 dropped and 0 duped for CFR/PFR
[18:49:59] vfr: lost time: 0 (0 frames)
[18:49:59] vfr: gained time: 0 (0 frames) (0 not accounted for)
[18:49:59] eac3-decoder done: 85457 frames, 0 decoder errors
[18:49:59] h264-decoder done: 65565 frames, 0 decoder errors
[18:49:59] sync: got 65565 frames, 65565 expected
[18:49:59] sync: framerate min 23.976 fps, max 23.976 fps, avg 23.976 fps
[18:49:59] mux: track 0, 65565 frames, 871892599 bytes, 2550.65 kbps, fifo 2048
[18:49:59] mux: track 1, 85457 frames, 218769920 bytes, 639.99 kbps, fifo 2048
[18:49:59] mux: track 2, 867 frames, 44250 bytes, 0.13 kbps, fifo 32
[18:49:59] Finished work at: Wed May 20 18:49:59 2020
[18:49:59] libhb: work result = 0

# Encode Completed ...


Post Reply