Nightly Build freezes on "Please Wait..."

HandBrake for Windows support
Forum rules
An Activity Log is required for support requests. Please read How-to get an activity log? for details on how and why this should be provided.
Post Reply
skylinekiller
Posts: 27
Joined: Thu Jan 17, 2019 9:12 am

Nightly Build freezes on "Please Wait..."

Post by skylinekiller »

The Nightly Build just freezes on the "Please Wait... screen. It has done this ever since i upgraded my PC to the AMD 3950x. The regular builds work perfectly fine




reinstall nightly build, tried several different versions, all the nightly builds freeze:




HandBrake version (HandBrake-20200216-970f2955f_x86_64-SafeMode-Win_GUI.exe) Regular build that works fine is 1.3.1 (2020010400):




Operating system Windows 10 updated as of 23 February 2020:




Nightly Build Log with the same video file as regural build log below this log

Code: Select all

HandBrake Nightly 20200215222534-970f295-master (2020021601)
OS: Microsoft Windows NT 6.2.9200.0
CPU: AMD Ryzen 9 3950X 16-Core Processor            
Ram: 65483 MB, 
GPU Information:
  NVIDIA GeForce GTX 1660 SUPER - 26.21.14.4166
Screen: 1920x1080
Temp Dir: C:\Users\John\AppData\Local\Temp\
Install Dir: C:\Program Files\HandBrake Nightly
Data Dir: C:\Users\John\AppData\Roaming\HandBrake\Nightly

-------------------------------------------

[07:53:55] hb_init: starting libhb thread

 # Starting Scan ...

[07:53:56] CPU: AMD Ryzen 9 3950X 16-Core Processor
[07:53:56]  - logical processor count: 32
[07:53:56] hb_scan: path=S:\Shaolin Temple (1976)\Shaolin Temple (1976).mkv, title_index=0
udfread ERROR: ECMA 167 Volume Recognition failed
src/libbluray/disc/disc.c:323: failed opening UDF image S:\Shaolin Temple (1976)\Shaolin Temple (1976).mkv
src/libbluray/disc/disc.c:424: error opening file BDMV\index.bdmv
src/libbluray/disc/disc.c:424: error opening file BDMV\BACKUP\index.bdmv
src/libbluray/bluray.c:2585: nav_get_title_list(S:\Shaolin Temple (1976)\Shaolin Temple (1976).mkv\) failed
[07:53:56] bd: not a bd - trying as a stream/file instead
libdvdnav: Using dvdnav version 6.0.1
libdvdread: Encrypted DVD support unavailable.
libdvdread:DVDOpenFileUDF:UDFFindFile /VIDEO_TS/VIDEO_TS.IFO failed
libdvdread:DVDOpenFileUDF:UDFFindFile /VIDEO_TS/VIDEO_TS.BUP failed
libdvdread: Can't open file VIDEO_TS.IFO.
libdvdnav: vm: failed to read VIDEO_TS.IFO
[07:53:56] dvd: not a dvd - trying as a stream/file instead
Input #0, matroska,webm, from 'S:\Shaolin Temple (1976)\Shaolin Temple (1976).mkv':
  Metadata:
    title           : 少林寺 | Shaolin Temple (1976)
    encoder         : libebml v1.3.10 + libmatroska v1.5.2
    creation_time   : 2020-02-22T12:16:42.000000Z
  Duration: 02:00:10.83, start: 0.000000, bitrate: 9047 kb/s
    Chapter #0:0: start 0.000000, end 602.518583
    Metadata:
      title           : Chapter 01
    Chapter #0:1: start 602.518583, end 1131.255125
    Metadata:
      title           : Chapter 02
    Chapter #0:2: start 1131.255125, end 1678.802125
    Metadata:
      title           : Chapter 03
    Chapter #0:3: start 1678.802125, end 2358.105750
    Metadata:
      title           : Chapter 04
    Chapter #0:4: start 2358.105750, end 2984.231250
    Metadata:
      title           : Chapter 05
    Chapter #0:5: start 2984.231250, end 3619.657708
    Metadata:
      title           : Chapter 06
    Chapter #0:6: start 3619.657708, end 4245.366125
    Metadata:
      title           : Chapter 07
    Chapter #0:7: start 4245.366125, end 4828.907417
    Metadata:
      title           : Chapter 08
    Chapter #0:8: start 4828.907417, end 5513.883375
    Metadata:
      title           : Chapter 09
    Chapter #0:9: start 5513.883375, end 6053.714333
    Metadata:
      title           : Chapter 10
    Chapter #0:10: start 6053.714333, end 6616.276333
    Metadata:
      title           : Chapter 11
    Chapter #0:11: start 6616.276333, end 7208.784917
    Metadata:
      title           : Chapter 12
    Chapter #0:12: start 7208.784917, end 7210.790000
    Metadata:
      title           : Chapter 13
    Stream #0:0: Video: h264 (High), yuv420p(progressive), 1920x800, SAR 1:1 DAR 12:5, 23.98 fps, 23.98 tbr, 1k tbn, 47.95 tbc (default)
    Metadata:
      title           : 少林寺
      BPS-eng         : 8148936
      DURATION-eng    : 02:00:10.829000000
      NUMBER_OF_FRAMES-eng: 172887
      NUMBER_OF_BYTES-eng: 7345073504
      _STATISTICS_WRITING_APP-eng: mkvmerge v42.0.0 ('Overtime') 64-bit
      _STATISTICS_WRITING_DATE_UTC-eng: 2020-02-22 12:16:42
      _STATISTICS_TAGS-eng: BPS DURATION NUMBER_OF_FRAMES NUMBER_OF_BYTES
    Stream #0:1(chi): Audio: ac3, 48000 Hz, stereo, fltp, 640 kb/s (default)
    Metadata:
      title           : 国语(Mandarin)
      BPS-eng         : 640000
      DURATION-eng    : 02:00:10.816000000
      NUMBER_OF_FRAMES-eng: 225338
      NUMBER_OF_BYTES-eng: 576865280
      _STATISTICS_WRITING_APP-eng: mkvmerge v42.0.0 ('Overtime') 64-bit
      _STATISTICS_WRITING_DATE_UTC-eng: 2020-02-22 12:16:42
      _STATISTICS_TAGS-eng: BPS DURATION NUMBER_OF_FRAMES NUMBER_OF_BYTES
    Stream #0:2(eng): Audio: ac3, 48000 Hz, stereo, fltp, 256 kb/s
    Metadata:
      title           : 英语(English)
      BPS-eng         : 256000
      DURATION-eng    : 02:00:06.240000000
      NUMBER_OF_FRAMES-eng: 225195
      NUMBER_OF_BYTES-eng: 230599680
      _STATISTICS_WRITING_APP-eng: mkvmerge v42.0.0 ('Overtime') 64-bit
      _STATISTICS_WRITING_DATE_UTC-eng: 2020-02-22 12:16:42
      _STATISTICS_TAGS-eng: BPS DURATION NUMBER_OF_FRAMES NUMBER_OF_BYTES
    Stream #0:3(eng): Subtitle: subrip (default)
    Metadata:
      title           : 英语(English)
      BPS-eng         : 24
      DURATION-eng    : 01:57:01.640000000
      NUMBER_OF_FRAMES-eng: 778
      NUMBER_OF_BYTES-eng: 21553
      _STATISTICS_WRITING_APP-eng: mkvmerge v42.0.0 ('Overtime') 64-bit
      _STATISTICS_WRITING_DATE_UTC-eng: 2020-02-22 12:16:42
      _STATISTICS_TAGS-eng: BPS DURATION NUMBER_OF_FRAMES NUMBER_OF_BYTES
    Stream #0:4(eng): Subtitle: ass
    Metadata:
      BPS-eng         : 59
      DURATION-eng    : 01:57:01.640000000
      NUMBER_OF_FRAMES-eng: 778
      NUMBER_OF_BYTES-eng: 52563
      _STATISTICS_WRITING_APP-eng: mkvmerge v42.0.0 ('Overtime') 64-bit
      _STATISTICS_WRITING_DATE_UTC-eng: 2020-02-22 12:16:42
      _STATISTICS_TAGS-eng: BPS DURATION NUMBER_OF_FRAMES NUMBER_OF_BYTES
[07:53:56] scan: decoding previews for title 1
[07:53:56] scan: Too few previews (0), trying harder
[07:53:56] scan: decoding previews for title 1
[07:53:56] libhb: scan thread found 0 valid title(s)
json pack failure: NULL object

 # Manually Stopping Scan ...


 # Scan Stopped ...


Regular Build Log with the same video file as above

Code: Select all

[07:57:31] Compile-time hardening features are enabled
[07:57:31] Nvenc version 9.1
[07:57:53] hb_init: starting libhb thread

 # Starting Scan ...

[07:57:53] CPU: AMD Ryzen 9 3950X 16-Core Processor
[07:57:53]  - logical processor count: 32
[07:57:53] Intel Quick Sync Video support: no
[07:57:53] hb_scan: path=S:\Shaolin Temple (1976)\Shaolin Temple (1976).mkv, title_index=0
udfread ERROR: ECMA 167 Volume Recognition failed
src/libbluray/disc/disc.c:323: failed opening UDF image S:\Shaolin Temple (1976)\Shaolin Temple (1976).mkv
src/libbluray/disc/disc.c:424: error opening file BDMV\index.bdmv
src/libbluray/disc/disc.c:424: error opening file BDMV\BACKUP\index.bdmv
src/libbluray/bluray.c:2585: nav_get_title_list(S:\Shaolin Temple (1976)\Shaolin Temple (1976).mkv\) failed
[07:57:53] bd: not a bd - trying as a stream/file instead
libdvdnav: Using dvdnav version 6.0.1
libdvdread: Encrypted DVD support unavailable.
libdvdread:DVDOpenFileUDF:UDFFindFile /VIDEO_TS/VIDEO_TS.IFO failed
libdvdread:DVDOpenFileUDF:UDFFindFile /VIDEO_TS/VIDEO_TS.BUP failed
libdvdread: Can't open file VIDEO_TS.IFO.
libdvdnav: vm: failed to read VIDEO_TS.IFO
[07:57:53] dvd: not a dvd - trying as a stream/file instead
Input #0, matroska,webm, from 'S:\Shaolin Temple (1976)\Shaolin Temple (1976).mkv':
  Metadata:
    title           : 少林寺 | Shaolin Temple (1976)
    encoder         : libebml v1.3.10 + libmatroska v1.5.2
    creation_time   : 2020-02-22T12:16:42.000000Z
  Duration: 02:00:10.83, start: 0.000000, bitrate: 9047 kb/s
    Chapter #0:0: start 0.000000, end 602.518583
    Metadata:
      title           : Chapter 01
    Chapter #0:1: start 602.518583, end 1131.255125
    Metadata:
      title           : Chapter 02
    Chapter #0:2: start 1131.255125, end 1678.802125
    Metadata:
      title           : Chapter 03
    Chapter #0:3: start 1678.802125, end 2358.105750
    Metadata:
      title           : Chapter 04
    Chapter #0:4: start 2358.105750, end 2984.231250
    Metadata:
      title           : Chapter 05
    Chapter #0:5: start 2984.231250, end 3619.657708
    Metadata:
      title           : Chapter 06
    Chapter #0:6: start 3619.657708, end 4245.366125
    Metadata:
      title           : Chapter 07
    Chapter #0:7: start 4245.366125, end 4828.907417
    Metadata:
      title           : Chapter 08
    Chapter #0:8: start 4828.907417, end 5513.883375
    Metadata:
      title           : Chapter 09
    Chapter #0:9: start 5513.883375, end 6053.714333
    Metadata:
      title           : Chapter 10
    Chapter #0:10: start 6053.714333, end 6616.276333
    Metadata:
      title           : Chapter 11
    Chapter #0:11: start 6616.276333, end 7208.784917
    Metadata:
      title           : Chapter 12
    Chapter #0:12: start 7208.784917, end 7210.790000
    Metadata:
      title           : Chapter 13
    Stream #0:0: Video: h264 (High), yuv420p(progressive), 1920x800, SAR 1:1 DAR 12:5, 23.98 fps, 23.98 tbr, 1k tbn, 47.95 tbc (default)
    Metadata:
      title           : 少林寺
      BPS-eng         : 8148936
      DURATION-eng    : 02:00:10.829000000
      NUMBER_OF_FRAMES-eng: 172887
      NUMBER_OF_BYTES-eng: 7345073504
      _STATISTICS_WRITING_APP-eng: mkvmerge v42.0.0 ('Overtime') 64-bit
      _STATISTICS_WRITING_DATE_UTC-eng: 2020-02-22 12:16:42
      _STATISTICS_TAGS-eng: BPS DURATION NUMBER_OF_FRAMES NUMBER_OF_BYTES
    Stream #0:1(chi): Audio: ac3, 48000 Hz, stereo, fltp, 640 kb/s (default)
    Metadata:
      title           : 国语(Mandarin)
      BPS-eng         : 640000
      DURATION-eng    : 02:00:10.816000000
      NUMBER_OF_FRAMES-eng: 225338
      NUMBER_OF_BYTES-eng: 576865280
      _STATISTICS_WRITING_APP-eng: mkvmerge v42.0.0 ('Overtime') 64-bit
      _STATISTICS_WRITING_DATE_UTC-eng: 2020-02-22 12:16:42
      _STATISTICS_TAGS-eng: BPS DURATION NUMBER_OF_FRAMES NUMBER_OF_BYTES
    Stream #0:2(eng): Audio: ac3, 48000 Hz, stereo, fltp, 256 kb/s
    Metadata:
      title           : 英语(English)
      BPS-eng         : 256000
      DURATION-eng    : 02:00:06.240000000
      NUMBER_OF_FRAMES-eng: 225195
      NUMBER_OF_BYTES-eng: 230599680
      _STATISTICS_WRITING_APP-eng: mkvmerge v42.0.0 ('Overtime') 64-bit
      _STATISTICS_WRITING_DATE_UTC-eng: 2020-02-22 12:16:42
      _STATISTICS_TAGS-eng: BPS DURATION NUMBER_OF_FRAMES NUMBER_OF_BYTES
    Stream #0:3(eng): Subtitle: subrip (default)
    Metadata:
      title           : 英语(English)
      BPS-eng         : 24
      DURATION-eng    : 01:57:01.640000000
      NUMBER_OF_FRAMES-eng: 778
      NUMBER_OF_BYTES-eng: 21553
      _STATISTICS_WRITING_APP-eng: mkvmerge v42.0.0 ('Overtime') 64-bit
      _STATISTICS_WRITING_DATE_UTC-eng: 2020-02-22 12:16:42
      _STATISTICS_TAGS-eng: BPS DURATION NUMBER_OF_FRAMES NUMBER_OF_BYTES
    Stream #0:4(eng): Subtitle: ass
    Metadata:
      BPS-eng         : 59
      DURATION-eng    : 01:57:01.640000000
      NUMBER_OF_FRAMES-eng: 778
      NUMBER_OF_BYTES-eng: 52563
      _STATISTICS_WRITING_APP-eng: mkvmerge v42.0.0 ('Overtime') 64-bit
      _STATISTICS_WRITING_DATE_UTC-eng: 2020-02-22 12:16:42
      _STATISTICS_TAGS-eng: BPS DURATION NUMBER_OF_FRAMES NUMBER_OF_BYTES
[07:57:53] scan: decoding previews for title 1
[07:57:53] scan: audio 0x1: ac3, rate=48000Hz, bitrate=640000 ?? (AC3) (2.0 ch) (640 kbps)
[07:57:53] scan: audio 0x2: ac3, rate=48000Hz, bitrate=256000 English (AC3) (2.0 ch) (256 kbps)
[07:57:53] scan: 10 previews, 1920x800, 23.976 fps, autocrop = 0/0/0/0, aspect 2.40:1, PAR 1:1
[07:57:53] scan: supported video decoders: avcodec qsv
[07:57:53] libhb: scan thread found 1 valid title(s)

 # Processing Scan Information ...


 # Scan Finished ...



Post Reply