why is Apple TV not a preset anymore?

HandBrake for Windows support
Forum rules
An Activity Log is required for support requests. Please read How-to get an activity log? for details on how and why this should be provided.
Post Reply
CluelessInSeattle
Posts: 9
Joined: Wed Feb 12, 2020 3:46 am

why is Apple TV not a preset anymore?

Post by CluelessInSeattle »

Description of problem or question:

There is no problem with the program that I know of, I just can't get my movie to play on Apple TV. I ripped a dvd on Apple 2160 (I did not know any better at the time) and I could not get it to play appropriately on either iTunes or Apple TV. I ran that file thru as Apple 1080p60 and I finally got it to show up in iTunes but as a home movie... I changed it to movie in its options and then it showed up in my iTunes movie list and played correctly. However, I still cannot get it to play on my Apple TV. Am I doing it wrong? I am tech savvy to a point but not this. Should I get a legacy version to do this or can we add it back? Halp please! (And thank you)

HandBrake version (e.g., 1.0.0):

version 1.3.1

Operating system and version (e.g., Ubuntu 16.04 LTS, macOS 10.13 High Sierra, Windows 10 Creators Update):

Windows 10 Home, version 1903

CluelessInSeattle
Posts: 9
Joined: Wed Feb 12, 2020 3:46 am

Re: why is Apple TV not a preset anymore?

Post by CluelessInSeattle »

Code: Select all

HandBrake 1.3.1 (2020010400)
OS: Microsoft Windows NT 10.0.18362.0
CPU: Intel(R) Core(TM) i7-3770 CPU @ 3.40GHz
Ram: 16279 MB, 
GPU Information:
  Intel(R) HD Graphics 4000 - 10.18.10.4358
  NVIDIA GeForce GTX 660 - 26.21.14.4112
Screen: 1920x1080


-------------------------------------------


# Starting Encode ...

[08:22:46] base preset: Apple 1080p60 Surround
[20:22:46] hb_init: starting libhb thread
[20:22:46] Starting work at: Tue Feb 11 20:22:46 2020
[20:22:46] 1 job(s) to process
[20:22:46] json job:
{
  "Audio": {
    "AudioList": [
      {
        "Bitrate": 160,
        "DRC": 0.0,
        "Encoder": "av_aac",
        "Gain": 0.0,
        "Mixdown": 4,
        "NormalizeMixLevel": false,
        "Samplerate": 0,
        "Name": "Stereo",
        "Track": 0,
        "DitherMethod": 0
      },
      {
        "Bitrate": 640,
        "DRC": 0.0,
        "Encoder": "ac3",
        "Gain": 0.0,
        "Mixdown": 4,
        "NormalizeMixLevel": false,
        "Samplerate": 0,
        "Name": "Stereo",
        "Track": 0,
        "DitherMethod": 0
      }
    ],
    "CopyMask": [
      "copy:aac",
      "copy:ac3",
      "copy:dtshd",
      "copy:dts",
      "copy:eac3",
      "copy:flac",
      "copy:mp3",
      "copy:truehd"
    ],
    "FallbackEncoder": "ac3"
  },
  "Destination": {
    "ChapterList": [
      {
        "Name": "Chapter 1"
      },
      {
        "Name": "Chapter 2"
      },
      {
        "Name": "Chapter 3"
      },
      {
        "Name": "Chapter 4"
      },
      {
        "Name": "Chapter 5"
      },
      {
        "Name": "Chapter 6"
      },
      {
        "Name": "Chapter 7"
      },
      {
        "Name": "Chapter 8"
      },
      {
        "Name": "Chapter 9"
      },
      {
        "Name": "Chapter 10"
      },
      {
        "Name": "Chapter 11"
      },
      {
        "Name": "Chapter 12"
      },
      {
        "Name": "Chapter 13"
      },
      {
        "Name": "Chapter 14"
      },
      {
        "Name": "Chapter 15"
      },
      {
        "Name": "Chapter 16"
      },
      {
        "Name": "Chapter 17"
      },
      {
        "Name": "Chapter 18"
      }
    ],
    "ChapterMarkers": true,
    "AlignAVStart": false,
    "File": "E:\\Letters To Juliet.m4v",
    "Mp4Options": {
      "IpodAtom": false,
      "Mp4Optimize": false
    },
    "Mux": "mp4"
  },
  "Filters": {
    "FilterList": [
      {
        "ID": 4,
        "Settings": {
          "mode": "7"
        }
      },
      {
        "ID": 3,
        "Settings": {
          "block-height": "16",
          "block-thresh": "40",
          "block-width": "16",
          "filter-mode": "2",
          "mode": "3",
          "motion-thresh": "1",
          "spatial-metric": "2",
          "spatial-thresh": "1"
        }
      },
      {
        "ID": 12,
        "Settings": {
          "crop-bottom": "0",
          "crop-left": "0",
          "crop-right": "0",
          "crop-top": "0",
          "height": "368",
          "width": "720"
        }
      },
      {
        "ID": 6,
        "Settings": {
          "mode": "2",
          "rate": "27000000/450000"
        }
      }
    ]
  },
  "PAR": {
    "Num": 32,
    "Den": 27
  },
  "Metadata": {},
  "SequenceID": 0,
  "Source": {
    "Angle": 1,
    "Range": {
      "Type": "chapter",
      "Start": 1,
      "End": 18
    },
    "Title": 1,
    "Path": "E:\\Letters to Juliet.mp4"
  },
  "Subtitle": {
    "Search": {
      "Burn": true,
      "Default": false,
      "Enable": true,
      "Forced": true
    },
    "SubtitleList": []
  },
  "Video": {
    "Encoder": "x264",
    "Level": "4.2",
    "TwoPass": false,
    "Turbo": false,
    "ColorMatrixCode": 0,
    "Options": "",
    "Preset": "medium",
    "Profile": "high",
    "Quality": 22.0,
    "QSV": {
      "Decode": false,
      "AsyncDepth": 0
    }
  }
}
[20:22:46] CPU: Intel(R) Core(TM) i7-3770 CPU @ 3.40GHz
[20:22:46]  - Intel microarchitecture Ivy Bridge
[20:22:46]  - logical processor count: 8
[20:22:46] Intel Quick Sync Video support: yes
[20:22:46]  - Intel Media SDK hardware: API 1.11 (minimum: 1.3)
[20:22:46]  - H.264 encoder: yes
[20:22:46]     - preferred implementation: hardware (any) via D3D11
[20:22:46]     - capabilities (hardware):  vsinfo opt1 opt2+extbrc+ib_adapt+nmpslice
[20:22:46]  - H.265 encoder: no
[20:22:46] hb_scan: path=E:\Letters to Juliet.mp4, title_index=1
udfread ERROR: ECMA 167 Volume Recognition failed
src/libbluray/disc/disc.c:323: failed opening UDF image E:\Letters to Juliet.mp4
src/libbluray/disc/disc.c:424: error opening file BDMV\index.bdmv
src/libbluray/disc/disc.c:424: error opening file BDMV\BACKUP\index.bdmv
src/libbluray/bluray.c:2585: nav_get_title_list(E:\Letters to Juliet.mp4\) failed
[20:22:46] bd: not a bd - trying as a stream/file instead
libdvdnav: Using dvdnav version 6.0.1
libdvdread: Encrypted DVD support unavailable.
libdvdread:DVDOpenFileUDF:UDFFindFile /VIDEO_TS/VIDEO_TS.IFO failed
libdvdread:DVDOpenFileUDF:UDFFindFile /VIDEO_TS/VIDEO_TS.BUP failed
libdvdread: Can't open file VIDEO_TS.IFO.
libdvdnav: vm: failed to read VIDEO_TS.IFO
[20:22:46] dvd: not a dvd - trying as a stream/file instead
Input #0, mov,mp4,m4a,3gp,3g2,mj2, from 'E:\Letters to Juliet.mp4':
  Metadata:
    major_brand     : mp42
    minor_version   : 512
    compatible_brands: isomiso2mp41
    creation_time   : 2019-11-10T17:13:08.000000Z
    encoder         : HandBrake 1.2.2 2019022300
  Duration: 01:45:20.40, start: 0.000000, bitrate: 1008 kb/s
    Chapter #0:0: start 0.000000, end 386.386000
    Metadata:
      title           : Chapter 1
    Chapter #0:1: start 386.386000, end 629.504000
    Metadata:
      title           : Chapter 2
    Chapter #0:2: start 629.504000, end 1088.963000
    Metadata:
      title           : Chapter 3
    Chapter #0:3: start 1088.963000, end 1576.283000
    Metadata:
      title           : Chapter 4
    Chapter #0:4: start 1576.283000, end 1835.709000
    Metadata:
      title           : Chapter 5
    Chapter #0:5: start 1835.709000, end 2034.241000
    Metadata:
      title           : Chapter 6
    Chapter #0:6: start 2034.241000, end 2428.801000
    Metadata:
      title           : Chapter 7
    Chapter #0:7: start 2428.801000, end 2788.494000
    Metadata:
      title           : Chapter 8
    Chapter #0:8: start 2788.494000, end 3154.193000
    Metadata:
      title           : Chapter 9
    Chapter #0:9: start 3154.193000, end 3468.799000
    Metadata:
      title           : Chapter 10
    Chapter #0:10: start 3468.799000, end 3801.673000
    Metadata:
      title           : Chapter 11
    Chapter #0:11: start 3801.673000, end 4058.763000
    Metadata:
      title           : Chapter 12
    Chapter #0:12: start 4058.763000, end 4508.212000
    Metadata:
      title           : Chapter 13
    Chapter #0:13: start 4508.212000, end 4879.708000
    Metadata:
      title           : Chapter 14
    Chapter #0:14: start 4879.708000, end 5262.632000
    Metadata:
      title           : Chapter 15
    Chapter #0:15: start 5262.632000, end 5487.023000
    Metadata:
      title           : Chapter 16
    Chapter #0:16: start 5487.023000, end 5706.075000
    Metadata:
      title           : Chapter 17
    Chapter #0:17: start 5706.075000, end 6320.356000
    Metadata:
      title           : Chapter 18
    Stream #0:0(und): Video: hevc (Main) (hvc1 / 0x31637668), yuv420p(tv, smpte170m/smpte170m/bt709), 720x368 [SAR 32:27 DAR 160:69], 391 kb/s, 23.98 fps, 23.98 tbr, 90k tbn, 23.98 tbc (default)
    Metadata:
      creation_time   : 2019-11-10T17:13:08.000000Z
      handler_name    : VideoHandler
    Stream #0:1(eng): Audio: aac (LC) (mp4a / 0x6134706D), 48000 Hz, stereo, fltp, 160 kb/s (default)
    Metadata:
      creation_time   : 2019-11-10T17:13:08.000000Z
      handler_name    : SoundHandler
      title           : Stereo
    Stream #0:2(eng): Audio: ac3 (ac-3 / 0x332D6361), 48000 Hz, 5.1(side), fltp, 448 kb/s
    Metadata:
      creation_time   : 2019-11-10T17:13:08.000000Z
      handler_name    : SoundHandler
      title           : Surround
    Side data:
      audio service type: main
    Stream #0:3(eng): Data: bin_data (text / 0x74786574)
    Metadata:
      creation_time   : 2019-11-10T17:13:08.000000Z
      handler_name    : SubtitleHandler
    Stream #0:4: Video: mjpeg (Baseline), yuvj420p(pc, bt470bg/unknown/unknown), 450x450, 90k tbr, 90k tbn, 90k tbc (attached pic)
[20:22:46] scan: decoding previews for title 1
[20:22:46] scan: audio 0x1: aac, rate=48000Hz, bitrate=160362 English (AAC LC) (2.0 ch) (160 kbps)
[20:22:46] scan: audio 0x2: ac3, rate=48000Hz, bitrate=448000 English (AC3) (5.1 ch) (448 kbps)
[20:22:47] scan: 10 previews, 720x368, 23.976 fps, autocrop = 0/0/0/0, aspect 2.32:1, PAR 32:27
[20:22:47] scan: supported video decoders: avcodec qsv
[20:22:47] libhb: scan thread found 1 valid title(s)
[20:22:47] Skipping subtitle scan.  No suitable subtitle tracks.
[20:22:47] Starting Task: Encoding Pass
[20:22:47] Skipping crop/scale filter
[20:22:47] job configuration:
[20:22:47]  * source
[20:22:47]    + E:\Letters to Juliet.mp4
[20:22:47]    + title 1, chapter(s) 1 to 18
[20:22:47]    + container: mov,mp4,m4a,3gp,3g2,mj2
[20:22:47]    + data rate: 1008 kbps
[20:22:47]  * destination
[20:22:47]    + E:\Letters To Juliet.m4v
[20:22:47]    + container: MPEG-4 (libavformat)
[20:22:47]      + chapter markers
[20:22:47]  * video track
[20:22:47]    + decoder: hevc
[20:22:47]      + bitrate 391 kbps
[20:22:47]    + filters
[20:22:47]      + Comb Detect (mode=3:spatial-metric=2:motion-thresh=1:spatial-thresh=1:filter-mode=2:block-thresh=40:block-width=16:block-height=16)
[20:22:47]      + Decomb (mode=39)
[20:22:47]      + Framerate Shaper (mode=2:rate=27000000/450000)
[20:22:47]        + frame rate: 23.976 fps -> peak rate limited to 60.000 fps
[20:22:47]    + Output geometry
[20:22:47]      + storage dimensions: 720 x 368
[20:22:47]      + pixel aspect ratio: 32 : 27
[20:22:47]      + display dimensions: 853 x 368
[20:22:47]    + encoder: H.264 (libx264)
[20:22:47]      + preset:  medium
[20:22:47]      + profile: high
[20:22:47]      + level:   4.2
[20:22:47]      + quality: 22.00 (RF)
[20:22:47]      + color profile: 6-1-6
[20:22:47]  * audio track 1
[20:22:47]    + name: Stereo
[20:22:47]    + decoder: English (AAC LC) (2.0 ch) (160 kbps) (track 1, id 0x1)
[20:22:47]      + bitrate: 160 kbps, samplerate: 48000 Hz
[20:22:47]    + mixdown: Stereo
[20:22:47]    + dither: none
[20:22:47]    + encoder: AAC (libavcodec)
[20:22:47]      + bitrate: 160 kbps, samplerate: 48000 Hz
[20:22:47]  * audio track 2
[20:22:47]    + name: Stereo
[20:22:47]    + decoder: English (AAC LC) (2.0 ch) (160 kbps) (track 1, id 0x1)
[20:22:47]      + bitrate: 160 kbps, samplerate: 48000 Hz
[20:22:47]    + mixdown: Stereo
[20:22:47]    + dither: none
[20:22:47]    + encoder: AC3 (libavcodec)
[20:22:47]      + bitrate: 640 kbps, samplerate: 48000 Hz
[20:22:47] sync: expecting 151538 video frames
[20:22:47] encx264: min-keyint: 24, keyint: 240
[20:22:47] encx264: encoding at constant RF 22.000000
[20:22:47] encx264: unparsed options: level=4.2:vbv-bufsize=78125:vbv-maxrate=62500
x264 [info]: using SAR=32/27
x264 [info]: using cpu capabilities: MMX2 SSE2Fast SSSE3 SSE4.2 AVX
x264 [info]: profile High, level 4.2, 4:2:0, 8-bit
[20:22:47] sync: first pts video is 0
[20:22:47] sync: "Chapter 1" (1) at frame 1 time 0
[20:22:47] sync: first pts audio 0x1 is 0
[20:22:47] sync: first pts audio 0x1 is 0
[20:23:34] sync: "Chapter 2" (2) at frame 9265 time 34774740
[20:24:09] sync: "Chapter 3" (3) at frame 15099 time 56674117
[20:25:09] sync: "Chapter 4" (4) at frame 26115 time 98025427
[20:26:06] sync: "Chapter 5" (5) at frame 37794 time 141865473
[20:26:39] sync: "Chapter 6" (6) at frame 44019 time 165232567
[20:27:01] sync: "Chapter 7" (7) at frame 48779 time 183100417
[20:27:52] sync: "Chapter 8" (8) at frame 58234 time 218592123
[20:28:39] sync: "Chapter 9" (9) at frame 66858 time 250964463
[20:29:20] sync: "Chapter 10" (10) at frame 75631 time 283896112
[20:30:00] sync: "Chapter 11" (11) at frame 83171 time 312199387
[20:30:45] sync: "Chapter 12" (12) at frame 91155 time 342169327
[20:31:18] sync: "Chapter 13" (13) at frame 97314 time 365288673
[20:32:26] sync: "Chapter 14" (14) at frame 108090 time 405739083
[20:33:19] sync: "Chapter 15" (15) at frame 116997 time 439173735
[20:34:11] sync: "Chapter 16" (16) at frame 126178 time 473636913
[20:34:47] sync: "Chapter 17" (17) at frame 131558 time 493832088
[20:35:23] sync: "Chapter 18" (18) at frame 136810 time 513546783
[20:36:30] reader: done. 1 scr changes
[20:36:31] work: average encoding speed for job is 183.928665 fps
[20:36:31] comb detect: heavy 153 | light 945 | uncombed 150440 | total 151538
[20:36:31] decomb: deinterlaced 153 | blended 945 | unfiltered 150440 | total 151538
[20:36:31] vfr: 151538 frames output, 0 dropped and 0 duped for CFR/PFR
[20:36:31] vfr: lost time: 0 (0 frames)
[20:36:31] vfr: gained time: 0 (0 frames) (0 not accounted for)
[20:36:31] aac-decoder done: 296265 frames, 0 decoder errors
[20:36:31] aac-decoder done: 296265 frames, 0 decoder errors
[20:36:31] hevc-decoder done: 151538 frames, 0 decoder errors
[20:36:31] sync: got 151538 frames, 151538 expected
[20:36:31] sync: framerate min 23.976 fps, max 23.976 fps, avg 23.976 fps
x264 [info]: frame I:1513  Avg QP:17.78  size: 33524
x264 [info]: frame P:40223 Avg QP:21.52  size:  6532
x264 [info]: frame B:109802 Avg QP:25.84  size:  1273
x264 [info]: consecutive B-frames:  1.8%  3.2%  4.5% 90.5%
x264 [info]: mb I  I16..4:  5.9% 71.1% 22.9%
x264 [info]: mb P  I16..4:  0.8%  5.3%  1.0%  P16..4: 37.4% 17.5% 10.6%  0.0%  0.0%    skip:27.4%
x264 [info]: mb B  I16..4:  0.1%  0.3%  0.1%  B16..8: 36.3%  3.6%  1.0%  direct: 1.2%  skip:57.4%  L0:41.6% L1:48.6% BI: 9.8%
x264 [info]: 8x8 transform intra:73.4% inter:76.4%
x264 [info]: coded y,uvDC,uvAC intra: 77.5% 80.7% 48.0% inter: 12.0% 9.9% 0.7%
x264 [info]: i16 v,h,dc,p: 38% 25%  6% 32%
x264 [info]: i8 v,h,dc,ddl,ddr,vr,hd,vl,hu: 27% 14% 12%  5%  7% 11%  7% 10%  7%
x264 [info]: i4 v,h,dc,ddl,ddr,vr,hd,vl,hu: 30% 15% 10%  5%  9% 11%  7%  8%  5%
x264 [info]: i8c dc,h,v,p: 44% 16% 29% 11%
x264 [info]: Weighted P-Frames: Y:2.1% UV:1.1%
x264 [info]: ref P L0: 59.9% 18.1% 15.6%  6.3%  0.1%
x264 [info]: ref B L0: 91.3%  6.9%  1.8%
x264 [info]: ref B L1: 97.0%  3.0%
x264 [info]: kb/s:573.73
[20:36:31] mux: track 0, 151538 frames, 453208947 bytes, 573.65 kbps, fifo 2048
[20:36:31] mux: track 1, 296266 frames, 126707922 bytes, 160.38 kbps, fifo 8192
[20:36:31] mux: track 2, 197510 frames, 505625600 bytes, 639.99 kbps, fifo 4096
[20:36:31] Finished work at: Tue Feb 11 20:36:31 2020
[20:36:31] libhb: work result = 0

# Encode Completed ...
Last edited by Rodeo on Thu Feb 13, 2020 12:25 am, edited 1 time in total.
Reason: Logs in between [code][/code] blocks please

User avatar
BradleyS
Moderator
Posts: 1769
Joined: Thu Aug 09, 2007 12:16 pm

Re: why is Apple TV not a preset anymore?

Post by BradleyS »

Try the Apple 1080p30 Surround preset.

mduell
Veteran User
Posts: 6926
Joined: Sat Apr 21, 2007 8:54 pm

Re: why is Apple TV not a preset anymore?

Post by mduell »

Which Apple TV? There's at least 4 generations of hardware out there, with different capabilities.

CluelessInSeattle
Posts: 9
Joined: Wed Feb 12, 2020 3:46 am

Re: why is Apple TV not a preset anymore?

Post by CluelessInSeattle »

I was going to use the same movie I was testing with and decided I would start fresh from the dvd. Now it won't read it. It's still endlessly scanning. Why would it read it before (back in May) but not now?

Code: Select all

HandBrake 1.3.1 (2020010400)
OS: Microsoft Windows NT 10.0.18362.0
CPU: Intel(R) Core(TM) i7-3770 CPU @ 3.40GHz
Ram: 16279 MB, 
GPU Information:
  Intel(R) HD Graphics 4000 - 10.18.10.4358
  NVIDIA GeForce GTX 660 - 26.21.14.4112
Screen: 1920x1080


-------------------------------------------

[13:52:44] Compile-time hardening features are enabled
[13:52:44] Nvenc version 9.1
[13:53:14] hb_init: starting libhb thread

 # Starting Scan ...

[13:53:14] CPU: Intel(R) Core(TM) i7-3770 CPU @ 3.40GHz
[13:53:14]  - Intel microarchitecture Ivy Bridge
[13:53:14]  - logical processor count: 8
[13:53:14] Intel Quick Sync Video support: yes
[13:53:14]  - Intel Media SDK hardware: API 1.11 (minimum: 1.3)
[13:53:14]  - H.264 encoder: yes
[13:53:14]     - preferred implementation: hardware (any) via D3D11
[13:53:14]     - capabilities (hardware):  vsinfo opt1 opt2+extbrc+ib_adapt+nmpslice
[13:53:14]  - H.265 encoder: no
[13:53:14] hb_scan: path=D:\, title_index=0
src/libbluray/disc/disc.c:424: error opening file BDMV\index.bdmv
src/libbluray/disc/disc.c:424: error opening file BDMV\BACKUP\index.bdmv
src/libbluray/bluray.c:2585: nav_get_title_list(D:\) failed
[13:53:14] bd: not a bd - trying as a stream/file instead
libdvdread: Encrypted DVD support unavailable.
libdvdread: Can't open D:\ for reading
libdvdread: Device D:\ inaccessible, CSS authentication not available.
[13:53:18] scan: DVD has 20 title(s)
[13:53:18] scan: scanning title 1
[13:53:18] scan: opening IFO for VTS 1
[13:53:18] pgc_id: 1, pgn: 1: pgc: 00000209A8C6BEB0
[13:53:18] scan: duration is 00:00:19 (19166 ms)
[13:53:18] scan: checking audio 1
[13:53:18] scan: id=0x80bd, lang=English (AC3), 3cc=eng ext=0
[13:53:18] scan: title 1 has 2 chapters
[13:53:18] scan: chap 1, 18600 ms
[13:53:18] scan: chap 2, 567 ms
[13:53:18] scan: aspect = 16:9
[13:53:18] scan: scanning title 2
[13:53:18] scan: opening IFO for VTS 2
[13:53:18] pgc_id: 1, pgn: 1: pgc: 00000209A8C6BEB0
[13:53:18] scan: duration is 00:00:00 (567 ms)
[13:53:18] scan: ignoring title (too short)
[13:53:18] scan: scanning title 3
[13:53:18] scan: opening IFO for VTS 2
[13:53:18] pgc_id: 2, pgn: 1: pgc: 00000209A8C6BEB0
[13:53:18] scan: duration is 00:00:00 (567 ms)
[13:53:18] scan: ignoring title (too short)
[13:53:18] scan: scanning title 4
[13:53:18] scan: opening IFO for VTS 2
[13:53:18] pgc_id: 3, pgn: 1: pgc: 00000209A8C6C7B0
[13:53:18] scan: duration is 00:00:00 (567 ms)
[13:53:18] scan: ignoring title (too short)
[13:53:18] scan: scanning title 5
[13:53:18] scan: opening IFO for VTS 2
[13:53:18] pgc_id: 4, pgn: 1: pgc: 00000209A8C6C9F0
[13:53:18] scan: duration is 00:00:00 (567 ms)
[13:53:18] scan: ignoring title (too short)
[13:53:18] scan: scanning title 6
[13:53:18] scan: opening IFO for VTS 3
[13:53:18] pgc_id: 1, pgn: 1: pgc: 00000209A8C6C9F0
[13:53:18] scan: duration is 01:45:14 (6314600 ms)
[13:53:18] scan: checking audio 1
[13:53:18] scan: id=0x80bd, lang=English (AC3), 3cc=eng ext=0
[13:53:18] scan: checking audio 2
[13:53:18] scan: id=0x81bd, lang=español (AC3), 3cc=spa ext=0
[13:53:18] scan: checking audio 3
[13:53:18] scan: id=0x82bd, lang=English (AC3), 3cc=eng ext=3
[13:53:18] scan: checking subtitle 1
[13:53:18] scan: id=0x20bd, lang=English (Wide Screen) [VOBSUB], 3cc=eng ext=0
[13:53:18] scan: checking subtitle 2
[13:53:18] scan: id=0x21bd, lang=español (Wide Screen) [VOBSUB], 3cc=spa ext=0
[13:53:18] scan: checking subtitle 3
[13:53:18] scan: id=0x22bd, lang=English Director's Commentary (Wide Screen) [VOBSUB], 3cc=eng ext=13
[13:53:18] scan: checking subtitle 4
[13:53:18] scan: id=0x23bd, lang=español Director's Commentary (Wide Screen) [VOBSUB], 3cc=spa ext=13
[13:53:18] scan: title 6 has 19 chapters
[13:53:18] scan: chap 1, 386000 ms
[13:53:18] scan: chap 2, 242867 ms
[13:53:18] scan: chap 3, 459000 ms
[13:53:18] scan: chap 4, 486834 ms
[13:53:18] scan: chap 5, 259166 ms
[13:53:18] scan: chap 6, 198333 ms
[13:53:18] scan: chap 7, 394166 ms
[13:53:18] scan: chap 8, 359333 ms
[13:53:18] scan: chap 9, 365333 ms
[13:53:18] scan: chap 10, 314300 ms
[13:53:18] scan: chap 11, 332533 ms
[13:53:18] scan: chap 12, 256834 ms
[13:53:18] scan: chap 13, 449000 ms
[13:53:18] scan: chap 14, 371133 ms
[13:53:18] scan: chap 15, 382533 ms
[13:53:18] scan: chap 16, 224166 ms
[13:53:18] scan: chap 17, 218834 ms
[13:53:18] scan: chap 18, 613667 ms
[13:53:18] scan: chap 19, 567 ms
[13:53:18] scan: aspect = 16:9
[13:53:18] scan: scanning title 7
[13:53:18] scan: opening IFO for VTS 4
[13:53:18] pgc_id: 1, pgn: 1: pgc: 00000209A8C6AB90
[13:53:18] scan: duration is 00:12:41 (761433 ms)
[13:53:18] scan: checking audio 1
[13:53:18] scan: id=0x80bd, lang=English (AC3), 3cc=eng ext=0
[13:53:18] scan: checking subtitle 1
[13:53:18] scan: id=0x20bd, lang=English (Wide Screen) [VOBSUB], 3cc=eng ext=0
[13:53:18] scan: checking subtitle 2
[13:53:18] scan: id=0x21bd, lang=español (Wide Screen) [VOBSUB], 3cc=spa ext=0
[13:53:18] scan: title 7 has 2 chapters
[13:53:18] scan: chap 1, 760867 ms
[13:53:18] scan: chap 2, 567 ms
[13:53:18] scan: aspect = 16:9
[13:53:18] scan: scanning title 8
[13:53:18] scan: opening IFO for VTS 5
[13:53:18] pgc_id: 1, pgn: 1: pgc: 00000209A8C6B5B0
[13:53:18] scan: duration is 00:05:41 (341100 ms)
[13:53:18] scan: checking audio 1
[13:53:18] scan: id=0x80bd, lang=English (AC3), 3cc=eng ext=0
[13:53:18] scan: checking subtitle 1
[13:53:18] scan: id=0x20bd, lang=English (Wide Screen) [VOBSUB], 3cc=eng ext=0
[13:53:18] scan: checking subtitle 2
[13:53:18] scan: id=0x21bd, lang=español (Wide Screen) [VOBSUB], 3cc=spa ext=0
[13:53:18] scan: title 8 has 2 chapters
[13:53:18] scan: chap 1, 340533 ms
[13:53:18] scan: chap 2, 567 ms
[13:53:18] scan: aspect = 16:9
[13:53:18] scan: scanning title 9
[13:53:18] scan: opening IFO for VTS 6
[13:53:18] pgc_id: 1, pgn: 1: pgc: 00000209A8C6C7B0
[13:53:18] scan: duration is 00:10:10 (610667 ms)
[13:53:18] scan: checking audio 1
[13:53:18] scan: id=0x80bd, lang=English (AC3), 3cc=eng ext=0
[13:53:18] scan: checking subtitle 1
[13:53:18] scan: id=0x20bd, lang=English (Wide Screen) [VOBSUB], 3cc=eng ext=0
[13:53:18] scan: checking subtitle 2
[13:53:18] scan: id=0x21bd, lang=español (Wide Screen) [VOBSUB], 3cc=spa ext=0
[13:53:18] scan: title 9 has 10 chapters
[13:53:18] scan: chap 1, 55867 ms
[13:53:18] scan: chap 2, 37433 ms
[13:53:18] scan: chap 3, 42533 ms
[13:53:18] scan: chap 4, 96700 ms
[13:53:18] scan: chap 5, 69300 ms
[13:53:18] scan: chap 6, 92133 ms
[13:53:18] scan: chap 7, 48300 ms
[13:53:18] scan: chap 8, 117300 ms
[13:53:18] scan: chap 9, 50533 ms
[13:53:18] scan: chap 10, 567 ms
[13:53:18] scan: aspect = 16:9
[13:53:18] scan: scanning title 10
[13:53:18] scan: opening IFO for VTS 6
[13:53:18] pgc_id: 2, pgn: 1: pgc: 00000209A8C6AB90
[13:53:18] scan: duration is 00:01:39 (99834 ms)
[13:53:18] scan: checking audio 1
[13:53:18] scan: id=0x80bd, lang=English (AC3), 3cc=eng ext=0
[13:53:18] scan: checking subtitle 1
[13:53:18] scan: id=0x20bd, lang=English (Wide Screen) [VOBSUB], 3cc=eng ext=0
[13:53:18] scan: checking subtitle 2
[13:53:18] scan: id=0x21bd, lang=español (Wide Screen) [VOBSUB], 3cc=spa ext=0
[13:53:18] scan: title 10 has 3 chapters
[13:53:18] scan: chap 1, 55867 ms
[13:53:18] scan: chap 2, 43400 ms
[13:53:18] scan: chap 3, 567 ms
[13:53:18] scan: aspect = 16:9
[13:53:18] scan: scanning title 11
[13:53:18] scan: opening IFO for VTS 6
[13:53:18] pgc_id: 3, pgn: 1: pgc: 00000209A8C6ADD0
[13:53:18] scan: duration is 00:00:49 (49266 ms)
[13:53:18] scan: checking audio 1
[13:53:18] scan: id=0x80bd, lang=English (AC3), 3cc=eng ext=0
[13:53:18] scan: checking subtitle 1
[13:53:18] scan: id=0x20bd, lang=English (Wide Screen) [VOBSUB], 3cc=eng ext=0
[13:53:18] scan: checking subtitle 2
[13:53:18] scan: id=0x21bd, lang=español (Wide Screen) [VOBSUB], 3cc=spa ext=0
[13:53:18] scan: title 11 has 2 chapters
[13:53:18] scan: chap 1, 48699 ms
[13:53:18] scan: chap 2, 567 ms
[13:53:18] scan: aspect = 16:9
[13:53:18] scan: scanning title 12
[13:53:18] scan: opening IFO for VTS 6
[13:53:18] pgc_id: 4, pgn: 1: pgc: 00000209A8C6B130
[13:53:18] scan: duration is 00:01:43 (103400 ms)
[13:53:18] scan: checking audio 1
[13:53:18] scan: id=0x80bd, lang=English (AC3), 3cc=eng ext=0
[13:53:18] scan: checking subtitle 1
[13:53:18] scan: id=0x20bd, lang=English (Wide Screen) [VOBSUB], 3cc=eng ext=0
[13:53:18] scan: checking subtitle 2
[13:53:18] scan: id=0x21bd, lang=español (Wide Screen) [VOBSUB], 3cc=spa ext=0
[13:53:18] scan: title 12 has 2 chapters
[13:53:18] scan: chap 1, 102833 ms
[13:53:18] scan: chap 2, 567 ms
[13:53:18] scan: aspect = 16:9
[13:53:18] scan: scanning title 13
[13:53:18] scan: opening IFO for VTS 6
[13:53:18] pgc_id: 5, pgn: 1: pgc: 00000209A8CC17C0
[13:53:18] scan: duration is 00:01:16 (76066 ms)
[13:53:18] scan: checking audio 1
[13:53:18] scan: id=0x80bd, lang=English (AC3), 3cc=eng ext=0
[13:53:18] scan: checking subtitle 1
[13:53:18] scan: id=0x20bd, lang=English (Wide Screen) [VOBSUB], 3cc=eng ext=0
[13:53:18] scan: checking subtitle 2
[13:53:18] scan: id=0x21bd, lang=español (Wide Screen) [VOBSUB], 3cc=spa ext=0
[13:53:18] scan: title 13 has 2 chapters
[13:53:18] scan: chap 1, 75500 ms
[13:53:18] scan: chap 2, 567 ms
[13:53:18] scan: aspect = 16:9
[13:53:18] scan: scanning title 14
[13:53:18] scan: opening IFO for VTS 6
[13:53:18] pgc_id: 6, pgn: 1: pgc: 00000209A8CC1100
[13:53:18] scan: duration is 00:01:38 (98900 ms)
[13:53:18] scan: checking audio 1
[13:53:18] scan: id=0x80bd, lang=English (AC3), 3cc=eng ext=0
[13:53:18] scan: checking subtitle 1
[13:53:18] scan: id=0x20bd, lang=English (Wide Screen) [VOBSUB], 3cc=eng ext=0
[13:53:18] scan: checking subtitle 2
[13:53:18] scan: id=0x21bd, lang=español (Wide Screen) [VOBSUB], 3cc=spa ext=0
[13:53:18] scan: title 14 has 2 chapters
[13:53:18] scan: chap 1, 98333 ms
[13:53:18] scan: chap 2, 567 ms
[13:53:18] scan: aspect = 16:9
[13:53:18] scan: scanning title 15
[13:53:18] scan: opening IFO for VTS 6
[13:53:18] pgc_id: 7, pgn: 1: pgc: 00000209A8CC21E0
[13:53:18] scan: duration is 00:00:54 (54867 ms)
[13:53:18] scan: checking audio 1
[13:53:18] scan: id=0x80bd, lang=English (AC3), 3cc=eng ext=0
[13:53:18] scan: checking subtitle 1
[13:53:18] scan: id=0x20bd, lang=English (Wide Screen) [VOBSUB], 3cc=eng ext=0
[13:53:18] scan: checking subtitle 2
[13:53:18] scan: id=0x21bd, lang=español (Wide Screen) [VOBSUB], 3cc=spa ext=0
[13:53:18] scan: title 15 has 2 chapters
[13:53:18] scan: chap 1, 54300 ms
[13:53:18] scan: chap 2, 567 ms
[13:53:18] scan: aspect = 16:9
[13:53:18] scan: scanning title 16
[13:53:18] scan: opening IFO for VTS 6
[13:53:18] pgc_id: 8, pgn: 1: pgc: 00000209A8CC0A40
[13:53:18] scan: duration is 00:02:03 (123900 ms)
[13:53:18] scan: checking audio 1
[13:53:18] scan: id=0x80bd, lang=English (AC3), 3cc=eng ext=0
[13:53:18] scan: checking subtitle 1
[13:53:18] scan: id=0x20bd, lang=English (Wide Screen) [VOBSUB], 3cc=eng ext=0
[13:53:18] scan: checking subtitle 2
[13:53:18] scan: id=0x21bd, lang=español (Wide Screen) [VOBSUB], 3cc=spa ext=0
[13:53:18] scan: title 16 has 2 chapters
[13:53:18] scan: chap 1, 123333 ms
[13:53:18] scan: chap 2, 567 ms
[13:53:18] scan: aspect = 16:9
[13:53:18] scan: scanning title 17
[13:53:18] scan: opening IFO for VTS 6
[13:53:18] pgc_id: 9, pgn: 1: pgc: 00000209A8CC06E0
[13:53:18] scan: duration is 00:00:51 (51100 ms)
[13:53:18] scan: checking audio 1
[13:53:18] scan: id=0x80bd, lang=English (AC3), 3cc=eng ext=0
[13:53:18] scan: checking subtitle 1
[13:53:18] scan: id=0x20bd, lang=English (Wide Screen) [VOBSUB], 3cc=eng ext=0
[13:53:18] scan: checking subtitle 2
[13:53:18] scan: id=0x21bd, lang=español (Wide Screen) [VOBSUB], 3cc=spa ext=0
[13:53:18] scan: title 17 has 2 chapters
[13:53:18] scan: chap 1, 50533 ms
[13:53:18] scan: chap 2, 567 ms
[13:53:18] scan: aspect = 16:9
[13:53:18] scan: scanning title 18
[13:53:18] scan: opening IFO for VTS 7
[13:53:19] pgc_id: 1, pgn: 1: pgc: 00000209A8CC0DA0
[13:53:19] scan: duration is 00:00:00 (567 ms)
[13:53:19] scan: ignoring title (too short)
[13:53:19] scan: scanning title 19
[13:53:19] scan: opening IFO for VTS 8
[13:53:19] pgc_id: 1, pgn: 1: pgc: 00000209A8CC17C0
[13:53:19] scan: duration is 00:00:14 (14233 ms)
[13:53:19] scan: checking audio 1
[13:53:19] scan: id=0x80bd, lang=English (AC3), 3cc=eng ext=0
[13:53:19] scan: title 19 has 2 chapters
[13:53:19] scan: chap 1, 13667 ms
[13:53:19] scan: chap 2, 567 ms
[13:53:19] scan: aspect = 16:9
[13:53:19] scan: scanning title 20
[13:53:19] scan: opening IFO for VTS 9
[13:53:19] pgc_id: 1, pgn: 1: pgc: 00000209A8CC0920
[13:53:19] scan: duration is 00:08:22 (502333 ms)
[13:53:19] scan: checking audio 1
[13:53:19] scan: id=0x80bd, lang=English (AC3), 3cc=eng ext=0
[13:53:19] scan: title 20 has 5 chapters
[13:53:19] scan: chap 1, 131767 ms
[13:53:19] scan: chap 2, 113033 ms
[13:53:19] scan: chap 3, 101000 ms
[13:53:19] scan: chap 4, 155967 ms
[13:53:19] scan: chap 5, 567 ms
[13:53:19] scan: aspect = 16:9
[13:53:19] scan: decoding previews for title 1
[13:53:19] scan: title angle(s) 1
[13:53:20] dvd: vobu read error blk 563 - skipping to next blk incr 10
[13:53:20] dvd: vobu read error blk 573 - skipping to next blk incr 20
[13:53:20] dvd: vobu read error blk 593 - skipping to next blk incr 30
[13:53:20] dvd: vobu read error blk 623 - skipping to next blk incr 40
[13:53:20] dvd: vobu read error blk 848 - skipping to next blk incr 20
[13:53:20] dvd: vobu read error blk 868 - skipping to next blk incr 30
[13:53:20] dvd: vobu read error blk 898 - skipping to next blk incr 40
dvd: DVDReadBlocks failed (1120), skipping to vobu 1391
[13:53:24] dvd: vobu read error blk 1391 - skipping to next blk incr 10
[13:53:24] dvd: vobu read error blk 1401 - skipping to next blk incr 20
[13:53:24] dvd: vobu read error blk 1421 - skipping to next blk incr 30
[13:53:24] dvd: vobu read error blk 1451 - skipping to next blk incr 40
[13:53:28] dvd: vobu read error blk 1662 - skipping to next blk incr 20
[13:53:28] dvd: vobu read error blk 1682 - skipping to next blk incr 30
[13:53:28] dvd: vobu read error blk 1712 - skipping to next blk incr 40
[13:53:32] dvd: vobu read error blk 1932 - skipping to next blk incr 20
[13:53:32] dvd: vobu read error blk 1952 - skipping to next blk incr 30
[13:53:32] dvd: vobu read error blk 1982 - skipping to next blk incr 40
dvd: DVDReadBlocks failed (2174), skipping to vobu 2445
[13:53:36] dvd: vobu read error blk 2445 - skipping to next blk incr 10
[13:53:37] dvd: vobu read error blk 2455 - skipping to next blk incr 20
[13:53:37] dvd: vobu read error blk 2475 - skipping to next blk incr 30
[13:53:37] dvd: vobu read error blk 2505 - skipping to next blk incr 40
[13:53:39] dvd: vobu read error blk 2714 - skipping to next blk incr 20
[13:53:39] dvd: vobu read error blk 2734 - skipping to next blk incr 30
[13:53:39] dvd: vobu read error blk 2764 - skipping to next blk incr 40
dvd: DVDReadBlocks failed (2986), skipping to vobu 3256
[13:53:42] dvd: vobu read error blk 3256 - skipping to next blk incr 10
[13:53:42] dvd: vobu read error blk 3266 - skipping to next blk incr 20
[13:53:42] dvd: vobu read error blk 3286 - skipping to next blk incr 30
[13:53:42] dvd: vobu read error blk 3316 - skipping to next blk incr 40
dvd: DVDReadBlocks failed (3528), skipping to vobu 3798
[13:53:45] dvd: vobu read error blk 3798 - skipping to next blk incr 10
[13:53:45] dvd: vobu read error blk 3808 - skipping to next blk incr 20
[13:53:45] dvd: vobu read error blk 3828 - skipping to next blk incr 30
[13:53:46] dvd: vobu read error blk 3858 - skipping to next blk incr 40
[13:53:48] dvd: vobu read error blk 4064 - skipping to next blk incr 20
[13:53:48] dvd: vobu read error blk 4084 - skipping to next blk incr 30
[13:53:48] dvd: vobu read error blk 4114 - skipping to next blk incr 40
dvd: DVDReadBlocks failed (4328), skipping to vobu 4536
[13:53:52] dvd: vobu read error blk 4536 - skipping to next blk incr 10
[13:53:52] dvd: vobu read error blk 4546 - skipping to next blk incr 20
[13:53:53] dvd: vobu read error blk 4566 - skipping to next blk incr 30
[13:53:53] dvd: vobu read error blk 4596 - skipping to next blk incr 40
[13:53:55] dvd: vobu read error blk 4710 - skipping to next blk incr 20
[13:53:55] dvd: vobu read error blk 4730 - skipping to next blk incr 30
[13:53:55] dvd: vobu read error blk 4760 - skipping to next blk incr 40
dvd: DVDReadBlocks failed (4842), skipping to vobu 4976
[13:53:56] dvd: vobu read error blk 4976 - skipping to next blk incr 10
[13:53:57] dvd: vobu read error blk 4986 - skipping to next blk incr 20
[13:53:57] dvd: vobu read error blk 5006 - skipping to next blk incr 30
[13:53:57] dvd: vobu read error blk 5036 - skipping to next blk incr 40
[13:53:57] dvd: vobu read error blk 5096 - skipping to next blk incr 20
[13:53:57] dvd: vobu read error blk 5116 - skipping to next blk incr 30
[13:53:57] dvd: vobu read error blk 5146 - skipping to next blk incr 40
[13:53:58] dvd: vobu read error blk 5210 - skipping to next blk incr 20
[13:53:58] dvd: vobu read error blk 5230 - skipping to next blk incr 30
[13:53:58] dvd: vobu read error blk 5260 - skipping to next blk incr 40
Last edited by Rodeo on Fri Feb 14, 2020 4:24 pm, edited 1 time in total.
Reason: Logs in between [code][/code] blocks please

CluelessInSeattle
Posts: 9
Joined: Wed Feb 12, 2020 3:46 am

Re: why is Apple TV not a preset anymore?

Post by CluelessInSeattle »

I had to shorten that, sorry.

CluelessInSeattle
Posts: 9
Joined: Wed Feb 12, 2020 3:46 am

Re: why is Apple TV not a preset anymore?

Post by CluelessInSeattle »

edit: source dvd originally ripped in November 2019, my bad.

CluelessInSeattle
Posts: 9
Joined: Wed Feb 12, 2020 3:46 am

Re: why is Apple TV not a preset anymore?

Post by CluelessInSeattle »

I think I found the original log:

Code: Select all

HandBrake 1.3.1 (2020010400)
OS: Microsoft Windows NT 10.0.18362.0
CPU: Intel(R) Core(TM) i7-3770 CPU @ 3.40GHz
Ram: 16279 MB, 
GPU Information:
  Intel(R) HD Graphics 4000 - 10.18.10.4358
  NVIDIA GeForce GTX 660 - 26.21.14.4112
Screen: 1920x1080

-------------------------------------------

[14:11:20] Compile-time hardening features are enabled
[14:11:21] Nvenc version 9.1
[14:14:59] hb_init: starting libhb thread

 # Starting Scan ...

[14:14:59] CPU: Intel(R) Core(TM) i7-3770 CPU @ 3.40GHz
[14:14:59]  - Intel microarchitecture Ivy Bridge
[14:14:59]  - logical processor count: 8
[14:14:59] Intel Quick Sync Video support: yes
[14:14:59]  - Intel Media SDK hardware: API 1.11 (minimum: 1.3)
[14:14:59]  - H.264 encoder: yes
[14:14:59]     - preferred implementation: hardware (any) via D3D11
[14:14:59]     - capabilities (hardware):  vsinfo opt1 opt2+extbrc+ib_adapt+nmpslice
[14:14:59]  - H.265 encoder: no
[14:14:59] hb_scan: path=E:\Letters to Juliet.mp4, title_index=0
udfread ERROR: ECMA 167 Volume Recognition failed
src/libbluray/disc/disc.c:323: failed opening UDF image E:\Letters to Juliet.mp4
src/libbluray/disc/disc.c:424: error opening file BDMV\index.bdmv
src/libbluray/disc/disc.c:424: error opening file BDMV\BACKUP\index.bdmv
src/libbluray/bluray.c:2585: nav_get_title_list(E:\Letters to Juliet.mp4\) failed
[14:14:59] bd: not a bd - trying as a stream/file instead
libdvdread: Encrypted DVD support unavailable.
libdvdread:DVDOpenFileUDF:UDFFindFile /VIDEO_TS/VIDEO_TS.IFO failed
libdvdread:DVDOpenFileUDF:UDFFindFile /VIDEO_TS/VIDEO_TS.BUP failed
libdvdread: Can't open file VIDEO_TS.BUP.
[14:14:59] dvd: not a dvd - trying as a stream/file instead
Input #0, mov,mp4,m4a,3gp,3g2,mj2, from 'E:\Letters to Juliet.mp4':
  Metadata:
    major_brand     : mp42
    minor_version   : 512
    compatible_brands: isomiso2mp41
    creation_time   : 2019-11-10T17:13:08.000000Z
    encoder         : HandBrake 1.2.2 2019022300
  Duration: 01:45:20.40, start: 0.000000, bitrate: 1008 kb/s
    Chapter #0:0: start 0.000000, end 386.386000
    Metadata:
      title           : Chapter 1
    Chapter #0:1: start 386.386000, end 629.504000
    Metadata:
      title           : Chapter 2
    Chapter #0:2: start 629.504000, end 1088.963000
    Metadata:
      title           : Chapter 3
    Chapter #0:3: start 1088.963000, end 1576.283000
    Metadata:
      title           : Chapter 4
    Chapter #0:4: start 1576.283000, end 1835.709000
    Metadata:
      title           : Chapter 5
    Chapter #0:5: start 1835.709000, end 2034.241000
    Metadata:
      title           : Chapter 6
    Chapter #0:6: start 2034.241000, end 2428.801000
    Metadata:
      title           : Chapter 7
    Chapter #0:7: start 2428.801000, end 2788.494000
    Metadata:
      title           : Chapter 8
    Chapter #0:8: start 2788.494000, end 3154.193000
    Metadata:
      title           : Chapter 9
    Chapter #0:9: start 3154.193000, end 3468.799000
    Metadata:
      title           : Chapter 10
    Chapter #0:10: start 3468.799000, end 3801.673000
    Metadata:
      title           : Chapter 11
    Chapter #0:11: start 3801.673000, end 4058.763000
    Metadata:
      title           : Chapter 12
    Chapter #0:12: start 4058.763000, end 4508.212000
    Metadata:
      title           : Chapter 13
    Chapter #0:13: start 4508.212000, end 4879.708000
    Metadata:
      title           : Chapter 14
    Chapter #0:14: start 4879.708000, end 5262.632000
    Metadata:
      title           : Chapter 15
    Chapter #0:15: start 5262.632000, end 5487.023000
    Metadata:
      title           : Chapter 16
    Chapter #0:16: start 5487.023000, end 5706.075000
    Metadata:
      title           : Chapter 17
    Chapter #0:17: start 5706.075000, end 6320.356000
    Metadata:
      title           : Chapter 18
    Stream #0:0(und): Video: hevc (Main) (hvc1 / 0x31637668), yuv420p(tv, smpte170m/smpte170m/bt709), 720x368 [SAR 32:27 DAR 160:69], 391 kb/s, 23.98 fps, 23.98 tbr, 90k tbn, 23.98 tbc (default)
    Metadata:
      creation_time   : 2019-11-10T17:13:08.000000Z
      handler_name    : VideoHandler
    Stream #0:1(eng): Audio: aac (LC) (mp4a / 0x6134706D), 48000 Hz, stereo, fltp, 160 kb/s (default)
    Metadata:
      creation_time   : 2019-11-10T17:13:08.000000Z
      handler_name    : SoundHandler
      title           : Stereo
    Stream #0:2(eng): Audio: ac3 (ac-3 / 0x332D6361), 48000 Hz, 5.1(side), fltp, 448 kb/s
    Metadata:
      creation_time   : 2019-11-10T17:13:08.000000Z
      handler_name    : SoundHandler
      title           : Surround
    Side data:
      audio service type: main
    Stream #0:3(eng): Data: bin_data (text / 0x74786574)
    Metadata:
      creation_time   : 2019-11-10T17:13:08.000000Z
      handler_name    : SubtitleHandler
    Stream #0:4: Video: mjpeg (Baseline), yuvj420p(pc, bt470bg/unknown/unknown), 450x450, 90k tbr, 90k tbn, 90k tbc (attached pic)
[14:15:00] scan: decoding previews for title 1
[14:15:00] scan: audio 0x1: aac, rate=48000Hz, bitrate=160362 English (AAC LC) (2.0 ch) (160 kbps)
[14:15:00] scan: audio 0x2: ac3, rate=48000Hz, bitrate=448000 English (AC3) (5.1 ch) (448 kbps)
[14:15:01] scan: 10 previews, 720x368, 23.976 fps, autocrop = 0/0/0/0, aspect 2.32:1, PAR 32:27
[14:15:01] scan: supported video decoders: avcodec qsv
[14:15:01] libhb: scan thread found 1 valid title(s)

 # Processing Scan Information ...


 # Scan Finished ...
Last edited by Rodeo on Fri Feb 14, 2020 4:24 pm, edited 1 time in total.
Reason: Logs in between [code][/code] blocks please

CluelessInSeattle
Posts: 9
Joined: Wed Feb 12, 2020 3:46 am

Re: why is Apple TV not a preset anymore?

Post by CluelessInSeattle »

BradleyS wrote:
Wed Feb 12, 2020 7:51 am
Try the Apple 1080p30 Surround preset.
I did try re-writing the original file as 1080p30 and it did not work. That's why I wanted to run it from the dvd, just in case.

CluelessInSeattle
Posts: 9
Joined: Wed Feb 12, 2020 3:46 am

Re: why is Apple TV not a preset anymore?

Post by CluelessInSeattle »

mduell wrote:
Wed Feb 12, 2020 5:49 pm
Which Apple TV? There's at least 4 generations of hardware out there, with different capabilities.
I believe mine is 4th gen.

Woodstock
Veteran User
Posts: 3418
Joined: Tue Aug 27, 2013 6:39 am

Re: why is Apple TV not a preset anymore?

Post by Woodstock »

Handbrake does not do ripping-from-DVD unless you add a (non-supported) 3rd-party library. If you have updated anything on your system since you last installed the add-on, it's probably broken.

There are tools intended for ripping, like MakeMKV. After you rip the disk to MKV files, you can endlessly experiment with the different Apple presets to see which ones work best for YOUR tastes, encoding just a chapter at a time to compare.

CluelessInSeattle
Posts: 9
Joined: Wed Feb 12, 2020 3:46 am

Re: why is Apple TV not a preset anymore?

Post by CluelessInSeattle »

Hmmm, that is weird considering I did like, 150 dvds til all this went down... I didn't download anything extra because I don't know anything about this stuff.

Woodstock
Veteran User
Posts: 3418
Joined: Tue Aug 27, 2013 6:39 am

Re: why is Apple TV not a preset anymore?

Post by Woodstock »

Handbrake has not had official support for ripping DVDs for 11+ years now. The old way (installing a DLL file from videolan.org) works after a fashion, but it is unreliable; it does not support newer copy protection schemes. The log shows that it's not currently configured to work:
libdvdread: Encrypted DVD support unavailable.
libdvdread: Can't open D:\ for reading
libdvdread: Device D:\ inaccessible, CSS authentication not available.
There's even an unofficial way to use MakeMKV as a replacement library, which also adds Bluray support, but... Like the videolan.org library, things like installing operating system updates have a history of breaking the linkage for no apparent reason.

The most reliable method is to use a disk ripper to put the files on your local hard drive, with the copy protection already removed. And you can rip more disks while handbrake works on previous ones. It's really the fastest way to deal with more than one disk per session. And once the video is on your disk, experimenting to find what works best for you goes quickly.

BradleyS's recommendation of the Apple 1080p30 Surround preset as a starting point is solid advice, since he's been one of the driving forces in creating the presets. For DVD sources, there are small advantages to the lower-resolution versions, because of the interlacing found on DVDs.

Post Reply