Not showing encoding settings

HandBrake for Windows support
Forum rules
An Activity Log is required for support requests. Please read How-to get an activity log? for details on how and why this should be provided.
Locked
mehenuf06
Posts: 2
Joined: Tue Jun 11, 2019 8:39 am

Not showing encoding settings

Post by mehenuf06 » Sun Aug 25, 2019 5:11 pm

Description of problem or question:

It should show my encoding settings in metadata but it doesn't show any. Is there any option to turn that on ?
I use x265 NVENC encoding







HandBrake version (e.g., 1.0.0):

HandBrake 1.2.2


Operating system and version (e.g., Ubuntu 16.04 LTS, macOS 10.13 High Sierra, Windows 10 Creators Update):

Microsoft Windows NT 10.0.18362.0


HandBrake Activity Log ***required*** (see How-to get an activity log)

Code: Select all

HandBrake 1.2.2 (2019022300)
OS: Microsoft Windows NT 10.0.18362.0
CPU: Intel(R) Core(TM) i5-3570 CPU @ 3.40GHz
Ram: 8155 MB, 
GPU Information:
  NVIDIA GeForce GTX 950 - 26.21.14.3602
Screen: 1366x768
Temp Dir: C:\Users\mehen\AppData\Local\Temp\
Install Dir: C:\Program Files\HandBrake
Data Dir: C:\Users\mehen\AppData\Roaming\HandBrake

-------------------------------------------

[23:08:52] hb_init: starting libhb thread
[23:08:52] thread 1b445c07150 started ("libhb")

 # Starting Scan ...

[23:08:52] CPU: Intel(R) Core(TM) i5-3570 CPU @ 3.40GHz
[23:08:52]  - Intel microarchitecture Ivy Bridge
[23:08:52]  - logical processor count: 4
[23:08:52] Intel Quick Sync Video support: no
[23:08:52] hb_scan: path=C:\Users\mehen\Downloads\Deadly.Class.S01.1080p.BluRay.REMUX.AVC.DTS-HD.MA.5.1-EPSiLON\Deadly.Class.S01E01.Reagan.Youth.1080p.BluRay.REMUX.AVC.DTS-HD.MA.5.1-EPSiLON.mkv, title_index=0
[23:08:52] thread 1b445c03e20 started ("scan")
udfread ERROR: ECMA 167 Volume Recognition failed
src/libbluray/disc/disc.c:323: failed opening UDF image C:\Users\mehen\Downloads\Deadly.Class.S01.1080p.BluRay.REMUX.AVC.DTS-HD.MA.5.1-EPSiLON\Deadly.Class.S01E01.Reagan.Youth.1080p.BluRay.REMUX.AVC.DTS-HD.MA.5.1-EPSiLON.mkv
src/libbluray/disc/disc.c:424: error opening file BDMV\index.bdmv
src/libbluray/disc/disc.c:424: error opening file BDMV\BACKUP\index.bdmv
[23:08:52] bd: not a bd - trying as a stream/file instead
libdvdread: Encrypted DVD support unavailable.
libdvdread:DVDOpenFileUDF:UDFFindFile /VIDEO_TS/VIDEO_TS.IFO failed
libdvdread:DVDOpenFileUDF:UDFFindFile /VIDEO_TS/VIDEO_TS.BUP failed
libdvdread: Can't open file VIDEO_TS.BUP.
[23:08:52] dvd: not a dvd - trying as a stream/file instead
Input #0, matroska,webm, from 'C:\Users\mehen\Downloads\Deadly.Class.S01.1080p.BluRay.REMUX.AVC.DTS-HD.MA.5.1-EPSiLON\Deadly.Class.S01E01.Reagan.Youth.1080p.BluRay.REMUX.AVC.DTS-HD.MA.5.1-EPSiLON.mkv':
  Metadata:
    title           : Deadly Class - S01E01 - Reagan Youth
    encoder         : libebml v1.3.9 + libmatroska v1.5.2
    creation_time   : 2019-08-03T03:37:00.000000Z
    TVDB            : 353717
    TMDB            : tv/75663
    track           : 1
    TOTAL_PARTS     : 10
    IMDB            : tt7559144
  Duration: 00:53:23.99, start: 0.000000, bitrate: 16387 kb/s
    Chapter #0:0: start 0.000000, end 600.600000
    Metadata:
      title           : Chapter 1
    Chapter #0:1: start 600.600000, end 1201.200000
    Metadata:
      title           : Chapter 2
    Chapter #0:2: start 1201.200000, end 1801.800000
    Metadata:
      title           : Chapter 3
    Chapter #0:3: start 1801.800000, end 2402.400000
    Metadata:
      title           : Chapter 4
    Chapter #0:4: start 2402.400000, end 3003.000000
    Metadata:
      title           : Chapter 5
    Chapter #0:5: start 3003.000000, end 3202.741000
    Metadata:
      title           : Chapter 6
    Chapter #0:6: start 3202.741000, end 3203.993000
    Metadata:
      title           : Chapter 7
    Stream #0:0(eng): Video: h264 (High), yuv420p(progressive), 1920x1080 [SAR 1:1 DAR 16:9], 23.98 fps, 23.98 tbr, 1k tbn, 47.95 tbc (default)
    Metadata:
      title           : MPEG-4 AVC Video / 12832 kbps / 1080p / 23.976 fps / 16:9 / High Profile 4.1
      BPS-eng         : 12830570
      DURATION-eng    : 00:53:23.993000000
      NUMBER_OF_FRAMES-eng: 76819
      NUMBER_OF_BYTES-eng: 5138632199
      _STATISTICS_WRITING_APP-eng: mkvmerge v34.0.0 ('Sight and Seen') 64-bit
      _STATISTICS_WRITING_DATE_UTC-eng: 2019-08-03 03:37:00
      _STATISTICS_TAGS-eng: BPS DURATION NUMBER_OF_FRAMES NUMBER_OF_BYTES
    Stream #0:1(eng): Audio: dts (DTS-HD MA), 48000 Hz, 5.1(side), s32p (24 bit) (default)
    Metadata:
      title           : DTS-HD Master Audio / 5.1 / 48 kHz / 3553 kbps / 24-bit
      BPS-eng         : 3553354
      DURATION-eng    : 00:53:23.872000000
      NUMBER_OF_FRAMES-eng: 300363
      NUMBER_OF_BYTES-eng: 1423061800
      _STATISTICS_WRITING_APP-eng: mkvmerge v34.0.0 ('Sight and Seen') 64-bit
      _STATISTICS_WRITING_DATE_UTC-eng: 2019-08-03 03:37:00
      _STATISTICS_TAGS-eng: BPS DURATION NUMBER_OF_FRAMES NUMBER_OF_BYTES
[23:08:52] Found ffmpeg 7 chapters, container=matroska,webm
[23:08:52] Added chapter 1, name='Chapter 1', dur=54054000, (00:10:01)
[23:08:52] Added chapter 2, name='Chapter 2', dur=54054000, (00:10:01)
[23:08:52] Added chapter 3, name='Chapter 3', dur=54054000, (00:10:01)
[23:08:52] Added chapter 4, name='Chapter 4', dur=54054000, (00:10:01)
[23:08:52] Added chapter 5, name='Chapter 5', dur=54054000, (00:10:01)
[23:08:52] Added chapter 6, name='Chapter 6', dur=17976690, (00:03:20)
[23:08:52] Added chapter 7, name='Chapter 7', dur=112680, (00:00:01)
[23:08:52] scan: decoding previews for title 1
[23:08:52] scan: preview 1
[23:08:52] fifo_close: trashing 0 buffer(s)
[23:08:52] scan: audio 0x1: dca, rate=48000Hz, bitrate=1 English (DTS-HD MA) (5.1 ch)
[23:08:52] scan: preview 2
[23:08:52] scan: preview 3
[23:08:52] scan: preview 4
[23:08:52] scan: preview 5
[23:08:52] scan: preview 6
[23:08:53] scan: preview 7
[23:08:53] scan: preview 8
[23:08:53] scan: preview 9
[23:08:53] scan: preview 10
[23:08:53] scan: 10 previews, 1920x1080, 23.976 fps, autocrop = 142/138/0/0, aspect 16:9, PAR 1:1
[23:08:53] scan: supported video decoders: avcodec qsv
[23:08:53] Freed 1 buffers of size 1024
[23:08:53] Freed 1 buffers of size 4096
[23:08:53] Freed 1 buffers of size 8192
[23:08:53] Freed 1 buffers of size 16384
[23:08:53] Freed 1 buffers of size 32768
[23:08:53] Freed 1 buffers of size 65536
[23:08:53] Freed 1 buffers of size 131072
[23:08:53] Freed 1 buffers of size 262144
[23:08:53] Freed 1 buffers of size 524288
[23:08:53] Freed 2 buffers of size 4194304
[23:08:53] Allocated 9434112 bytes of buffers on this pass and Freed 9434112 bytes, 0 bytes leaked
[23:08:53] thread 1b445c03e20 exited ("scan")
[23:08:53] thread 1b445c03e20 joined ("scan")
[23:08:53] libhb: scan thread found 1 valid title(s)

 # Processing Scan Information ...


 # Scan Finished ...

.

User avatar
Rodeo
HandBrake Team
Posts: 12234
Joined: Tue Mar 03, 2009 8:55 pm

Re: Not showing encoding settings

Post by Rodeo » Sun Aug 25, 2019 5:27 pm

That's an x264/x265 specific feature. Other H.264/HEVC encoders don't insert those kind of SEI messages in the bitstream.

User avatar
Rodeo
HandBrake Team
Posts: 12234
Joined: Tue Mar 03, 2009 8:55 pm

Re: Not showing encoding settings

Post by Rodeo » Sun Aug 25, 2019 6:18 pm

Locked for rule violation.

Locked