Encode seperate files, er, seperately?

HandBrake for Windows support
Forum rules
An Activity Log is required for support requests. Please read How-to get an activity log? for details on how and why this should be provided.
Post Reply
GrafixApathy
Posts: 5
Joined: Thu Jun 13, 2019 3:43 am

Encode seperate files, er, seperately?

Post by GrafixApathy » Thu Jun 13, 2019 4:06 am

Description of problem or question:
I have several anime compilations (each episode a seperate file) that I wish to convert for playback on a portable device (a modded PS Vita, in this case) but I cannot figure out how to tell the batch functionality that I want each seperate file to be wind up being, well, a seperate file. I know that there is a more convenient way than manually selecting and configuring each file seperately, but I can't figure out what 'that' is.




HandBrake version (e.g., 1.0.0):
1.2.2



Operating system and version (e.g., Ubuntu 16.04 LTS, macOS 10.13 High Sierra, Windows 10 Creators Update):
Windows 10 64-bit Home



HandBrake Activity Log ***required*** (see How-to get an activity log)

Code: Select all

HandBrake 1.2.2 (2019022300)
OS: Microsoft Windows NT 10.0.17763.0
CPU: Intel(R) Core(TM) i7-8750H CPU @ 2.20GHz
Ram: 7986 MB, 
GPU Information:
  NVIDIA GeForce GTX 1050 Ti - 24.21.13.9836
  Intel(R) UHD Graphics 630 - 24.20.100.6287
Screen: 1920x1080
Temp Dir: C:\Users\BenSoN\AppData\Local\Temp\
Install Dir: D:\Android\HandBrake
Data Dir: C:\Users\BenSoN\AppData\Roaming\HandBrake

-------------------------------------------

[20:59:28] hb_init: starting libhb thread

 # Starting Scan ...

[20:59:28] CPU: Intel(R) Core(TM) i7-8750H CPU @ 2.20GHz
[20:59:28]  - Intel microarchitecture Kaby Lake
[20:59:28]  - logical processor count: 12
[20:59:28] Intel Quick Sync Video support: yes
[20:59:28]  - Intel Media SDK hardware: API 1.25 (minimum: 1.3)
[20:59:28]  - H.264 encoder: yes
[20:59:28]     - preferred implementation: hardware (any) via D3D11
[20:59:28]     - capabilities (hardware):  breftype icq+la+i+downs vsinfo opt1 opt2+mbbrc+extbrc+trellis+ib_adapt+nmpslice
[20:59:28]  - H.265 encoder: no
[20:59:28] hb_scan: path=D:\Android\anim\Avatar Season 3, title_index=0
src/libbluray/disc/disc.c:424: error opening file BDMV\index.bdmv
src/libbluray/disc/disc.c:424: error opening file BDMV\BACKUP\index.bdmv
[20:59:28] bd: not a bd - trying as a stream/file instead
libdvdnav: Using dvdnav version 6.0.0
libdvdread: Encrypted DVD support unavailable.
libdvdread: Can't open D:\Android\anim\Avatar Season 3 for reading
libdvdread: Device D:\Android\anim\Avatar Season 3 inaccessible, CSS authentication not available.
libdvdread:DVDOpenFilePath:findDVDFile /VIDEO_TS/VIDEO_TS.IFO failed
libdvdread:DVDOpenFilePath:findDVDFile /VIDEO_TS/VIDEO_TS.BUP failed
libdvdread: Can't open file VIDEO_TS.IFO.
libdvdnav: vm: failed to read VIDEO_TS.IFO
[20:59:28] dvd: not a dvd - trying as a stream/file instead
[20:59:28] batch: scanning D:\Android\anim\Avatar Season 3\Avatar - 301 The Awakening.avi
Input #0, avi, from 'D:\Android\anim\Avatar Season 3\Avatar - 301 The Awakening.avi':
  Metadata:
    encoder         : VirtualDubMod 1.5.10.2 (build 2542/release)
  Duration: 00:23:41.25, start: 0.000000, bitrate: 1038 kb/s
    Stream #0:0: Video: mpeg4 (Advanced Simple Profile) (XVID / 0x44495658), yuv420p, 640x480 [SAR 1:1 DAR 4:3], 900 kb/s, SAR 66:59 DAR 88:59, 23.98 fps, 23.98 tbr, 23.98 tbn, 23.98 tbc
    Stream #0:1: Audio: mp3 (U[0][0][0] / 0x0055), 48000 Hz, stereo, fltp, 128 kb/s
[20:59:28] batch: scanning D:\Android\anim\Avatar Season 3\Avatar - 302 The Headband.avi
Input #0, avi, from 'D:\Android\anim\Avatar Season 3\Avatar - 302 The Headband.avi':
  Metadata:
    encoder         : VirtualDubMod 1.5.10.2 (build 2542/release)
  Duration: 00:23:41.09, start: 0.000000, bitrate: 1037 kb/s
    Stream #0:0: Video: mpeg4 (Advanced Simple Profile) (XVID / 0x44495658), yuv420p, 640x480 [SAR 1:1 DAR 4:3], 899 kb/s, SAR 66:59 DAR 88:59, 23.98 fps, 23.98 tbr, 23.98 tbn, 23.98 tbc
    Stream #0:1: Audio: mp3 (U[0][0][0] / 0x0055), 48000 Hz, stereo, fltp, 128 kb/s
[20:59:28] batch: scanning D:\Android\anim\Avatar Season 3\Avatar - 303 The Painted Lady.avi
Input #0, avi, from 'D:\Android\anim\Avatar Season 3\Avatar - 303 The Painted Lady.avi':
  Metadata:
    encoder         : VirtualDubMod 1.5.10.2 (build 2542/release)
  Duration: 00:23:40.75, start: 0.000000, bitrate: 1038 kb/s
    Stream #0:0: Video: mpeg4 (Advanced Simple Profile) (XVID / 0x44495658), yuv420p, 640x480 [SAR 1:1 DAR 4:3], 900 kb/s, SAR 66:59 DAR 88:59, 23.98 fps, 23.98 tbr, 23.98 tbn, 23.98 tbc
    Stream #0:1: Audio: mp3 (U[0][0][0] / 0x0055), 48000 Hz, stereo, fltp, 128 kb/s
[20:59:28] batch: scanning D:\Android\anim\Avatar Season 3\Avatar - 304 Sokka's Master.avi
Input #0, avi, from 'D:\Android\anim\Avatar Season 3\Avatar - 304 Sokka's Master.avi':
  Metadata:
    encoder         : VirtualDubMod 1.5.10.2 (build 2542/release)
  Duration: 00:23:41.59, start: 0.000000, bitrate: 1037 kb/s
    Stream #0:0: Video: mpeg4 (Advanced Simple Profile) (XVID / 0x44495658), yuv420p, 640x480 [SAR 1:1 DAR 4:3], 899 kb/s, SAR 66:59 DAR 88:59, 23.98 fps, 23.98 tbr, 23.98 tbn, 23.98 tbc
    Stream #0:1: Audio: mp3 (U[0][0][0] / 0x0055), 48000 Hz, stereo, fltp, 128 kb/s
[20:59:28] batch: scanning D:\Android\anim\Avatar Season 3\Avatar - 305 The Beach.avi
Input #0, avi, from 'D:\Android\anim\Avatar Season 3\Avatar - 305 The Beach.avi':
  Metadata:
    encoder         : VirtualDubMod 1.5.10.2 (build 2542/release)
  Duration: 00:23:40.59, start: 0.000000, bitrate: 1038 kb/s
    Stream #0:0: Video: mpeg4 (Advanced Simple Profile) (XVID / 0x44495658), yuv420p, 640x480 [SAR 1:1 DAR 4:3], 901 kb/s, 23.98 fps, 23.98 tbr, 23.98 tbn, 23.98 tbc
    Stream #0:1: Audio: mp3 (U[0][0][0] / 0x0055), 48000 Hz, stereo, fltp, 128 kb/s
[20:59:29] batch: scanning D:\Android\anim\Avatar Season 3\Avatar - 306 The Avatar and the Firelord.avi
Input #0, avi, from 'D:\Android\anim\Avatar Season 3\Avatar - 306 The Avatar and the Firelord.avi':
  Duration: 00:22:47.80, start: 0.000000, bitrate: 1076 kb/s
    Stream #0:0: Video: mpeg4 (Advanced Simple Profile) (XVID / 0x44495658), yuv420p, 640x480 [SAR 1:1 DAR 4:3], 937 kb/s, 25 fps, 25 tbr, 25 tbn, 25 tbc
    Stream #0:1: Audio: mp3 (U[0][0][0] / 0x0055), 48000 Hz, stereo, fltp, 128 kb/s
[20:59:29] batch: scanning D:\Android\anim\Avatar Season 3\Avatar - 307 The Runaway.avi
Input #0, avi, from 'D:\Android\anim\Avatar Season 3\Avatar - 307 The Runaway.avi':
  Duration: 00:22:41.44, start: 0.000000, bitrate: 1081 kb/s
    Stream #0:0: Video: mpeg4 (Advanced Simple Profile) (XVID / 0x44495658), yuv420p, 640x480 [SAR 1:1 DAR 4:3], 942 kb/s, 25 fps, 25 tbr, 25 tbn, 25 tbc
    Stream #0:1: Audio: mp3 (U[0][0][0] / 0x0055), 48000 Hz, stereo, fltp, 128 kb/s
[20:59:29] batch: scanning D:\Android\anim\Avatar Season 3\Avatar - 308 The Puppetmaster.avi
Input #0, avi, from 'D:\Android\anim\Avatar Season 3\Avatar - 308 The Puppetmaster.avi':
  Duration: 00:22:42.56, start: 0.000000, bitrate: 1080 kb/s
    Stream #0:0: Video: mpeg4 (Advanced Simple Profile) (XVID / 0x44495658), yuv420p, 640x480 [SAR 1:1 DAR 4:3], 941 kb/s, 25 fps, 25 tbr, 25 tbn, 25 tbc
    Stream #0:1: Audio: mp3 (U[0][0][0] / 0x0055), 48000 Hz, stereo, fltp, 128 kb/s
[20:59:29] batch: scanning D:\Android\anim\Avatar Season 3\Avatar - 309 Nightmares and Daydreams.avi
Input #0, avi, from 'D:\Android\anim\Avatar Season 3\Avatar - 309 Nightmares and Daydreams.avi':
  Duration: 00:22:44.76, start: 0.000000, bitrate: 1078 kb/s
    Stream #0:0: Video: mpeg4 (Advanced Simple Profile) (XVID / 0x44495658), yuv420p, 640x480 [SAR 1:1 DAR 4:3], 939 kb/s, 25 fps, 25 tbr, 25 tbn, 25 tbc
    Stream #0:1: Audio: mp3 (U[0][0][0] / 0x0055), 48000 Hz, stereo, fltp, 128 kb/s
[20:59:29] batch: scanning D:\Android\anim\Avatar Season 3\Avatar - 310 - The Day of the Black Sun Part 1 The Invasion.avi
Input #0, avi, from 'D:\Android\anim\Avatar Season 3\Avatar - 310 - The Day of the Black Sun Part 1 The Invasion.avi':
  Metadata:
    encoder         : Lavf51.12.2
  Duration: 00:24:02.56, start: 0.000000, bitrate: 940 kb/s
    Stream #0:0: Video: msmpeg4v2 (MP42 / 0x3234504D), yuv420p, 624x352, 798 kb/s, 29.97 fps, 29.97 tbr, 29.97 tbn, 29.97 tbc
    Stream #0:1: Audio: mp2 (P[0][0][0] / 0x0050), 44100 Hz, stereo, s16p, 128 kb/s
[20:59:29] batch: scanning D:\Android\anim\Avatar Season 3\Avatar - 311 - The Day of the Black Sun Part 2 The Eclipse.avi
Input #0, avi, from 'D:\Android\anim\Avatar Season 3\Avatar - 311 - The Day of the Black Sun Part 2 The Eclipse.avi':
  Metadata:
    encoder         : Lavf51.12.2
  Duration: 00:23:15.77, start: 0.000000, bitrate: 973 kb/s
    Stream #0:0: Video: msmpeg4v2 (MP42 / 0x3234504D), yuv420p, 624x352, 799 kb/s, 29.97 fps, 29.97 tbr, 29.97 tbn, 29.97 tbc
    Stream #0:1: Audio: mp2 (P[0][0][0] / 0x0050), 44100 Hz, stereo, s16p, 160 kb/s
[20:59:29] batch: scanning D:\Android\anim\Avatar Season 3\Avatar - 312 The Western Air Temple.avi
Input #0, avi, from 'D:\Android\anim\Avatar Season 3\Avatar - 312 The Western Air Temple.avi':
  Metadata:
    encoder         : VirtualDubMod 1.5.10.2 (build 2540/release)
  Duration: 00:24:22.88, start: 0.000000, bitrate: 1137 kb/s
    Stream #0:0: Video: mpeg4 (Advanced Simple Profile) (XVID / 0x44495658), yuv420p, 640x480 [SAR 1:1 DAR 4:3], 1000 kb/s, 23.98 fps, 23.98 tbr, 23.98 tbn, 23.98 tbc
    Stream #0:1: Audio: mp3 (U[0][0][0] / 0x0055), 48000 Hz, stereo, fltp, 128 kb/s
[20:59:29] batch: scanning D:\Android\anim\Avatar Season 3\Avatar - 313 The Firebending Masters.avi
Input #0, avi, from 'D:\Android\anim\Avatar Season 3\Avatar - 313 The Firebending Masters.avi':
  Metadata:
    encoder         : VirtualDubMod 1.5.10.2 (build 2540/release)
  Duration: 00:24:24.55, start: 0.000000, bitrate: 1003 kb/s
    Stream #0:0: Video: mpeg4 (Advanced Simple Profile) (XVID / 0x44495658), yuv420p, 640x480 [SAR 1:1 DAR 4:3], 866 kb/s, 23.98 fps, 23.98 tbr, 23.98 tbn, 23.98 tbc
    Stream #0:1: Audio: mp3 (U[0][0][0] / 0x0055), 48000 Hz, stereo, fltp, 128 kb/s
[20:59:29] batch: scanning D:\Android\anim\Avatar Season 3\Avatar - 314 The Boiling Rock, Part 1.avi
Input #0, avi, from 'D:\Android\anim\Avatar Season 3\Avatar - 314 The Boiling Rock, Part 1.avi':
  Metadata:
    encoder         : VirtualDubMod 1.5.4.1 (build 2178/release)
  Duration: 00:24:31.68, start: 0.000000, bitrate: 1995 kb/s
    Stream #0:0: Video: mpeg4 (Advanced Simple Profile) (XVID / 0x44495658), yuv420p, 720x544 [SAR 1:1 DAR 45:34], 1867 kb/s, 23.98 fps, 23.98 tbr, 23.98 tbn, 23.98 tbc
    Stream #0:1: Audio: mp3 (U[0][0][0] / 0x0055), 48000 Hz, stereo, fltp, 114 kb/s
[20:59:29] batch: scanning D:\Android\anim\Avatar Season 3\Avatar - 315 The Boiling Rock, Part 2.avi
Input #0, avi, from 'D:\Android\anim\Avatar Season 3\Avatar - 315 The Boiling Rock, Part 2.avi':
  Metadata:
    encoder         : VirtualDubMod 1.5.4.1 (build 2178/release)
  Duration: 00:24:13.66, start: 0.000000, bitrate: 2017 kb/s
    Stream #0:0: Video: mpeg4 (Advanced Simple Profile) (XVID / 0x44495658), yuv420p, 720x544 [SAR 1:1 DAR 45:34], 1888 kb/s, 29.97 fps, 29.97 tbr, 29.97 tbn, 29.98 tbc
    Stream #0:1: Audio: mp3 (U[0][0][0] / 0x0055), 48000 Hz, stereo, fltp, 115 kb/s
[20:59:29] batch: scanning D:\Android\anim\Avatar Season 3\Avatar - 316 - The Southern Raiders.avi
Input #0, avi, from 'D:\Android\anim\Avatar Season 3\Avatar - 316 - The Southern Raiders.avi':
  Duration: 00:23:25.87, start: 0.000000, bitrate: 1051 kb/s
    Stream #0:0: Video: mpeg4 (DX50 / 0x30355844), yuv420p, 640x480 [SAR 1:1 DAR 4:3], 946 kb/s, 23.98 fps, 23.98 tbr, 23.98 tbn, 30k tbc
    Stream #0:1: Audio: mp3 (U[0][0][0] / 0x0055), 44100 Hz, stereo, fltp, 95 kb/s
[20:59:29] batch: scanning D:\Android\anim\Avatar Season 3\Avatar - 317 - The Ember Island Players.avi
Input #0, avi, from 'D:\Android\anim\Avatar Season 3\Avatar - 317 - The Ember Island Players.avi':
  Duration: 00:23:39.78, start: 0.000000, bitrate: 1050 kb/s
    Stream #0:0: Video: mpeg4 (DX50 / 0x30355844), yuv420p, 640x480 [SAR 1:1 DAR 4:3], 945 kb/s, 23.98 fps, 23.98 tbr, 23.98 tbn, 30k tbc
    Stream #0:1: Audio: mp3 (U[0][0][0] / 0x0055), 44100 Hz, stereo, fltp, 95 kb/s
[20:59:29] batch: scanning D:\Android\anim\Avatar Season 3\Avatar - 318 - Sozei's Comet, Part 1 - The Phoenix King.avi
Input #0, avi, from 'D:\Android\anim\Avatar Season 3\Avatar - 318 - Sozei's Comet, Part 1 - The Phoenix King.avi':
  Duration: 00:25:46.53, start: 0.000000, bitrate: 1050 kb/s
    Stream #0:0: Video: mpeg4 (DX50 / 0x30355844), yuv420p, 640x480 [SAR 1:1 DAR 4:3], 944 kb/s, 23.98 fps, 23.98 tbr, 23.98 tbn, 30k tbc
    Stream #0:1: Audio: mp3 (U[0][0][0] / 0x0055), 44100 Hz, stereo, fltp, 95 kb/s
[20:59:29] batch: scanning D:\Android\anim\Avatar Season 3\Avatar - 319 - Sozin's Comet, Part 2 - The Old Masters.avi
Input #0, avi, from 'D:\Android\anim\Avatar Season 3\Avatar - 319 - Sozin's Comet, Part 2 - The Old Masters.avi':
  Duration: 00:23:54.38, start: 0.000000, bitrate: 1050 kb/s
    Stream #0:0: Video: mpeg4 (DX50 / 0x30355844), yuv420p, 640x480 [SAR 1:1 DAR 4:3], 945 kb/s, 23.98 fps, 23.98 tbr, 23.98 tbn, 30k tbc
    Stream #0:1: Audio: mp3 (U[0][0][0] / 0x0055), 44100 Hz, stereo, fltp, 95 kb/s
[20:59:29] batch: scanning D:\Android\anim\Avatar Season 3\Avatar - 320 - Sozin's Comet, Part 3 - Into the Inferno.avi
Input #0, avi, from 'D:\Android\anim\Avatar Season 3\Avatar - 320 - Sozin's Comet, Part 3 - Into the Inferno.avi':
  Duration: 00:23:47.70, start: 0.000000, bitrate: 1050 kb/s
    Stream #0:0: Video: mpeg4 (DX50 / 0x30355844), yuv420p, 640x480 [SAR 1:1 DAR 4:3], 944 kb/s, 23.98 fps, 23.98 tbr, 23.98 tbn, 30k tbc
    Stream #0:1: Audio: mp3 (U[0][0][0] / 0x0055), 44100 Hz, stereo, fltp, 95 kb/s
[20:59:29] batch: scanning D:\Android\anim\Avatar Season 3\Avatar - 321 - Sozin's Comet, Part 4 - Avatar Aang.avi
Input #0, avi, from 'D:\Android\anim\Avatar Season 3\Avatar - 321 - Sozin's Comet, Part 4 - Avatar Aang.avi':
  Duration: 00:23:43.41, start: 0.000000, bitrate: 1050 kb/s
    Stream #0:0: Video: mpeg4 (DX50 / 0x30355844), yuv420p, 640x480 [SAR 1:1 DAR 4:3], 944 kb/s, 23.98 fps, 23.98 tbr, 23.98 tbn, 30k tbc
    Stream #0:1: Audio: mp3 (U[0][0][0] / 0x0055), 44100 Hz, stereo, fltp, 95 kb/s
[20:59:29] batch: scanning D:\Android\anim\Avatar Season 3\avatar info.txt
Input #0, tty, from 'D:\Android\anim\Avatar Season 3\avatar info.txt':
  Duration: 00:00:00.04, bitrate: 41 kb/s
    Stream #0:0: Video: ansi, pal8, 640x400, 25 fps, 25 tbr, 25 tbn, 25 tbc
[20:59:29] scan: decoding previews for title 1 (D:\Android\anim\Avatar Season 3\Avatar - 301 The Awakening.avi)
[20:59:29] scan: audio 0x1: mp3float, rate=48000Hz, bitrate=128000 Unknown (MP3) (2.0 ch)
[20:59:29] scan: 10 previews, 640x480, 23.976 fps, autocrop = 0/0/0/0, aspect 4:3, PAR 1:1
[20:59:29] scan: decoding previews for title 2 (D:\Android\anim\Avatar Season 3\Avatar - 302 The Headband.avi)
[20:59:29] scan: audio 0x1: mp3float, rate=48000Hz, bitrate=128000 Unknown (MP3) (2.0 ch)
[20:59:29] scan: 10 previews, 640x480, 23.976 fps, autocrop = 0/0/0/0, aspect 4:3, PAR 1:1
[20:59:29] scan: decoding previews for title 3 (D:\Android\anim\Avatar Season 3\Avatar - 303 The Painted Lady.avi)
[20:59:29] scan: audio 0x1: mp3float, rate=48000Hz, bitrate=128000 Unknown (MP3) (2.0 ch)
[20:59:29] scan: 10 previews, 640x480, 23.976 fps, autocrop = 0/6/0/0, aspect 4:3, PAR 1:1
[20:59:29] scan: decoding previews for title 4 (D:\Android\anim\Avatar Season 3\Avatar - 304 Sokka's Master.avi)
[20:59:29] scan: audio 0x1: mp3float, rate=48000Hz, bitrate=128000 Unknown (MP3) (2.0 ch)
[20:59:29] scan: 10 previews, 640x480, 23.976 fps, autocrop = 0/6/0/0, aspect 4:3, PAR 1:1
[20:59:29] scan: decoding previews for title 5 (D:\Android\anim\Avatar Season 3\Avatar - 305 The Beach.avi)
[20:59:29] scan: audio 0x1: mp3float, rate=48000Hz, bitrate=128000 Unknown (MP3) (2.0 ch)
[20:59:29] scan: 10 previews, 640x480, 23.976 fps, autocrop = 0/6/0/0, aspect 4:3, PAR 1:1
[20:59:29] scan: decoding previews for title 6 (D:\Android\anim\Avatar Season 3\Avatar - 306 The Avatar and the Firelord.avi)
[20:59:29] scan: audio 0x1: mp3float, rate=48000Hz, bitrate=128000 Unknown (MP3) (2.0 ch)
[20:59:29] scan: 10 previews, 640x480, 25.000 fps, autocrop = 0/0/0/0, aspect 4:3, PAR 1:1
[20:59:29] scan: decoding previews for title 7 (D:\Android\anim\Avatar Season 3\Avatar - 307 The Runaway.avi)
[20:59:29] scan: audio 0x1: mp3float, rate=48000Hz, bitrate=128000 Unknown (MP3) (2.0 ch)
[20:59:29] scan: 10 previews, 640x480, 25.000 fps, autocrop = 0/0/0/0, aspect 4:3, PAR 1:1
[20:59:29] scan: decoding previews for title 8 (D:\Android\anim\Avatar Season 3\Avatar - 308 The Puppetmaster.avi)
[20:59:29] scan: audio 0x1: mp3float, rate=48000Hz, bitrate=128000 Unknown (MP3) (2.0 ch)
[20:59:29] scan: 10 previews, 640x480, 25.000 fps, autocrop = 0/0/0/0, aspect 4:3, PAR 1:1
[20:59:29] scan: decoding previews for title 9 (D:\Android\anim\Avatar Season 3\Avatar - 309 Nightmares and Daydreams.avi)
[20:59:29] scan: audio 0x1: mp3float, rate=48000Hz, bitrate=128000 Unknown (MP3) (2.0 ch)
[20:59:29] scan: 10 previews, 640x480, 25.000 fps, autocrop = 0/0/0/0, aspect 4:3, PAR 1:1
[20:59:29] scan: decoding previews for title 10 (D:\Android\anim\Avatar Season 3\Avatar - 310 - The Day of the Black Sun Part 1 The Invasion.avi)
[20:59:29] scan: audio 0x1: mp2, rate=44100Hz, bitrate=128000 Unknown (MPEG) (2.0 ch)
[20:59:29] scan: 10 previews, 624x352, 29.970 fps, autocrop = 0/0/0/0, aspect 1.77:1, PAR 1:1
[20:59:29] scan: decoding previews for title 11 (D:\Android\anim\Avatar Season 3\Avatar - 311 - The Day of the Black Sun Part 2 The Eclipse.avi)
[20:59:29] scan: audio 0x1: mp2, rate=44100Hz, bitrate=160000 Unknown (MPEG) (2.0 ch)
[20:59:29] scan: 10 previews, 624x352, 29.970 fps, autocrop = 0/0/0/0, aspect 1.77:1, PAR 1:1
[20:59:29] scan: decoding previews for title 12 (D:\Android\anim\Avatar Season 3\Avatar - 312 The Western Air Temple.avi)
[20:59:29] scan: audio 0x1: mp3float, rate=48000Hz, bitrate=128000 Unknown (MP3) (2.0 ch)
[20:59:30] scan: 10 previews, 640x480, 23.976 fps, autocrop = 0/0/0/0, aspect 4:3, PAR 1:1
[20:59:30] scan: decoding previews for title 13 (D:\Android\anim\Avatar Season 3\Avatar - 313 The Firebending Masters.avi)
[20:59:30] scan: audio 0x1: mp3float, rate=48000Hz, bitrate=128000 Unknown (MP3) (2.0 ch)
[20:59:30] scan: 10 previews, 640x480, 23.976 fps, autocrop = 0/0/0/0, aspect 4:3, PAR 1:1
[20:59:30] scan: decoding previews for title 14 (D:\Android\anim\Avatar Season 3\Avatar - 314 The Boiling Rock, Part 1.avi)
[20:59:30] scan: audio 0x1: mp3float, rate=48000Hz, bitrate=114784 Unknown (MP3) (2.0 ch)
[20:59:30] scan: 10 previews, 720x544, 23.976 fps, autocrop = 0/0/0/0, aspect 1.32:1, PAR 1:1
[20:59:30] scan: decoding previews for title 15 (D:\Android\anim\Avatar Season 3\Avatar - 315 The Boiling Rock, Part 2.avi)
[20:59:30] scan: audio 0x1: mp3float, rate=48000Hz, bitrate=115600 Unknown (MP3) (2.0 ch)
[20:59:30] scan: 10 previews, 720x544, 29.970 fps, autocrop = 0/0/0/2, aspect 1.32:1, PAR 1:1
[20:59:30] scan: decoding previews for title 16 (D:\Android\anim\Avatar Season 3\Avatar - 316 - The Southern Raiders.avi)
[20:59:30] scan: audio 0x1: mp3float, rate=44100Hz, bitrate=95856 Unknown (MP3) (2.0 ch)
[20:59:30] scan: 10 previews, 640x480, 23.980 fps, autocrop = 0/0/0/0, aspect 4:3, PAR 1:1
[20:59:30] scan: decoding previews for title 17 (D:\Android\anim\Avatar Season 3\Avatar - 317 - The Ember Island Players.avi)
[20:59:30] scan: audio 0x1: mp3float, rate=44100Hz, bitrate=95856 Unknown (MP3) (2.0 ch)
[20:59:30] scan: 10 previews, 640x480, 23.976 fps, autocrop = 0/0/0/0, aspect 4:3, PAR 1:1
[20:59:30] scan: decoding previews for title 18 (D:\Android\anim\Avatar Season 3\Avatar - 318 - Sozei's Comet, Part 1 - The Phoenix King.avi)
[20:59:30] scan: audio 0x1: mp3float, rate=44100Hz, bitrate=95856 Unknown (MP3) (2.0 ch)
[20:59:30] scan: 10 previews, 640x480, 23.976 fps, autocrop = 0/0/0/0, aspect 4:3, PAR 1:1
[20:59:30] scan: decoding previews for title 19 (D:\Android\anim\Avatar Season 3\Avatar - 319 - Sozin's Comet, Part 2 - The Old Masters.avi)
[20:59:30] scan: audio 0x1: mp3float, rate=44100Hz, bitrate=95856 Unknown (MP3) (2.0 ch)
[20:59:30] scan: 10 previews, 640x480, 23.976 fps, autocrop = 0/0/0/0, aspect 4:3, PAR 1:1
[20:59:30] scan: decoding previews for title 20 (D:\Android\anim\Avatar Season 3\Avatar - 320 - Sozin's Comet, Part 3 - Into the Inferno.avi)
[20:59:30] scan: audio 0x1: mp3float, rate=44100Hz, bitrate=95856 Unknown (MP3) (2.0 ch)
[20:59:30] scan: 10 previews, 640x480, 23.976 fps, autocrop = 0/0/0/0, aspect 4:3, PAR 1:1
[20:59:30] scan: decoding previews for title 21 (D:\Android\anim\Avatar Season 3\Avatar - 321 - Sozin's Comet, Part 4 - Avatar Aang.avi)
[20:59:30] scan: audio 0x1: mp3float, rate=44100Hz, bitrate=95856 Unknown (MP3) (2.0 ch)
[20:59:30] scan: 10 previews, 640x480, 23.976 fps, autocrop = 0/0/0/0, aspect 4:3, PAR 1:1
[20:59:30] scan: decoding previews for title 22 (D:\Android\anim\Avatar Season 3\avatar info.txt)
avformat_seek_file failed
[20:59:30] Warning: Could not read data for preview 2, skipped
[20:59:30] scan: 1 previews, 640x400, 25.000 fps, autocrop = 0/0/0/0, aspect 1.60:1, PAR 1:1
[20:59:30] Title is likely interlaced or telecined (0 out of 1 previews). You should do something about that.
[20:59:30] scan: Too few previews (1), trying harder
[20:59:30] scan: decoding previews for title 22 (D:\Android\anim\Avatar Season 3\avatar info.txt)
[20:59:30] Warning: Could not read data for preview 2, skipped
[20:59:30] scan: 1 previews, 640x400, 25.000 fps, autocrop = 0/0/0/0, aspect 1.60:1, PAR 1:1
[20:59:30] Title is likely interlaced or telecined (0 out of 1 previews). You should do something about that.
[20:59:30] libhb: scan thread found 22 valid title(s)

 # Processing Scan Information ...


 # Scan Finished ...



Woodstock
Veteran User
Posts: 3125
Joined: Tue Aug 27, 2013 6:39 am

Re: Encode seperate files, er, seperately?

Post by Woodstock » Thu Jun 13, 2019 1:09 pm

Batch processing should produce one output file for each input file. Handbrake does NOT combine/merge video files; it is actually something people keep begging for.

mduell
Veteran User
Posts: 6552
Joined: Sat Apr 21, 2007 8:54 pm

Re: Encode seperate files, er, seperately?

Post by mduell » Thu Jun 13, 2019 3:55 pm

Can you post the log from where you attempted a batch add and didn't get the result you wanted?

GrafixApathy
Posts: 5
Joined: Thu Jun 13, 2019 3:43 am

Re: Encode seperate files, er, seperately?

Post by GrafixApathy » Fri Jun 14, 2019 1:00 am

I didn't actually try to encode anything yet, since to my (ignorant) understanding, the files would wind up combined. I will encode (and see what happens) overnight today.

GrafixApathy
Posts: 5
Joined: Thu Jun 13, 2019 3:43 am

Re: Encode seperate files, er, seperately?

Post by GrafixApathy » Fri Jun 14, 2019 3:05 am

So I did the batch thing, and to my surprise (but not in a good way), only the first file was encoded. The rest weren't even touched.

I feel that there's something obvious that i'm too ignorant to know to even look for.

Woodstock
Veteran User
Posts: 3125
Joined: Tue Aug 27, 2013 6:39 am

Re: Encode seperate files, er, seperately?

Post by Woodstock » Fri Jun 14, 2019 3:14 am

Activity Logs would make things obvious to many of us.

User avatar
BradleyS
Moderator
Posts: 1564
Joined: Thu Aug 09, 2007 12:16 pm

Re: Encode seperate files, er, seperately?

Post by BradleyS » Fri Jun 14, 2019 4:56 am

I suspect you're overwriting the first output file with each encode. Either change the name manually for each video before adding to the queue, or enable automatic file naming in the preferences.

mduell
Veteran User
Posts: 6552
Joined: Sat Apr 21, 2007 8:54 pm

Re: Encode seperate files, er, seperately?

Post by mduell » Fri Jun 14, 2019 5:52 pm

GrafixApathy wrote:
Fri Jun 14, 2019 3:05 am
I feel that there's something obvious that i'm too ignorant to know to even look for.
Which is why you should be posting the encode log.

GrafixApathy
Posts: 5
Joined: Thu Jun 13, 2019 3:43 am

Re: Encode seperate files, er, seperately?

Post by GrafixApathy » Sun Jun 16, 2019 5:04 am

Thanks. Here's the linky to my log https://pastebin.com/BTmDZgNn

Woodstock
Veteran User
Posts: 3125
Joined: Tue Aug 27, 2013 6:39 am

Re: Encode seperate files, er, seperately?

Post by Woodstock » Sun Jun 16, 2019 5:19 pm

You have the wrong characters in your auto naming macro; Curly braces {} are what is expected. Instead you have parens ().

{title} will be replaced with the title number of the batch, while (title) will just be used as a literal, as in:
D:\Vita\mp4\(title).mp4

GrafixApathy
Posts: 5
Joined: Thu Jun 13, 2019 3:43 am

Re: Encode seperate files, er, seperately?

Post by GrafixApathy » Tue Jun 18, 2019 4:12 am

Heh, oopsy. BTW, would you folks recommend that I start from scratch regarding my settings? I haven't customized much, but i've clearly screwed up what I have in rather dumb ways.

musicvid
Veteran User
Posts: 3210
Joined: Sat Jun 27, 2009 1:19 am

Re: Encode seperate files, er, seperately?

Post by musicvid » Wed Jun 19, 2019 11:02 pm

You know, we all started from exactly the same place. Instead of thinking you are so different, just go and make some really great mistakes!!
It will make you feel better, and several of us too, I suspect... :shock:

Woodstock
Veteran User
Posts: 3125
Joined: Tue Aug 27, 2013 6:39 am

Re: Encode seperate files, er, seperately?

Post by Woodstock » Thu Jun 20, 2019 2:09 am

"Children learn from playing. If something doesn't work, they try something else. Adults can learn that way, too, once we get over the idea that failing is bad. In learning, failure isn't an option, it's required."

It doesn't cost anything but time to experiment with the settings on handbrake. Take short sections of video, and try a bunch of different presets on them. Watch them back to back and see what looks better to you. If nothing is "just right", take what's closest and look at adjustments.

Vast majority of the time, you're going to find that the available presets cover your needs, unless you're obsessive about one thing or another.

Post Reply