Channel Mapping Issue When Using DPL II

HandBrake for Windows support
Forum rules
An Activity Log is required for support requests. Please read How-to get an activity log? for details on how and why this should be provided.
Post Reply
Snaptrap
Posts: 10
Joined: Sat Dec 05, 2009 4:27 am

Channel Mapping Issue When Using DPL II

Post by Snaptrap » Wed Jan 16, 2019 1:01 pm

Description of problem or question: When I downmix a 5.1 or 7.1 video, the audio channels become unbalanced. For example, audio that would normally play out of both front speakers in a 5.1 or 7.1 configuration, would be more pronounced in the right speaker than the left after the downmix.




Steps to reproduce the problem (If Applicable):




HandBrake version (e.g., 1.0.0):1.2.0




Operating system and version (e.g., Ubuntu 16.04 LTS, macOS 10.13 High Sierra, Windows 10 Creators Update):Windows 10 64-bit Fully Updated.

Code: Select all

HandBrake 1.2.0 (2018121700)
OS: Microsoft Windows NT 10.0.17763.0
Ram: 16064 MB, 
GPU Information:
  Intel(R) HD Graphics 4000 - 10.18.10.4425
Screen: 1920x1080
Temp Dir: C:\Users\snapt\AppData\Local\Temp\
Install Dir: E:\Backup Archive\Software\Handbrake
Data Dir: C:\Users\snapt\AppData\Roaming\HandBrake

-------------------------------------------


# Starting Encode ...

[05:13:41] hb_init: starting libhb thread
[05:13:41] 1 job(s) to process
[05:13:41] json job:
{
  "Audio": {
    "AudioList": [
      {
        "Bitrate": 512,
        "DRC": 0.0,
        "Encoder": "av_aac",
        "Gain": 0.0,
        "Mixdown": 6,
        "NormalizeMixLevel": false,
        "Samplerate": 48000,
        "Track": 0,
        "DitherMethod": 0
      }
    ],
    "CopyMask": [
      "copy:aac",
      "copy:ac3",
      "copy:dtshd",
      "copy:dts",
      "copy:eac3",
      "copy:flac",
      "copy:mp3",
      "copy:truehd"
    ],
    "FallbackEncoder": "ac3"
  },
  "Destination": {
    "ChapterList": [],
    "ChapterMarkers": false,
    "AlignAVStart": false,
    "File": "E:\\Backup Archive\\Media Files\\Videos\\Converts\\The House with a Clock in Its Walls-1.mkv",
    "Mp4Options": {
      "IpodAtom": false,
      "Mp4Optimize": false
    },
    "Mux": "mkv"
  },
  "Filters": {
    "FilterList": [
      {
        "ID": 11,
        "Settings": {
          "crop-bottom": "138",
          "crop-left": "0",
          "crop-right": "0",
          "crop-top": "138",
          "height": "804",
          "width": "1920"
        }
      },
      {
        "ID": 6,
        "Settings": {
          "mode": "1",
          "rate": "27000000/1126125"
        }
      }
    ]
  },
  "PAR": {
    "Num": 1,
    "Den": 1
  },
  "Metadata": {},
  "SequenceID": 0,
  "Source": {
    "Angle": 1,
    "Range": {
      "Type": "chapter",
      "Start": 1,
      "End": 21
    },
    "Title": 1,
    "Path": "E:\\Program Install\\The House with a Clock in Its Walls.mkv"
  },
  "Subtitle": {
    "Search": {
      "Burn": false,
      "Default": false,
      "Enable": false,
      "Forced": false
    },
    "SubtitleList": []
  },
  "Video": {
    "Encoder": "qsv_h264",
    "Level": "auto",
    "TwoPass": false,
    "Turbo": false,
    "ColorMatrixCode": 0,
    "Options": "target-usage=1:num-ref-frame=16:gop-ref-dist=16:trellis=3",
    "Preset": "balanced",
    "Profile": "auto",
    "Quality": 15.0,
    "QSV": {
      "Decode": false,
      "AsyncDepth": 0
    }
  }
}
[05:13:41] CPU: Intel(R) Core(TM) i7-3770K CPU @ 3.50GHz
[05:13:41]  - Intel microarchitecture Ivy Bridge
[05:13:41]  - logical processor count: 8
[05:13:41] Intel Quick Sync Video support: yes
[05:13:41]  - Intel Media SDK hardware: API 1.11 (minimum: 1.3)
[05:13:41]  - H.264 encoder: yes
[05:13:41]     - preferred implementation: hardware (any) via D3D11
[05:13:41]     - capabilities (hardware):  vsinfo opt1 opt2+extbrc+ib_adapt+nmpslice
[05:13:41]  - H.265 encoder: no
[05:13:41] hb_scan: path=E:\Program Install\The House with a Clock in Its Walls.mkv, title_index=1
udfread ERROR: ECMA 167 Volume Recognition failed
src/libbluray/disc/disc.c:323: failed opening UDF image E:\Program Install\The House with a Clock in Its Walls.mkv
src/libbluray/disc/disc.c:424: error opening file BDMV\index.bdmv
src/libbluray/disc/disc.c:424: error opening file BDMV\BACKUP\index.bdmv
[05:13:41] bd: not a bd - trying as a stream/file instead
libdvdnav: Using dvdnav version 6.0.0
libdvdread: Encrypted DVD support unavailable.
libdvdread:DVDOpenFileUDF:UDFFindFile /VIDEO_TS/VIDEO_TS.IFO failed
libdvdread:DVDOpenFileUDF:UDFFindFile /VIDEO_TS/VIDEO_TS.BUP failed
libdvdread: Can't open file VIDEO_TS.IFO.
libdvdnav: vm: failed to read VIDEO_TS.IFO
[05:13:41] dvd: not a dvd - trying as a stream/file instead
[pgssub @ 0000019498394880] Invalid palette id 0
Input #0, matroska,webm, from 'E:\Program Install\The House with a Clock in Its Walls.mkv':
  Metadata:
    title           : The.House.with.a.Clock.in.Its.Walls.2018.1080p.BluRay.REMUX.AVC.DTS-HD.MA.TrueHD.7.1.Atmos-FGT
    encoder         : libebml v1.3.6 + libmatroska v1.4.9
    creation_time   : 2018-12-15T10:05:28.000000Z
  Duration: 01:45:03.79, start: 0.000000, bitrate: 41156 kb/s
    Chapter #0:0: start 0.000000, end 332.707375
    Metadata:
      title           : Chapter 01
    Chapter #0:1: start 332.707375, end 719.635583
    Metadata:
      title           : Chapter 02
    Chapter #0:2: start 719.635583, end 1001.792458
    Metadata:
      title           : Chapter 03
    Chapter #0:3: start 1001.792458, end 1361.985625
    Metadata:
      title           : Chapter 04
    Chapter #0:4: start 1361.985625, end 1663.536875
    Metadata:
      title           : Chapter 05
    Chapter #0:5: start 1663.536875, end 1871.494625
    Metadata:
      title           : Chapter 06
    Chapter #0:6: start 1871.494625, end 2098.346250
    Metadata:
      title           : Chapter 07
    Chapter #0:7: start 2098.346250, end 2345.843500
    Metadata:
      title           : Chapter 08
    Chapter #0:8: start 2345.843500, end 2675.422750
    Metadata:
      title           : Chapter 09
    Chapter #0:9: start 2675.422750, end 2996.034708
    Metadata:
      title           : Chapter 10
    Chapter #0:10: start 2996.034708, end 3224.221000
    Metadata:
      title           : Chapter 11
    Chapter #0:11: start 3224.221000, end 3487.734250
    Metadata:
      title           : Chapter 12
    Chapter #0:12: start 3487.734250, end 3902.064833
    Metadata:
      title           : Chapter 13
    Chapter #0:13: start 3902.064833, end 4304.842208
    Metadata:
      title           : Chapter 14
    Chapter #0:14: start 4304.842208, end 4559.638417
    Metadata:
      title           : Chapter 15
    Chapter #0:15: start 4559.638417, end 4893.805583
    Metadata:
      title           : Chapter 16
    Chapter #0:16: start 4893.805583, end 5199.986458
    Metadata:
      title           : Chapter 17
    Chapter #0:17: start 5199.986458, end 5614.650708
    Metadata:
      title           : Chapter 18
    Chapter #0:18: start 5614.650708, end 5944.313375
    Metadata:
      title           : Chapter 19
    Chapter #0:19: start 5944.313375, end 6298.333708
    Metadata:
      title           : Chapter 20
    Chapter #0:20: start 6298.333708, end 6303.755792
    Metadata:
      title           : Chapter 21
    Stream #0:0(eng): Video: h264 (High), yuv420p(progressive), 1920x1080 [SAR 1:1 DAR 16:9], 23.98 fps, 23.98 tbr, 1k tbn, 47.95 tbc
    Metadata:
      title           : The.House.with.a.Clock.in.Its.Walls.2018.1080p.BluRay.REMUX.AVC.DTS-HD.MA.TrueHD.7.1.Atmos-FGT
      BPS-eng         : 24891741
      DURATION-eng    : 01:45:03.756000000
      NUMBER_OF_FRAMES-eng: 151139
      NUMBER_OF_BYTES-eng: 19613932858
      _STATISTICS_WRITING_APP-eng: mkvmerge v29.0.0 ('Like It Or Not') 64-bit
      _STATISTICS_WRITING_DATE_UTC-eng: 2018-12-15 10:05:28
      _STATISTICS_TAGS-eng: BPS DURATION NUMBER_OF_FRAMES NUMBER_OF_BYTES
    Stream #0:1(eng): Audio: truehd, 48000 Hz, 7.1, s32 (24 bit) (default)
    Metadata:
      title           : The.House.with.a.Clock.in.Its.Walls.2018.1080p.BluRay.REMUX.AVC.DTS-HD.MA.TrueHD.7.1.Atmos-FGT
      BPS-eng         : 4273907
      DURATION-eng    : 01:45:03.756000000
      NUMBER_OF_FRAMES-eng: 7564507
      NUMBER_OF_BYTES-eng: 3367708732
      _STATISTICS_WRITING_APP-eng: mkvmerge v29.0.0 ('Like It Or Not') 64-bit
      _STATISTICS_WRITING_DATE_UTC-eng: 2018-12-15 10:05:28
      _STATISTICS_TAGS-eng: BPS DURATION NUMBER_OF_FRAMES NUMBER_OF_BYTES
    Stream #0:2(eng): Audio: dts (DTS-HD MA), 48000 Hz, 7.1, s32p (24 bit)
    Metadata:
      title           : The.House.with.a.Clock.in.Its.Walls.2018.1080p.BluRay.REMUX.AVC.DTS-HD.MA.TrueHD.7.1.Atmos-FGT
      BPS-eng         : 3972179
      DURATION-eng    : 01:45:03.787000000
      NUMBER_OF_FRAMES-eng: 590980
      NUMBER_OF_BYTES-eng: 3129971652
      _STATISTICS_WRITING_APP-eng: mkvmerge v29.0.0 ('Like It Or Not') 64-bit
      _STATISTICS_WRITING_DATE_UTC-eng: 2018-12-15 10:05:28
      _STATISTICS_TAGS-eng: BPS DURATION NUMBER_OF_FRAMES NUMBER_OF_BYTES
    Stream #0:3(eng): Audio: ac3, 48000 Hz, 5.1(side), fltp, 448 kb/s
    Metadata:
      title           : The.House.with.a.Clock.in.Its.Walls.2018.1080p.BluRay.REMUX.AVC.DTS-HD.MA.TrueHD.7.1.Atmos-FGT
      BPS-eng         : 448000
      DURATION-eng    : 01:45:03.776000000
      NUMBER_OF_FRAMES-eng: 196993
      NUMBER_OF_BYTES-eng: 353011456
      _STATISTICS_WRITING_APP-eng: mkvmerge v29.0.0 ('Like It Or Not') 64-bit
      _STATISTICS_WRITING_DATE_UTC-eng: 2018-12-15 10:05:28
      _STATISTICS_TAGS-eng: BPS DURATION NUMBER_OF_FRAMES NUMBER_OF_BYTES
    Stream #0:4(spa): Audio: dts (DTS-HD HRA), 48000 Hz, 7.1, fltp
    Metadata:
      title           : The.House.with.a.Clock.in.Its.Walls.2018.1080p.BluRay.REMUX.AVC.DTS-HD.MA.TrueHD.7.1.Atmos-FGT
      BPS-eng         : 2046000
      DURATION-eng    : 01:45:03.765000000
      NUMBER_OF_FRAMES-eng: 590978
      NUMBER_OF_BYTES-eng: 1612187984
      _STATISTICS_WRITING_APP-eng: mkvmerge v29.0.0 ('Like It Or Not') 64-bit
      _STATISTICS_WRITING_DATE_UTC-eng: 2018-12-15 10:05:28
      _STATISTICS_TAGS-eng: BPS DURATION NUMBER_OF_FRAMES NUMBER_OF_BYTES
    Stream #0:5(spa): Audio: dts (DTS), 48000 Hz, 5.1(side), fltp, 1536 kb/s
    Metadata:
      title           : The.House.with.a.Clock.in.Its.Walls.2018.1080p.BluRay.REMUX.AVC.DTS-HD.MA.TrueHD.7.1.Atmos-FGT
      BPS-eng         : 1509000
      DURATION-eng    : 01:45:03.765000000
      NUMBER_OF_FRAMES-eng: 590978
      NUMBER_OF_BYTES-eng: 1189047736
      _STATISTICS_WRITING_APP-eng: mkvmerge v29.0.0 ('Like It Or Not') 64-bit
      _STATISTICS_WRITING_DATE_UTC-eng: 2018-12-15 10:05:28
      _STATISTICS_TAGS-eng: BPS DURATION NUMBER_OF_FRAMES NUMBER_OF_BYTES
    Stream #0:6(fre): Audio: dts (DTS-HD HRA), 48000 Hz, 7.1, fltp
    Metadata:
      title           : The.House.with.a.Clock.in.Its.Walls.2018.1080p.BluRay.REMUX.AVC.DTS-HD.MA.TrueHD.7.1.Atmos-FGT
      BPS-eng         : 2046000
      DURATION-eng    : 01:45:03.765000000
      NUMBER_OF_FRAMES-eng: 590978
      NUMBER_OF_BYTES-eng: 1612187984
      _STATISTICS_WRITING_APP-eng: mkvmerge v29.0.0 ('Like It Or Not') 64-bit
      _STATISTICS_WRITING_DATE_UTC-eng: 2018-12-15 10:05:28
      _STATISTICS_TAGS-eng: BPS DURATION NUMBER_OF_FRAMES NUMBER_OF_BYTES
    Stream #0:7(fre): Audio: dts (DTS), 48000 Hz, 5.1(side), fltp, 1536 kb/s
    Metadata:
      title           : The.House.with.a.Clock.in.Its.Walls.2018.1080p.BluRay.REMUX.AVC.DTS-HD.MA.TrueHD.7.1.Atmos-FGT
      BPS-eng         : 1509000
      DURATION-eng    : 01:45:03.765000000
      NUMBER_OF_FRAMES-eng: 590978
      NUMBER_OF_BYTES-eng: 1189047736
      _STATISTICS_WRITING_APP-eng: mkvmerge v29.0.0 ('Like It Or Not') 64-bit
      _STATISTICS_WRITING_DATE_UTC-eng: 2018-12-15 10:05:28
      _STATISTICS_TAGS-eng: BPS DURATION NUMBER_OF_FRAMES NUMBER_OF_BYTES
    Stream #0:8(eng): Audio: ac3, 48000 Hz, stereo, fltp, 192 kb/s
    Metadata:
      title           : The.House.with.a.Clock.in.Its.Walls.2018.1080p.BluRay.REMUX.AVC.DTS-HD.MA.TrueHD.7.1.Atmos-FGT
      BPS-eng         : 192000
      DURATION-eng    : 01:45:03.776000000
      NUMBER_OF_FRAMES-eng: 196993
      NUMBER_OF_BYTES-eng: 151290624
      _STATISTICS_WRITING_APP-eng: mkvmerge v29.0.0 ('Like It Or Not') 64-bit
      _STATISTICS_WRITING_DATE_UTC-eng: 2018-12-15 10:05:28
      _STATISTICS_TAGS-eng: BPS DURATION NUMBER_OF_FRAMES NUMBER_OF_BYTES
    Stream #0:9(eng): Audio: ac3, 48000 Hz, stereo, fltp, 192 kb/s
    Metadata:
      title           : The.House.with.a.Clock.in.Its.Walls.2018.1080p.BluRay.REMUX.AVC.DTS-HD.MA.TrueHD.7.1.Atmos-FGT
      BPS-eng         : 192000
      DURATION-eng    : 01:45:03.776000000
      NUMBER_OF_FRAMES-eng: 196993
      NUMBER_OF_BYTES-eng: 151290624
      _STATISTICS_WRITING_APP-eng: mkvmerge v29.0.0 ('Like It Or Not') 64-bit
      _STATISTICS_WRITING_DATE_UTC-eng: 2018-12-15 10:05:28
      _STATISTICS_TAGS-eng: BPS DURATION NUMBER_OF_FRAMES NUMBER_OF_BYTES
    Stream #0:10(eng): Subtitle: hdmv_pgs_subtitle (default)
    Metadata:
      title           : English-PGS
      BPS-eng         : 91
      DURATION-eng    : 01:39:13.552000000
      NUMBER_OF_FRAMES-eng: 3259
      NUMBER_OF_BYTES-eng: 68443
      _STATISTICS_WRITING_APP-eng: mkvmerge v29.0.0 ('Like It Or Not') 64-bit
      _STATISTICS_WRITING_DATE_UTC-eng: 2018-12-15 10:05:28
      _STATISTICS_TAGS-eng: BPS DURATION NUMBER_OF_FRAMES NUMBER_OF_BYTES
    Stream #0:11(spa): Subtitle: hdmv_pgs_subtitle
    Metadata:
      title           : Spanish-PGS
      BPS-eng         : 67
      DURATION-eng    : 01:44:06.637000000
      NUMBER_OF_FRAMES-eng: 2510
      NUMBER_OF_BYTES-eng: 52710
      _STATISTICS_WRITING_APP-eng: mkvmerge v29.0.0 ('Like It Or Not') 64-bit
      _STATISTICS_WRITING_DATE_UTC-eng: 2018-12-15 10:05:28
      _STATISTICS_TAGS-eng: BPS DURATION NUMBER_OF_FRAMES NUMBER_OF_BYTES
    Stream #0:12(fre): Subtitle: hdmv_pgs_subtitle
    Metadata:
      title           : French-PGS
      BPS-eng         : 68
      DURATION-eng    : 01:43:56.168000000
      NUMBER_OF_FRAMES-eng: 2535
      NUMBER_OF_BYTES-eng: 53239
      _STATISTICS_WRITING_APP-eng: mkvmerge v29.0.0 ('Like It Or Not') 64-bit
      _STATISTICS_WRITING_DATE_UTC-eng: 2018-12-15 10:05:28
      _STATISTICS_TAGS-eng: BPS DURATION NUMBER_OF_FRAMES NUMBER_OF_BYTES
    Stream #0:13(eng): Subtitle: hdmv_pgs_subtitle, 1920x1080
    Metadata:
      title           : English-COMMENTARY-PGS
      BPS-eng         : 128
      DURATION-eng    : 01:44:54.643000000
      NUMBER_OF_FRAMES-eng: 4814
      NUMBER_OF_BYTES-eng: 101118
      _STATISTICS_WRITING_APP-eng: mkvmerge v29.0.0 ('Like It Or Not') 64-bit
      _STATISTICS_WRITING_DATE_UTC-eng: 2018-12-15 10:05:28
      _STATISTICS_TAGS-eng: BPS DURATION NUMBER_OF_FRAMES NUMBER_OF_BYTES
    Stream #0:14(spa): Subtitle: hdmv_pgs_subtitle
    Metadata:
      title           : Spanish-FORCED-PGS
      BPS-eng         : 1
      DURATION-eng    : 01:23:39.202000000
      NUMBER_OF_FRAMES-eng: 46
      NUMBER_OF_BYTES-eng: 966
      _STATISTICS_WRITING_APP-eng: mkvmerge v29.0.0 ('Like It Or Not') 64-bit
      _STATISTICS_WRITING_DATE_UTC-eng: 2018-12-15 10:05:28
      _STATISTICS_TAGS-eng: BPS DURATION NUMBER_OF_FRAMES NUMBER_OF_BYTES
    Stream #0:15(fre): Subtitle: hdmv_pgs_subtitle
    Metadata:
      title           : French-FORCED-PGS
      BPS-eng         : 1
      DURATION-eng    : 01:08:07.897000000
      NUMBER_OF_FRAMES-eng: 44
      NUMBER_OF_BYTES-eng: 924
      _STATISTICS_WRITING_APP-eng: mkvmerge v29.0.0 ('Like It Or Not') 64-bit
      _STATISTICS_WRITING_DATE_UTC-eng: 2018-12-15 10:05:28
      _STATISTICS_TAGS-eng: BPS DURATION NUMBER_OF_FRAMES NUMBER_OF_BYTES
    Stream #0:16: Video: mjpeg, yuvj444p(pc, bt470bg/unknown/unknown), 213x120, 90k tbr, 90k tbn, 90k tbc
    Metadata:
      filename        : small_cover_land.jpg
      mimetype        : image/jpeg
    Stream #0:17: Video: mjpeg, yuvj444p(pc, bt470bg/unknown/unknown), 600x882, 90k tbr, 90k tbn, 90k tbc
    Metadata:
      filename        : cover.jpg
      mimetype        : image/jpeg
    Stream #0:18: Video: mjpeg, yuvj444p(pc, bt470bg/unknown/unknown), 1067x600, 90k tbr, 90k tbn, 90k tbc
    Metadata:
      filename        : cover_land.jpg
      mimetype        : image/jpeg
    Stream #0:19: Video: mjpeg, yuvj444p(pc, bt470bg/unknown/unknown), 120x176, 90k tbr, 90k tbn, 90k tbc
    Metadata:
      filename        : small_cover.jpg
      mimetype        : image/jpeg
[05:13:41] scan: decoding previews for title 1
[pgssub @ 00000194a2dc5080] Invalid palette id 0
[05:13:41] scan: audio 0x1: truehd, rate=48000Hz, bitrate=1 English (TrueHD) (7.1 ch)
[05:13:41] scan: audio 0x3: ac3, rate=48000Hz, bitrate=448000 English (AC3) (5.1 ch)
[05:13:41] scan: audio 0x4: dca, rate=48000Hz, bitrate=1 español (DTS-HD HRA) (7.1 ch)
[05:13:41] scan: audio 0x5: dca, rate=48000Hz, bitrate=1536000 español (DTS) (5.1 ch)
[05:13:41] scan: audio 0x6: dca, rate=48000Hz, bitrate=1 Francais (DTS-HD HRA) (7.1 ch)
[05:13:41] scan: audio 0x7: dca, rate=48000Hz, bitrate=1536000 Francais (DTS) (5.1 ch)
[05:13:41] scan: audio 0x8: ac3, rate=48000Hz, bitrate=192000 English (AC3) (2.0 ch) (Dolby Surround)
[05:13:41] scan: audio 0x9: ac3, rate=48000Hz, bitrate=192000 English (AC3) (2.0 ch) (Dolby Surround)
[05:13:41] scan: audio 0x2: dca, rate=48000Hz, bitrate=1 English (DTS-HD MA) (7.1 ch)
[05:13:43] scan: 10 previews, 1920x1080, 23.976 fps, autocrop = 138/138/0/0, aspect 16:9, PAR 1:1
[05:13:43] scan: supported video decoders: avcodec qsv
[05:13:43] libhb: scan thread found 1 valid title(s)
[05:13:44] starting job
[05:13:44] job configuration:
[05:13:44]  * source
[05:13:44]    + E:\Program Install\The House with a Clock in Its Walls.mkv
[05:13:44]    + title 1, chapter(s) 1 to 21
[05:13:44]    + container: matroska,webm
[05:13:44]    + data rate: 41156 kbps
[05:13:44]  * destination
[05:13:44]    + E:\Backup Archive\Media Files\Videos\Converts\The House with a Clock in Its Walls-1.mkv
[05:13:44]    + container: Matroska (libavformat)
[05:13:44]  * video track
[05:13:44]    + decoder: h264
[05:13:44]    + filters
[05:13:44]      + Framerate Shaper (mode=1:rate=27000000/1126125)
[05:13:44]        + frame rate: 23.976 fps -> constant 23.976 fps
[05:13:44]      + Crop and Scale (width=1920:height=804:crop-top=138:crop-bottom=138:crop-left=0:crop-right=0)
[05:13:44]        + source: 1920 * 1080, crop (138/138/0/0): 1920 * 804, scale: 1920 * 804
[05:13:44]    + Output geometry
[05:13:44]      + storage dimensions: 1920 x 804
[05:13:44]      + pixel aspect ratio: 1 : 1
[05:13:44]      + display dimensions: 1920 x 804
[05:13:44]    + encoder: H.264 (Intel Media SDK)
[05:13:44]      + preset:  balanced
[05:13:44]      + options: target-usage=1:num-ref-frame=16:gop-ref-dist=16:trellis=3
[05:13:44]      + profile: auto
[05:13:44]      + level:   auto
[05:13:44]      + quality: 15.00 (QP)
[05:13:44]      + color profile: 1-1-1
[05:13:44]  * audio track 1
[05:13:44]    + decoder: English (TrueHD) (7.1 ch) (track 1, id 0x1)
[05:13:44]      + samplerate: 48000 Hz
[05:13:44]    + mixdown: Dolby Pro Logic II
[05:13:44]    + dither: none
[05:13:44]    + encoder: AAC (libavcodec)
[05:13:44]      + bitrate: 512 kbps, samplerate: 48000 Hz
[pgssub @ 00000194a28f6140] Invalid palette id 0
[05:13:44] sync: expecting 151139 video frames
[05:13:44] encqsvInit: hb_qsv_param_parse: unsupported option trellis
[05:13:44] encqsvInit: using encode-only path
[05:13:44] encqsvInit: H.264/AVC High profile @ level 5.0
[05:13:44] encqsvInit: TargetUsage 1 AsyncDepth 3
[05:13:44] encqsvInit: GopRefDist 16 GopPicSize 32 NumRefFrame 16
[05:13:44] encqsvInit: BFramesMax 15
[05:13:44] encqsvInit: RateControlMethod CQP with QPI 15 QPP 17 QPB 19
[05:13:44] sync: first pts audio 0x1 is 0
[05:13:44] sync: first pts video is 0
[05:13:44] sync: "Chapter 1" (1) at frame 1 time 0
[05:13:44] qsv_enc_init: using 'hardware (1) via D3D11' implementation, API: 1.11
[05:14:47] sync: "Chapter 2" (2) at frame 7980 time 29951171
[05:15:53] sync: "Chapter 3" (3) at frame 17255 time 64767202
[05:16:46] sync: "Chapter 4" (4) at frame 24023 time 90172582
[05:17:51] sync: "Chapter 5" (5) at frame 32656 time 122578706
[05:18:49] sync: "Chapter 6" (6) at frame 39886 time 149718318
[05:19:23] sync: "Chapter 7" (7) at frame 44872 time 168434516
[05:20:00] sync: "Chapter 8" (8) at frame 50314 time 188862423
[05:20:42] sync: "Chapter 9" (9) at frame 56245 time 211125915
[05:21:39] sync: "Chapter 10" (10) at frame 64147 time 240788047
[05:22:35] sync: "Chapter 11" (11) at frame 71834 time 269643123
[05:23:12] sync: "Chapter 12" (12) at frame 77305 time 290179890
[05:23:57] sync: "Chapter 13" (13) at frame 83626 time 313907343
[05:25:09] sync: "Chapter 14" (14) at frame 93557 time 351185835
[05:26:23] sync: "Chapter 15" (15) at frame 103217 time 387447060
[05:27:03] sync: "Chapter 16" (16) at frame 109326 time 410378718
[05:27:56] sync: "Chapter 17" (17) at frame 117335 time 440442502
[05:28:46] sync: "Chapter 18" (18) at frame 124679 time 468010042
[05:29:48] sync: "Chapter 19" (19) at frame 134618 time 505318563
[05:30:45] sync: "Chapter 20" (20) at frame 142524 time 534995711
[05:31:40] sync: "Chapter 21" (21) at frame 151010 time 566850033
[05:31:41] reader: done. 1 scr changes
[05:31:41] work: average encoding speed for job is 140.243500 fps
[05:31:42] vfr: 151139 frames output, 0 dropped and 0 duped for CFR/PFR
[05:31:42] vfr: lost time: 0 (0 frames)
[05:31:42] vfr: gained time: 0 (0 frames) (0 not accounted for)
[05:31:42] truehd-decoder done: 7564507 frames, 0 decoder errors
[05:31:42] h264-decoder done: 151139 frames, 0 decoder errors
[05:31:42] sync: got 151139 frames, 151139 expected
[05:31:42] sync: framerate min 23.981 fps, max 23.981 fps, avg 23.976 fps
[05:31:42] mux: track 0, 151139 frames, 6336339397 bytes, 8041.30 kbps, fifo 1024
[05:31:42] mux: track 1, 295489 frames, 294219818 bytes, 373.39 kbps, fifo 4096
[05:31:42] libhb: work result = 0

# Encode Completed ...

User avatar
Rodeo
HandBrake Team
Posts: 12046
Joined: Tue Mar 03, 2009 8:55 pm

Re: Channel Mapping Issue When Using DPL II

Post by Rodeo » Wed Jan 16, 2019 1:17 pm

Known issue, but there's no easy fix. Better to use plain stereo or true multichannel audio.

musicvid
Veteran User
Posts: 3175
Joined: Sat Jun 27, 2009 1:19 am

Re: Channel Mapping Issue When Using DPL II

Post by musicvid » Fri Jan 18, 2019 2:12 am

If a 90 degrees phase shift is not applied to one of the mixed-down stereo channel before matricing, this is likely to occur. Also applies to licensed DD encoders, as well.
As stated, PLII just isn't worth it any more. Nobody really bought into it in the 1990s, anyway.

Post Reply