With upcoming changes to data protection and privacy laws in Europe coming into effect soon, we thought this would be a good time to remind everyone that we do have a privacy policy.
This applies to all users and visitors world-wide.

We have made a few changes to the language to make it clearer in relation to this new regulation but fundamentally, the terms and your rights are unchanged.

If you have any questions about this, please feel free to ask in the General Forum

4K encode question

HandBrake for Windows support
Forum rules
An Activity Log is required for support requests. Please read How-to get an activity log? for details on how and why this should be provided.
Post Reply
deathtical
Posts: 69
Joined: Tue May 01, 2012 3:06 pm

4K encode question

Post by deathtical » Sat May 26, 2018 3:54 am

This isn't really a problem, or rather, I'm trying to find out if I have one. I finally got a Blu Ray drive that recognizes 4k discs. So I updated my makemkv and handbrake to see how easy it was to rip and encode. Oh, before I forget...

CPU: AMD Ryzen 7 1700X (8 cores/16 threads)
RAM: 32GB

When I encode a normal blu ray, say two hours long, it normally takes about 30-40 min to complete an encode. That's using the built in Roku 1080p30 config with some minor changes. This is has become my norm since my hardware upgrade. However, when I performed a 4k encode it took much MUCH longer. Again, using the Roku 2160p60 4K Surround as a starting point with some minor tweaks (just changed it from 60FPS to Same as Source) it took about 12+ hours. Is that normal?:



HandBrake version 1.1.0 (2018040700) 64Bit:

Windows 10 Pro 64bit Build 1803:

I'm currently running another encode to see if it was just the movie or if this is going to be my new normal :( , so no log file at the moment.

Thoughts?

Thanks

rollin_eng
Veteran User
Posts: 2737
Joined: Wed May 04, 2011 11:06 pm

Re: 4K encode question

Post by rollin_eng » Sat May 26, 2018 9:54 am

Could you please post your logs from both encodes, instructions can be found here:

https://handbrake.fr/docs/en/latest/hel ... y-log.html

User avatar
JohnAStebbins
HandBrake Team
Posts: 5117
Joined: Sat Feb 09, 2008 7:21 pm

Re: 4K encode question

Post by JohnAStebbins » Sat May 26, 2018 1:46 pm

Is that normal?
Assuming you haven't misstated or fatfingered anything (we require logs in order to verify these things), yes, it's quite possibly normal. 4K video is 8x as many pixels as 1080p, so going to take 8x longer right off the top. Then going from the Roku 1080p30 preset to the Roku 2160p60 preset changes the encoder from x264 to x265. x265 is several times slower than x264. I haven't compared those 2 presets directly so I can't say exactly how much slower that preset is. But I would expect anywhere from 16x to 40x slower overall.

deathtical
Posts: 69
Joined: Tue May 01, 2012 3:06 pm

Re: 4K encode question

Post by deathtical » Sat May 26, 2018 3:23 pm

JohnAStebbins wrote:
Sat May 26, 2018 1:46 pm
Is that normal?
Assuming you haven't misstated or fatfingered anything (we require logs in order to verify these things), yes, it's quite possibly normal. 4K video is 8x as many pixels as 1080p, so going to take 8x longer right off the top. Then going from the Roku 1080p30 preset to the Roku 2160p60 preset changes the encoder from x264 to x265. x265 is several times slower than x264. I haven't compared those 2 presets directly so I can't say exactly how much slower that preset is. But I would expect anywhere from 16x to 40x slower overall.
Ah, ok. Hadn't noticed the codec change. If I switched the "Roku 2160p60" back to the x264 codec, what would I lose? Does it not support HDR or something?

Thanks.

PS: The encode I started last night is still going. Once it's done, I'll attach a log.

deathtical
Posts: 69
Joined: Tue May 01, 2012 3:06 pm

Re: 4K encode question

Post by deathtical » Sat May 26, 2018 5:15 pm

Here are my logs...

Activity Log:

Code: Select all

HandBrake 1.0.7 (2017040900) - 64bit
OS: Microsoft Windows NT 10.0.17134.0 - 64bit
CPU: AMD Ryzen 7 1700X Eight-Core Processor         
Ram: 32696 MB, 
GPU Information:
  NVIDIA GeForce GTX 1080 Ti - 24.21.13.9764
Screen: 3840x2160
Temp Dir: C:\Users\James\AppData\Local\Temp\
Install Dir: C:\Program Files\HandBrake
Data Dir: C:\Users\James\AppData\Roaming\HandBrake Team\HandBrake\1.0.7.0

-------------------------------------------


# Starting Encode ...

[00:54:30] hb_init: starting libhb thread
[00:54:30] 1 job(s) to process
[00:54:30] json job:
{
  "Audio": {
    "AudioList": [
      {
        "DRC": 0.0,
        "Encoder": 1107296256,
        "Gain": 0.0,
        "Mixdown": -1,
        "NormalizeMixLevel": false,
        "Samplerate": 0,
        "Track": 0,
        "DitherMethod": 0
      },
      {
        "DRC": 0.0,
        "Encoder": 1074003968,
        "Gain": 0.0,
        "Mixdown": -1,
        "NormalizeMixLevel": false,
        "Samplerate": 0,
        "Track": 1,
        "DitherMethod": 0
      },
      {
        "Bitrate": 512,
        "DRC": 0.0,
        "Encoder": 65536,
        "Gain": 0.0,
        "Mixdown": 7,
        "NormalizeMixLevel": false,
        "Samplerate": 48000,
        "Track": 2,
        "DitherMethod": 0
      }
    ],
    "CopyMask": [
      1073807360,
      1073743872,
      1074003968,
      1073750016,
      1090519040,
      1074790400,
      1074266112,
      1107296256
    ],
    "FallbackEncoder": 2048
  },
  "Destination": {
    "ChapterList": [
      {
        "Name": "Chapter 1"
      },
      {
        "Name": "Chapter 2"
      },
      {
        "Name": "Chapter 3"
      },
      {
        "Name": "Chapter 4"
      },
      {
        "Name": "Chapter 5"
      },
      {
        "Name": "Chapter 6"
      },
      {
        "Name": "Chapter 7"
      },
      {
        "Name": "Chapter 8"
      },
      {
        "Name": "Chapter 9"
      },
      {
        "Name": "Chapter 10"
      },
      {
        "Name": "Chapter 11"
      },
      {
        "Name": "Chapter 12"
      },
      {
        "Name": "Chapter 13"
      },
      {
        "Name": "Chapter 14"
      },
      {
        "Name": "Chapter 15"
      },
      {
        "Name": "Chapter 16"
      }
    ],
    "ChapterMarkers": true,
    "File": "C:\\Users\\James\\Videos\\Blade Runner 2049.mkv",
    "Mp4Options": {
      "IpodAtom": false,
      "Mp4Optimize": false
    },
    "Mux": 2097152
  },
  "Filters": {
    "FilterList": [
      {
        "ID": 4,
        "Settings": {
          "mode": "7"
        }
      },
      {
        "ID": 3,
        "Settings": {
          "block-height": "16",
          "block-thresh": "40",
          "block-width": "16",
          "filter-mode": "2",
          "mode": "3",
          "motion-thresh": "1",
          "spatial-metric": "2",
          "spatial-thresh": "1"
        }
      },
      {
        "ID": 11,
        "Settings": {
          "crop-bottom": "280",
          "crop-left": "0",
          "crop-right": "0",
          "crop-top": "280",
          "height": "1600",
          "width": "3840"
        }
      },
      {
        "ID": 6,
        "Settings": {
          "mode": "0"
        }
      }
    ]
  },
  "PAR": {
    "Num": 1,
    "Den": 1
  },
  "Metadata": {},
  "SequenceID": 0,
  "Source": {
    "Angle": 1,
    "Range": {
      "Type": "chapter",
      "Start": 1,
      "End": 16
    },
    "Title": 1,
    "Path": "D:\\Blade Runner 2049.mkv"
  },
  "Subtitle": {
    "Search": {
      "Burn": true,
      "Default": false,
      "Enable": true,
      "Forced": true
    },
    "SubtitleList": []
  },
  "Video": {
    "Encoder": 4096,
    "Level": "auto",
    "TwoPass": false,
    "Turbo": false,
    "ColorMatrixCode": 0,
    "Options": "strong-intra-smoothing=0:rect=0",
    "Preset": "slow",
    "Profile": "main",
    "Quality": 24.0,
    "OpenCL": false,
    "HWDecode": false,
    "QSV": {
      "Decode": false,
      "AsyncDepth": 0
    }
  }
}
[00:54:30] CPU:
[00:54:30]  - logical processor count: 16
[00:54:30] Intel Quick Sync Video support: no
[00:54:30] hb_scan: path=D:\Blade Runner 2049.mkv, title_index=1
udfread ERROR: ECMA 167 Volume Recognition failed
src/libbluray/disc/disc.c:274: failed opening UDF image D:\Blade Runner 2049.mkv
src/libbluray/disc/disc.c:352: error opening file BDMV\index.bdmv
src/libbluray/disc/disc.c:352: error opening file BDMV\BACKUP\index.bdmv
[00:54:30] bd: not a bd - trying as a stream/file instead
libdvdnav: Using dvdnav version 5.0.1
libdvdread: Encrypted DVD support unavailable.
libdvdread:DVDOpenFileUDF:UDFFindFile /VIDEO_TS/VIDEO_TS.IFO failed
libdvdread:DVDOpenFileUDF:UDFFindFile /VIDEO_TS/VIDEO_TS.BUP failed
libdvdread: Can't open file VIDEO_TS.IFO.
libdvdnav: vm: failed to read VIDEO_TS.IFO
[00:54:30] dvd: not a dvd - trying as a stream/file instead
Input #0, matroska,webm, from 'D:\Blade Runner 2049.mkv':
  Metadata:
    title           : Blade Runner 2049
  Duration: 02:43:47.65, start: 0.000000, bitrate: N/A
    Chapter #0:0: start 0.000000, end 770.269500
    Metadata:
      title           : Chapter 01
    Chapter #0:1: start 770.269500, end 1423.213458
    Metadata:
      title           : Chapter 02
    Chapter #0:2: start 1423.213458, end 2234.982750
    Metadata:
      title           : Chapter 03
    Chapter #0:3: start 2234.982750, end 2584.331750
    Metadata:
      title           : Chapter 04
    Chapter #0:4: start 2584.331750, end 2978.600625
    Metadata:
      title           : Chapter 05
    Chapter #0:5: start 2978.600625, end 3529.651125
    Metadata:
      title           : Chapter 06
    Chapter #0:6: start 3529.651125, end 3864.735875
    Metadata:
      title           : Chapter 07
    Chapter #0:7: start 3864.735875, end 4561.348458
    Metadata:
      title           : Chapter 08
    Chapter #0:8: start 4561.348458, end 5126.579792
    Metadata:
      title           : Chapter 09
    Chapter #0:9: start 5126.579792, end 5789.158375
    Metadata:
      title           : Chapter 10
    Chapter #0:10: start 5789.158375, end 6668.870542
    Metadata:
      title           : Chapter 11
    Chapter #0:11: start 6668.870542, end 7310.886917
    Metadata:
      title           : Chapter 12
    Chapter #0:12: start 7310.886917, end 7734.476750
    Metadata:
      title           : Chapter 13
    Chapter #0:13: start 7734.476750, end 8216.416542
    Metadata:
      title           : Chapter 14
    Chapter #0:14: start 8216.416542, end 8881.122250
    Metadata:
      title           : Chapter 15
    Chapter #0:15: start 8881.122250, end 9827.651167
    Metadata:
      title           : Chapter 16
    Stream #0:0(eng): Video: hevc (Main 10)
      yuv420p10le, tv, bt2020nc/bt2020/smpte2084
      3840x2160 [PAR 1:1 DAR 16:9], PAR 1:1 DAR 16:9
      23.98 fps, 1k tbn
    Metadata:
      BPS-eng         : 58042717
      DURATION-eng    : 02:43:47.651166666
      NUMBER_OF_FRAMES-eng: 235628
      NUMBER_OF_BYTES-eng: 71302946859
      SOURCE_ID-eng   : 001011
      _STATISTICS_WRITING_APP-eng: MakeMKV v1.12.0 win(x64-release)
      _STATISTICS_WRITING_DATE_UTC-eng: 2018-05-24 02:38:03
      _STATISTICS_TAGS-eng: BPS DURATION NUMBER_OF_FRAMES NUMBER_OF_BYTES SOURCE_ID
    Stream #0:1(eng): Audio: truehd
      48000 Hz, 7.1, s32 (default)
    Metadata:
      title           : Surround 7.1
      BPS-eng         : 3710350
      DURATION-eng    : 02:43:47.651666666
      NUMBER_OF_FRAMES-eng: 11793182
      NUMBER_OF_BYTES-eng: 4558003154
      SOURCE_ID-eng   : 001100
      _STATISTICS_WRITING_APP-eng: MakeMKV v1.12.0 win(x64-release)
      _STATISTICS_WRITING_DATE_UTC-eng: 2018-05-24 02:38:03
      _STATISTICS_TAGS-eng: BPS DURATION NUMBER_OF_FRAMES NUMBER_OF_BYTES SOURCE_ID
    Stream #0:2(eng): Audio: dts (DTS-HD MA)
      48000 Hz, 5.1, fltp, 1536 kb/s
    Metadata:
      title           : Surround 5.1
      BPS-eng         : 3825888
      DURATION-eng    : 02:43:47.658666666
      NUMBER_OF_FRAMES-eng: 921343
      NUMBER_OF_BYTES-eng: 4699940548
      SOURCE_ID-eng   : 001101
      _STATISTICS_WRITING_APP-eng: MakeMKV v1.12.0 win(x64-release)
      _STATISTICS_WRITING_DATE_UTC-eng: 2018-05-24 02:38:03
      _STATISTICS_TAGS-eng: BPS DURATION NUMBER_OF_FRAMES NUMBER_OF_BYTES SOURCE_ID
    Stream #0:3(eng): Audio: dts (DTS)
      48000 Hz, 5.1, fltp, 1536 kb/s
    Metadata:
      title           : Surround 5.1
      BPS-eng         : 1509000
      DURATION-eng    : 02:43:47.658666666
      NUMBER_OF_FRAMES-eng: 921343
      NUMBER_OF_BYTES-eng: 1853742116
      SOURCE_ID-eng   : 001101
      _STATISTICS_WRITING_APP-eng: MakeMKV v1.12.0 win(x64-release)
      _STATISTICS_WRITING_DATE_UTC-eng: 2018-05-24 02:38:03
      _STATISTICS_TAGS-eng: BPS DURATION NUMBER_OF_FRAMES NUMBER_OF_BYTES SOURCE_ID
[00:54:30] scan: decoding previews for title 1
[00:54:30] scan: audio 0x1: truehd, rate=48000Hz, bitrate=1 English (TrueHD) (7.1 ch)
[00:54:30] scan: audio 0x2: dca, rate=48000Hz, bitrate=1536000 English (DTS-HD MA) (5.1 ch)
[00:54:30] scan: audio 0x3: dca, rate=48000Hz, bitrate=1536000 English (DTS) (5.1 ch)
[00:54:37] scan: 10 previews, 3840x2160, 23.976 fps, autocrop = 280/280/0/0, aspect 16:9, PAR 1:1
[00:54:37] libhb: scan thread found 1 valid title(s)
[00:54:37] Skipping subtitle scan.  No suitable subtitle tracks.
[00:54:37] starting job
[00:54:37] decomb filter thread started for segment 0
[00:54:37] decomb filter thread started for segment 2
[00:54:37] decomb filter thread started for segment 1
[00:54:37] decomb filter thread started for segment 3
[00:54:37] decomb filter thread started for segment 13
[00:54:37] decomb filter thread started for segment 5
[00:54:37] decomb check thread started for segment 3
[00:54:37] decomb check thread started for segment 6
[00:54:37] decomb filter thread started for segment 8
[00:54:37] decomb filter thread started for segment 7
[00:54:37] decomb filter thread started for segment 10
[00:54:37] decomb check thread started for segment 14
[00:54:37] decomb filter thread started for segment 12
[00:54:37] decomb filter thread started for segment 4
[00:54:37] decomb filter thread started for segment 14
[00:54:37] decomb filter thread started for segment 15
[00:54:37] decomb check thread started for segment 0
[00:54:37] decomb check thread started for segment 1
[00:54:37] mask filter thread started for segment 10
[00:54:37] mask filter thread started for segment 13
[00:54:37] decomb check thread started for segment 4
[00:54:37] decomb check thread started for segment 5
[00:54:37] decomb check thread started for segment 7
[00:54:37] decomb check thread started for segment 8
[00:54:37] mask erode thread started for segment 5
[00:54:37] decomb filter thread started for segment 9
[00:54:37] decomb check thread started for segment 10
[00:54:37] decomb check thread started for segment 11
[00:54:37] mask erode thread started for segment 12
[00:54:37] decomb check thread started for segment 13
[00:54:37] decomb filter thread started for segment 11
[00:54:37] decomb check thread started for segment 15
[00:54:37] mask filter thread started for segment 0
[00:54:37] mask filter thread started for segment 1
[00:54:37] mask dilate thread started for segment 7
[00:54:37] mask filter thread started for segment 3
[00:54:37] mask filter thread started for segment 4
[00:54:37] mask filter thread started for segment 5
[00:54:37] mask dilate thread started for segment 14
[00:54:37] mask filter thread started for segment 7
[00:54:37] yadif thread started for segment 1
[00:54:37] mask filter thread started for segment 9
[00:54:37] decomb check thread started for segment 2
[00:54:37] mask filter thread started for segment 11
[00:54:37] mask filter thread started for segment 12
[00:54:37] yadif thread started for segment 11
[00:54:37] mask filter thread started for segment 14
[00:54:37] mask filter thread started for segment 15
[00:54:37] work: track 3, dithering not supported by codec
[00:54:37] mask erode thread started for segment 0
[00:54:37] mask erode thread started for segment 1
[00:54:37] job configuration:
[00:54:37]  * source
[00:54:37]    + D:\Blade Runner 2049.mkv
[00:54:37]    + title 1, chapter(s) 1 to 16
[00:54:37]    + container: matroska,webm
[00:54:37]  * destination
[00:54:37]    + C:\Users\James\Videos\Blade Runner 2049.mkv
[00:54:37]    + container: Matroska (libavformat)
[00:54:37]      + chapter markers
[00:54:37]  * video track
[00:54:37] mask erode thread started for segment 2
[00:54:37]    + decoder: hevc
[00:54:37]    + filters
[00:54:37] mask erode thread started for segment 3
[00:54:37]      + Comb Detect (mode=3:spatial-metric=2:motion-thresh=1:spatial-thresh=1:filter-mode=2:block-thresh=40:block-width=16:block-height=16)
[00:54:37]      + Decomb (mode=39)
[00:54:37]      + Framerate Shaper (mode=0)
[00:54:37]        + frame rate: same as source (around 23.976 fps)
[00:54:37] mask erode thread started for segment 4
[00:54:37]      + Crop and Scale (width=3840:height=1600:crop-top=280:crop-bottom=280:crop-left=0:crop-right=0)
[00:54:37]        + source: 3840 * 2160, crop (280/280/0/0): 3840 * 1600, scale: 3840 * 1600
[00:54:37]    + Output geometry
[00:54:37]      + storage dimensions: 3840 x 1600
[00:54:37]      + pixel aspect ratio: 1 : 1
[00:54:37]      + display dimensions: 3840 x 1600
[00:54:37]    + encoder: H.265 (libx265)
[00:54:37]      + preset:  slow
[00:54:37]      + options: strong-intra-smoothing=0:rect=0
[00:54:37]      + profile: main
[00:54:37] decomb check thread started for segment 9
[00:54:37]      + quality: 24.00 (RF)
[00:54:37]  * audio track 1
[00:54:37]    + decoder: English (TrueHD) (7.1 ch) (track 1, id 0x1)
[00:54:37]      + samplerate: 48000 Hz
[00:54:37]    + TrueHD Passthru
[00:54:37]  * audio track 2
[00:54:37]    + decoder: English (DTS-HD MA) (5.1 ch) (track 2, id 0x2)
[00:54:37]      + bitrate: 1536 kbps, samplerate: 48000 Hz
[00:54:37]    + DTS-HD Passthru
[00:54:37]  * audio track 3
[00:54:37]    + decoder: English (DTS) (5.1 ch) (track 3, id 0x3)
[00:54:37]      + bitrate: 1536 kbps, samplerate: 48000 Hz
[00:54:37]    + mixdown: 5.1 Channels
[00:54:37]    + encoder: AAC (libavcodec)
[00:54:37]      + bitrate: 512 kbps, samplerate: 48000 Hz
[00:54:37] mask erode thread started for segment 6
[00:54:37] mask erode thread started for segment 7
[00:54:37] mask erode thread started for segment 8
[00:54:37] mask erode thread started for segment 9
[00:54:37] mask erode thread started for segment 10
[00:54:37] mask erode thread started for segment 11
[00:54:37] decomb check thread started for segment 12
[00:54:37] mask erode thread started for segment 13
[00:54:37] mask erode thread started for segment 14
[00:54:37] mask erode thread started for segment 15
[00:54:37] mask dilate thread started for segment 1
[00:54:37] mask dilate thread started for segment 0
[00:54:37] mask dilate thread started for segment 2
[00:54:37] mask dilate thread started for segment 3
[00:54:37] mask dilate thread started for segment 4
[00:54:37] mask dilate thread started for segment 5
[00:54:37] mask dilate thread started for segment 6
[00:54:37] mask filter thread started for segment 2
[00:54:37] mask dilate thread started for segment 8
[00:54:37] mask dilate thread started for segment 9
[00:54:37] mask dilate thread started for segment 10
[00:54:37] mask dilate thread started for segment 11
[00:54:37] mask dilate thread started for segment 12
[00:54:37] mask dilate thread started for segment 13
[00:54:37] mask filter thread started for segment 6
[00:54:37] mask dilate thread started for segment 15
[00:54:37] yadif thread started for segment 0
[00:54:37] mask filter thread started for segment 8
[00:54:37] yadif thread started for segment 2
[00:54:37] yadif thread started for segment 3
[00:54:37] yadif thread started for segment 4
[00:54:37] yadif thread started for segment 5
[00:54:37] yadif thread started for segment 6
[00:54:37] yadif thread started for segment 7
[00:54:37] yadif thread started for segment 8
[00:54:37] yadif thread started for segment 9
[00:54:37] yadif thread started for segment 10
[00:54:37] decomb filter thread started for segment 6
[00:54:37] yadif thread started for segment 12
[00:54:37] yadif thread started for segment 13
[00:54:37] yadif thread started for segment 14
[00:54:37] yadif thread started for segment 15
[00:54:37] sync: expecting 235627 video frames
x265 [info]: HEVC encoder version 2.1
x265 [info]: build info [Windows][GCC 5.3.1][64 bit] 8bit
x265 [info]: using cpu capabilities: MMX2 SSE2Fast SSSE3 SSE4.2 AVX AVX2 FMA3 LZCNT BMI2
x265 [info]: Main profile, Level-5 (Main tier)
x265 [info]: Thread pool created using 16 threads
x265 [info]: Slices                              : 1
x265 [info]: frame threads / pool features       : 5 / wpp(25 rows)
x265 [info]: Coding QT: max CU size, min CU size : 64 / 8
x265 [info]: Residual QT: max TU size, max depth : 32 / 1 inter / 1 intra
x265 [info]: ME / range / subpel / merge         : star / 57 / 3 / 3
x265 [info]: Keyframe min / max / scenecut       : 24 / 240 / 40
x265 [info]: Lookahead / bframes / badapt        : 25 / 4 / 2
x265 [info]: b-pyramid / weightp / weightb       : 1 / 1 / 0
x265 [info]: References / ref-limit  cu / depth  : 4 / on / on
x265 [info]: AQ: mode / str / qg-size / cu-tree  : 1 / 1.0 / 32 / 1
x265 [info]: Rate Control / qCompress            : CRF-24.0 / 0.60
x265 [info]: tools: limit-modes rd=4 psy-rd=2.00 rdoq=2 psy-rdoq=1.00 rskip
x265 [info]: tools: signhide tmvp lslices=4 deblock sao
[00:54:37] sync: first pts audio 0x1 is 0
[00:54:37] sync: first pts audio 0x2 is 0
[00:54:37] sync: first pts audio 0x3 is 0
[00:54:38] sync: first pts video is 0
[00:54:38] sync: "Chapter 1" (1) at frame 1 time 0
[01:50:25] sync: "Chapter 2" (2) at frame 18469 time 69324255
[02:44:24] sync: "Chapter 3" (3) at frame 34127 time 128100472
[03:49:08] sync: "Chapter 4" (4) at frame 53587 time 201148447
[04:16:31] sync: "Chapter 5" (5) at frame 61963 time 232589857
[04:49:42] sync: "Chapter 6" (6) at frame 71416 time 268074056
[05:31:13] sync: "Chapter 7" (7) at frame 84631 time 317679862
[06:05:17] sync: "Chapter 8" (8) at frame 92662 time 347826228
[06:55:38] sync: "Chapter 9" (9) at frame 109365 time 410525115
[07:35:23] sync: "Chapter 10" (10) at frame 122916 time 461392181
[08:26:16] sync: "Chapter 11" (11) at frame 138805 time 521035515
[09:36:21] sync: "Chapter 12" (12) at frame 159894 time 600198348
[10:24:11] sync: "Chapter 13" (13) at frame 175287 time 657979822
[10:59:48] sync: "Chapter 14" (14) at frame 185443 time 696102907
[11:48:52] sync: "Chapter 15" (15) at frame 196998 time 739477488
[13:04:26] sync: "Chapter 16" (16) at frame 212938 time 799312263
[13:56:26] reader: done. 1 scr changes
[13:56:42] work: average encoding speed for job is 5.021754 fps
[13:56:42] comb detect: heavy 3351 | light 1669 | uncombed 230608 | total 235628
[13:56:42] decomb: deinterlaced 3351 | blended 1669 | unfiltered 230608 | total 235628
[13:56:42] vfr: lost time: 0 (0 frames)
[13:56:42] vfr: gained time: 0 (0 frames) (0 not accounted for)
[13:56:42] truehd-decoder done: 11793182 frames, 0 decoder errors
[13:56:42] dca-decoder done: 921343 frames, 0 decoder errors
[13:56:42] dca-decoder done: 921343 frames, 0 decoder errors
[13:56:42] hevc-decoder done: 235628 frames, 0 decoder errors
[13:56:43] sync: got 235628 frames, 235627 expected
[13:56:43] sync: framerate min 23.981 fps, max 23.981 fps, avg 23.976 fps
x265 [info]: frame I:   1594, Avg QP:21.38  kb/s: 10920.20
x265 [info]: frame P:  50547, Avg QP:23.74  kb/s: 3183.95
x265 [info]: frame B: 183487, Avg QP:28.94  kb/s: 839.20
x265 [info]: Weighted P-Frames: Y:3.2% UV:1.9%
x265 [info]: consecutive B-frames: 4.3% 3.6% 3.5% 13.3% 75.4%
encoded 235628 frames in 46925.36s (5.02 fps), 1410.39 kb/s, Avg QP:27.77
[13:56:43] mux: track 0, 235628 frames, 1733545034 bytes, 1411.15 kbps, fifo 512
[13:56:43] mux: track 1, 11793182 frames, 4558003154 bytes, 3710.33 kbps, fifo 32768
[13:56:43] mux: track 2, 921343 frames, 4699940548 bytes, 3825.87 kbps, fifo 2048
[13:56:43] mux: track 3, 460672 frames, 625683850 bytes, 509.32 kbps, fifo 1024
[13:56:43] libhb: work result = 0

# Encode Completed ...


# Encode Stopped
Most recent video log:

Code: Select all

HandBrake 1.0.7 (2017040900) - 64bit
OS: Microsoft Windows NT 10.0.17134.0 - 64bit
CPU: AMD Ryzen 7 1700X Eight-Core Processor         
Ram: 32696 MB, 
GPU Information:
  NVIDIA GeForce GTX 1080 Ti - 24.21.13.9764
Screen: 3840x2160
Temp Dir: C:\Users\James\AppData\Local\Temp\
Install Dir: C:\Program Files\HandBrake
Data Dir: C:\Users\James\AppData\Roaming\HandBrake Team\HandBrake\1.0.7.0

-------------------------------------------


# Starting Encode ...

[00:54:30] hb_init: starting libhb thread
[00:54:30] 1 job(s) to process
[00:54:30] json job:
{
  "Audio": {
    "AudioList": [
      {
        "DRC": 0.0,
        "Encoder": 1107296256,
        "Gain": 0.0,
        "Mixdown": -1,
        "NormalizeMixLevel": false,
        "Samplerate": 0,
        "Track": 0,
        "DitherMethod": 0
      },
      {
        "DRC": 0.0,
        "Encoder": 1074003968,
        "Gain": 0.0,
        "Mixdown": -1,
        "NormalizeMixLevel": false,
        "Samplerate": 0,
        "Track": 1,
        "DitherMethod": 0
      },
      {
        "Bitrate": 512,
        "DRC": 0.0,
        "Encoder": 65536,
        "Gain": 0.0,
        "Mixdown": 7,
        "NormalizeMixLevel": false,
        "Samplerate": 48000,
        "Track": 2,
        "DitherMethod": 0
      }
    ],
    "CopyMask": [
      1073807360,
      1073743872,
      1074003968,
      1073750016,
      1090519040,
      1074790400,
      1074266112,
      1107296256
    ],
    "FallbackEncoder": 2048
  },
  "Destination": {
    "ChapterList": [
      {
        "Name": "Chapter 1"
      },
      {
        "Name": "Chapter 2"
      },
      {
        "Name": "Chapter 3"
      },
      {
        "Name": "Chapter 4"
      },
      {
        "Name": "Chapter 5"
      },
      {
        "Name": "Chapter 6"
      },
      {
        "Name": "Chapter 7"
      },
      {
        "Name": "Chapter 8"
      },
      {
        "Name": "Chapter 9"
      },
      {
        "Name": "Chapter 10"
      },
      {
        "Name": "Chapter 11"
      },
      {
        "Name": "Chapter 12"
      },
      {
        "Name": "Chapter 13"
      },
      {
        "Name": "Chapter 14"
      },
      {
        "Name": "Chapter 15"
      },
      {
        "Name": "Chapter 16"
      }
    ],
    "ChapterMarkers": true,
    "File": "C:\\Users\\James\\Videos\\Blade Runner 2049.mkv",
    "Mp4Options": {
      "IpodAtom": false,
      "Mp4Optimize": false
    },
    "Mux": 2097152
  },
  "Filters": {
    "FilterList": [
      {
        "ID": 4,
        "Settings": {
          "mode": "7"
        }
      },
      {
        "ID": 3,
        "Settings": {
          "block-height": "16",
          "block-thresh": "40",
          "block-width": "16",
          "filter-mode": "2",
          "mode": "3",
          "motion-thresh": "1",
          "spatial-metric": "2",
          "spatial-thresh": "1"
        }
      },
      {
        "ID": 11,
        "Settings": {
          "crop-bottom": "280",
          "crop-left": "0",
          "crop-right": "0",
          "crop-top": "280",
          "height": "1600",
          "width": "3840"
        }
      },
      {
        "ID": 6,
        "Settings": {
          "mode": "0"
        }
      }
    ]
  },
  "PAR": {
    "Num": 1,
    "Den": 1
  },
  "Metadata": {},
  "SequenceID": 0,
  "Source": {
    "Angle": 1,
    "Range": {
      "Type": "chapter",
      "Start": 1,
      "End": 16
    },
    "Title": 1,
    "Path": "D:\\Blade Runner 2049.mkv"
  },
  "Subtitle": {
    "Search": {
      "Burn": true,
      "Default": false,
      "Enable": true,
      "Forced": true
    },
    "SubtitleList": []
  },
  "Video": {
    "Encoder": 4096,
    "Level": "auto",
    "TwoPass": false,
    "Turbo": false,
    "ColorMatrixCode": 0,
    "Options": "strong-intra-smoothing=0:rect=0",
    "Preset": "slow",
    "Profile": "main",
    "Quality": 24.0,
    "OpenCL": false,
    "HWDecode": false,
    "QSV": {
      "Decode": false,
      "AsyncDepth": 0
    }
  }
}
[00:54:30] CPU:
[00:54:30]  - logical processor count: 16
[00:54:30] Intel Quick Sync Video support: no
[00:54:30] hb_scan: path=D:\Blade Runner 2049.mkv, title_index=1
udfread ERROR: ECMA 167 Volume Recognition failed
src/libbluray/disc/disc.c:274: failed opening UDF image D:\Blade Runner 2049.mkv
src/libbluray/disc/disc.c:352: error opening file BDMV\index.bdmv
src/libbluray/disc/disc.c:352: error opening file BDMV\BACKUP\index.bdmv
[00:54:30] bd: not a bd - trying as a stream/file instead
libdvdnav: Using dvdnav version 5.0.1
libdvdread: Encrypted DVD support unavailable.
libdvdread:DVDOpenFileUDF:UDFFindFile /VIDEO_TS/VIDEO_TS.IFO failed
libdvdread:DVDOpenFileUDF:UDFFindFile /VIDEO_TS/VIDEO_TS.BUP failed
libdvdread: Can't open file VIDEO_TS.IFO.
libdvdnav: vm: failed to read VIDEO_TS.IFO
[00:54:30] dvd: not a dvd - trying as a stream/file instead
Input #0, matroska,webm, from 'D:\Blade Runner 2049.mkv':
  Metadata:
    title           : Blade Runner 2049
  Duration: 02:43:47.65, start: 0.000000, bitrate: N/A
    Chapter #0:0: start 0.000000, end 770.269500
    Metadata:
      title           : Chapter 01
    Chapter #0:1: start 770.269500, end 1423.213458
    Metadata:
      title           : Chapter 02
    Chapter #0:2: start 1423.213458, end 2234.982750
    Metadata:
      title           : Chapter 03
    Chapter #0:3: start 2234.982750, end 2584.331750
    Metadata:
      title           : Chapter 04
    Chapter #0:4: start 2584.331750, end 2978.600625
    Metadata:
      title           : Chapter 05
    Chapter #0:5: start 2978.600625, end 3529.651125
    Metadata:
      title           : Chapter 06
    Chapter #0:6: start 3529.651125, end 3864.735875
    Metadata:
      title           : Chapter 07
    Chapter #0:7: start 3864.735875, end 4561.348458
    Metadata:
      title           : Chapter 08
    Chapter #0:8: start 4561.348458, end 5126.579792
    Metadata:
      title           : Chapter 09
    Chapter #0:9: start 5126.579792, end 5789.158375
    Metadata:
      title           : Chapter 10
    Chapter #0:10: start 5789.158375, end 6668.870542
    Metadata:
      title           : Chapter 11
    Chapter #0:11: start 6668.870542, end 7310.886917
    Metadata:
      title           : Chapter 12
    Chapter #0:12: start 7310.886917, end 7734.476750
    Metadata:
      title           : Chapter 13
    Chapter #0:13: start 7734.476750, end 8216.416542
    Metadata:
      title           : Chapter 14
    Chapter #0:14: start 8216.416542, end 8881.122250
    Metadata:
      title           : Chapter 15
    Chapter #0:15: start 8881.122250, end 9827.651167
    Metadata:
      title           : Chapter 16
    Stream #0:0(eng): Video: hevc (Main 10)
      yuv420p10le, tv, bt2020nc/bt2020/smpte2084
      3840x2160 [PAR 1:1 DAR 16:9], PAR 1:1 DAR 16:9
      23.98 fps, 1k tbn
    Metadata:
      BPS-eng         : 58042717
      DURATION-eng    : 02:43:47.651166666
      NUMBER_OF_FRAMES-eng: 235628
      NUMBER_OF_BYTES-eng: 71302946859
      SOURCE_ID-eng   : 001011
      _STATISTICS_WRITING_APP-eng: MakeMKV v1.12.0 win(x64-release)
      _STATISTICS_WRITING_DATE_UTC-eng: 2018-05-24 02:38:03
      _STATISTICS_TAGS-eng: BPS DURATION NUMBER_OF_FRAMES NUMBER_OF_BYTES SOURCE_ID
    Stream #0:1(eng): Audio: truehd
      48000 Hz, 7.1, s32 (default)
    Metadata:
      title           : Surround 7.1
      BPS-eng         : 3710350
      DURATION-eng    : 02:43:47.651666666
      NUMBER_OF_FRAMES-eng: 11793182
      NUMBER_OF_BYTES-eng: 4558003154
      SOURCE_ID-eng   : 001100
      _STATISTICS_WRITING_APP-eng: MakeMKV v1.12.0 win(x64-release)
      _STATISTICS_WRITING_DATE_UTC-eng: 2018-05-24 02:38:03
      _STATISTICS_TAGS-eng: BPS DURATION NUMBER_OF_FRAMES NUMBER_OF_BYTES SOURCE_ID
    Stream #0:2(eng): Audio: dts (DTS-HD MA)
      48000 Hz, 5.1, fltp, 1536 kb/s
    Metadata:
      title           : Surround 5.1
      BPS-eng         : 3825888
      DURATION-eng    : 02:43:47.658666666
      NUMBER_OF_FRAMES-eng: 921343
      NUMBER_OF_BYTES-eng: 4699940548
      SOURCE_ID-eng   : 001101
      _STATISTICS_WRITING_APP-eng: MakeMKV v1.12.0 win(x64-release)
      _STATISTICS_WRITING_DATE_UTC-eng: 2018-05-24 02:38:03
      _STATISTICS_TAGS-eng: BPS DURATION NUMBER_OF_FRAMES NUMBER_OF_BYTES SOURCE_ID
    Stream #0:3(eng): Audio: dts (DTS)
      48000 Hz, 5.1, fltp, 1536 kb/s
    Metadata:
      title           : Surround 5.1
      BPS-eng         : 1509000
      DURATION-eng    : 02:43:47.658666666
      NUMBER_OF_FRAMES-eng: 921343
      NUMBER_OF_BYTES-eng: 1853742116
      SOURCE_ID-eng   : 001101
      _STATISTICS_WRITING_APP-eng: MakeMKV v1.12.0 win(x64-release)
      _STATISTICS_WRITING_DATE_UTC-eng: 2018-05-24 02:38:03
      _STATISTICS_TAGS-eng: BPS DURATION NUMBER_OF_FRAMES NUMBER_OF_BYTES SOURCE_ID
[00:54:30] scan: decoding previews for title 1
[00:54:30] scan: audio 0x1: truehd, rate=48000Hz, bitrate=1 English (TrueHD) (7.1 ch)
[00:54:30] scan: audio 0x2: dca, rate=48000Hz, bitrate=1536000 English (DTS-HD MA) (5.1 ch)
[00:54:30] scan: audio 0x3: dca, rate=48000Hz, bitrate=1536000 English (DTS) (5.1 ch)
[00:54:37] scan: 10 previews, 3840x2160, 23.976 fps, autocrop = 280/280/0/0, aspect 16:9, PAR 1:1
[00:54:37] libhb: scan thread found 1 valid title(s)
[00:54:37] Skipping subtitle scan.  No suitable subtitle tracks.
[00:54:37] starting job
[00:54:37] decomb filter thread started for segment 0
[00:54:37] decomb filter thread started for segment 2
[00:54:37] decomb filter thread started for segment 1
[00:54:37] decomb filter thread started for segment 3
[00:54:37] decomb filter thread started for segment 13
[00:54:37] decomb filter thread started for segment 5
[00:54:37] decomb check thread started for segment 3
[00:54:37] decomb check thread started for segment 6
[00:54:37] decomb filter thread started for segment 8
[00:54:37] decomb filter thread started for segment 7
[00:54:37] decomb filter thread started for segment 10
[00:54:37] decomb check thread started for segment 14
[00:54:37] decomb filter thread started for segment 12
[00:54:37] decomb filter thread started for segment 4
[00:54:37] decomb filter thread started for segment 14
[00:54:37] decomb filter thread started for segment 15
[00:54:37] decomb check thread started for segment 0
[00:54:37] decomb check thread started for segment 1
[00:54:37] mask filter thread started for segment 10
[00:54:37] mask filter thread started for segment 13
[00:54:37] decomb check thread started for segment 4
[00:54:37] decomb check thread started for segment 5
[00:54:37] decomb check thread started for segment 7
[00:54:37] decomb check thread started for segment 8
[00:54:37] mask erode thread started for segment 5
[00:54:37] decomb filter thread started for segment 9
[00:54:37] decomb check thread started for segment 10
[00:54:37] decomb check thread started for segment 11
[00:54:37] mask erode thread started for segment 12
[00:54:37] decomb check thread started for segment 13
[00:54:37] decomb filter thread started for segment 11
[00:54:37] decomb check thread started for segment 15
[00:54:37] mask filter thread started for segment 0
[00:54:37] mask filter thread started for segment 1
[00:54:37] mask dilate thread started for segment 7
[00:54:37] mask filter thread started for segment 3
[00:54:37] mask filter thread started for segment 4
[00:54:37] mask filter thread started for segment 5
[00:54:37] mask dilate thread started for segment 14
[00:54:37] mask filter thread started for segment 7
[00:54:37] yadif thread started for segment 1
[00:54:37] mask filter thread started for segment 9
[00:54:37] decomb check thread started for segment 2
[00:54:37] mask filter thread started for segment 11
[00:54:37] mask filter thread started for segment 12
[00:54:37] yadif thread started for segment 11
[00:54:37] mask filter thread started for segment 14
[00:54:37] mask filter thread started for segment 15
[00:54:37] work: track 3, dithering not supported by codec
[00:54:37] mask erode thread started for segment 0
[00:54:37] mask erode thread started for segment 1
[00:54:37] job configuration:
[00:54:37]  * source
[00:54:37]    + D:\Blade Runner 2049.mkv
[00:54:37]    + title 1, chapter(s) 1 to 16
[00:54:37]    + container: matroska,webm
[00:54:37]  * destination
[00:54:37]    + C:\Users\James\Videos\Blade Runner 2049.mkv
[00:54:37]    + container: Matroska (libavformat)
[00:54:37]      + chapter markers
[00:54:37]  * video track
[00:54:37] mask erode thread started for segment 2
[00:54:37]    + decoder: hevc
[00:54:37]    + filters
[00:54:37] mask erode thread started for segment 3
[00:54:37]      + Comb Detect (mode=3:spatial-metric=2:motion-thresh=1:spatial-thresh=1:filter-mode=2:block-thresh=40:block-width=16:block-height=16)
[00:54:37]      + Decomb (mode=39)
[00:54:37]      + Framerate Shaper (mode=0)
[00:54:37]        + frame rate: same as source (around 23.976 fps)
[00:54:37] mask erode thread started for segment 4
[00:54:37]      + Crop and Scale (width=3840:height=1600:crop-top=280:crop-bottom=280:crop-left=0:crop-right=0)
[00:54:37]        + source: 3840 * 2160, crop (280/280/0/0): 3840 * 1600, scale: 3840 * 1600
[00:54:37]    + Output geometry
[00:54:37]      + storage dimensions: 3840 x 1600
[00:54:37]      + pixel aspect ratio: 1 : 1
[00:54:37]      + display dimensions: 3840 x 1600
[00:54:37]    + encoder: H.265 (libx265)
[00:54:37]      + preset:  slow
[00:54:37]      + options: strong-intra-smoothing=0:rect=0
[00:54:37]      + profile: main
[00:54:37] decomb check thread started for segment 9
[00:54:37]      + quality: 24.00 (RF)
[00:54:37]  * audio track 1
[00:54:37]    + decoder: English (TrueHD) (7.1 ch) (track 1, id 0x1)
[00:54:37]      + samplerate: 48000 Hz
[00:54:37]    + TrueHD Passthru
[00:54:37]  * audio track 2
[00:54:37]    + decoder: English (DTS-HD MA) (5.1 ch) (track 2, id 0x2)
[00:54:37]      + bitrate: 1536 kbps, samplerate: 48000 Hz
[00:54:37]    + DTS-HD Passthru
[00:54:37]  * audio track 3
[00:54:37]    + decoder: English (DTS) (5.1 ch) (track 3, id 0x3)
[00:54:37]      + bitrate: 1536 kbps, samplerate: 48000 Hz
[00:54:37]    + mixdown: 5.1 Channels
[00:54:37]    + encoder: AAC (libavcodec)
[00:54:37]      + bitrate: 512 kbps, samplerate: 48000 Hz
[00:54:37] mask erode thread started for segment 6
[00:54:37] mask erode thread started for segment 7
[00:54:37] mask erode thread started for segment 8
[00:54:37] mask erode thread started for segment 9
[00:54:37] mask erode thread started for segment 10
[00:54:37] mask erode thread started for segment 11
[00:54:37] decomb check thread started for segment 12
[00:54:37] mask erode thread started for segment 13
[00:54:37] mask erode thread started for segment 14
[00:54:37] mask erode thread started for segment 15
[00:54:37] mask dilate thread started for segment 1
[00:54:37] mask dilate thread started for segment 0
[00:54:37] mask dilate thread started for segment 2
[00:54:37] mask dilate thread started for segment 3
[00:54:37] mask dilate thread started for segment 4
[00:54:37] mask dilate thread started for segment 5
[00:54:37] mask dilate thread started for segment 6
[00:54:37] mask filter thread started for segment 2
[00:54:37] mask dilate thread started for segment 8
[00:54:37] mask dilate thread started for segment 9
[00:54:37] mask dilate thread started for segment 10
[00:54:37] mask dilate thread started for segment 11
[00:54:37] mask dilate thread started for segment 12
[00:54:37] mask dilate thread started for segment 13
[00:54:37] mask filter thread started for segment 6
[00:54:37] mask dilate thread started for segment 15
[00:54:37] yadif thread started for segment 0
[00:54:37] mask filter thread started for segment 8
[00:54:37] yadif thread started for segment 2
[00:54:37] yadif thread started for segment 3
[00:54:37] yadif thread started for segment 4
[00:54:37] yadif thread started for segment 5
[00:54:37] yadif thread started for segment 6
[00:54:37] yadif thread started for segment 7
[00:54:37] yadif thread started for segment 8
[00:54:37] yadif thread started for segment 9
[00:54:37] yadif thread started for segment 10
[00:54:37] decomb filter thread started for segment 6
[00:54:37] yadif thread started for segment 12
[00:54:37] yadif thread started for segment 13
[00:54:37] yadif thread started for segment 14
[00:54:37] yadif thread started for segment 15
[00:54:37] sync: expecting 235627 video frames
x265 [info]: HEVC encoder version 2.1
x265 [info]: build info [Windows][GCC 5.3.1][64 bit] 8bit
x265 [info]: using cpu capabilities: MMX2 SSE2Fast SSSE3 SSE4.2 AVX AVX2 FMA3 LZCNT BMI2
x265 [info]: Main profile, Level-5 (Main tier)
x265 [info]: Thread pool created using 16 threads
x265 [info]: Slices                              : 1
x265 [info]: frame threads / pool features       : 5 / wpp(25 rows)
x265 [info]: Coding QT: max CU size, min CU size : 64 / 8
x265 [info]: Residual QT: max TU size, max depth : 32 / 1 inter / 1 intra
x265 [info]: ME / range / subpel / merge         : star / 57 / 3 / 3
x265 [info]: Keyframe min / max / scenecut       : 24 / 240 / 40
x265 [info]: Lookahead / bframes / badapt        : 25 / 4 / 2
x265 [info]: b-pyramid / weightp / weightb       : 1 / 1 / 0
x265 [info]: References / ref-limit  cu / depth  : 4 / on / on
x265 [info]: AQ: mode / str / qg-size / cu-tree  : 1 / 1.0 / 32 / 1
x265 [info]: Rate Control / qCompress            : CRF-24.0 / 0.60
x265 [info]: tools: limit-modes rd=4 psy-rd=2.00 rdoq=2 psy-rdoq=1.00 rskip
x265 [info]: tools: signhide tmvp lslices=4 deblock sao
[00:54:37] sync: first pts audio 0x1 is 0
[00:54:37] sync: first pts audio 0x2 is 0
[00:54:37] sync: first pts audio 0x3 is 0
[00:54:38] sync: first pts video is 0
[00:54:38] sync: "Chapter 1" (1) at frame 1 time 0
[01:50:25] sync: "Chapter 2" (2) at frame 18469 time 69324255
[02:44:24] sync: "Chapter 3" (3) at frame 34127 time 128100472
[03:49:08] sync: "Chapter 4" (4) at frame 53587 time 201148447
[04:16:31] sync: "Chapter 5" (5) at frame 61963 time 232589857
[04:49:42] sync: "Chapter 6" (6) at frame 71416 time 268074056
[05:31:13] sync: "Chapter 7" (7) at frame 84631 time 317679862
[06:05:17] sync: "Chapter 8" (8) at frame 92662 time 347826228
[06:55:38] sync: "Chapter 9" (9) at frame 109365 time 410525115
[07:35:23] sync: "Chapter 10" (10) at frame 122916 time 461392181
[08:26:16] sync: "Chapter 11" (11) at frame 138805 time 521035515
[09:36:21] sync: "Chapter 12" (12) at frame 159894 time 600198348
[10:24:11] sync: "Chapter 13" (13) at frame 175287 time 657979822
[10:59:48] sync: "Chapter 14" (14) at frame 185443 time 696102907
[11:48:52] sync: "Chapter 15" (15) at frame 196998 time 739477488
[13:04:26] sync: "Chapter 16" (16) at frame 212938 time 799312263
[13:56:26] reader: done. 1 scr changes
[13:56:42] work: average encoding speed for job is 5.021754 fps
[13:56:42] comb detect: heavy 3351 | light 1669 | uncombed 230608 | total 235628
[13:56:42] decomb: deinterlaced 3351 | blended 1669 | unfiltered 230608 | total 235628
[13:56:42] vfr: lost time: 0 (0 frames)
[13:56:42] vfr: gained time: 0 (0 frames) (0 not accounted for)
[13:56:42] truehd-decoder done: 11793182 frames, 0 decoder errors
[13:56:42] dca-decoder done: 921343 frames, 0 decoder errors
[13:56:42] dca-decoder done: 921343 frames, 0 decoder errors
[13:56:42] hevc-decoder done: 235628 frames, 0 decoder errors
[13:56:43] sync: got 235628 frames, 235627 expected
[13:56:43] sync: framerate min 23.981 fps, max 23.981 fps, avg 23.976 fps
x265 [info]: frame I:   1594, Avg QP:21.38  kb/s: 10920.20
x265 [info]: frame P:  50547, Avg QP:23.74  kb/s: 3183.95
x265 [info]: frame B: 183487, Avg QP:28.94  kb/s: 839.20
x265 [info]: Weighted P-Frames: Y:3.2% UV:1.9%
x265 [info]: consecutive B-frames: 4.3% 3.6% 3.5% 13.3% 75.4%
encoded 235628 frames in 46925.36s (5.02 fps), 1410.39 kb/s, Avg QP:27.77
[13:56:43] mux: track 0, 235628 frames, 1733545034 bytes, 1411.15 kbps, fifo 512
[13:56:43] mux: track 1, 11793182 frames, 4558003154 bytes, 3710.33 kbps, fifo 32768
[13:56:43] mux: track 2, 921343 frames, 4699940548 bytes, 3825.87 kbps, fifo 2048
[13:56:43] mux: track 3, 460672 frames, 625683850 bytes, 509.32 kbps, fifo 1024
[13:56:43] libhb: work result = 0

# Encode Completed ...
Other 4K encode:

Code: Select all

HandBrake 1.0.7 (2017040900) - 64bit
OS: Microsoft Windows NT 10.0.17134.0 - 64bit
CPU: AMD Ryzen 7 1700X Eight-Core Processor         
Ram: 32696 MB, 
GPU Information:
  NVIDIA GeForce GTX 1080 Ti - 24.21.13.9764
Screen: 3840x2160
Temp Dir: C:\Users\James\AppData\Local\Temp\
Install Dir: C:\Program Files\HandBrake
Data Dir: C:\Users\James\AppData\Roaming\HandBrake Team\HandBrake\1.0.7.0

-------------------------------------------


# Starting Encode ...

[22:42:02] hb_init: starting libhb thread
[22:42:02] 1 job(s) to process
[22:42:02] json job:
{
  "Audio": {
    "AudioList": [
      {
        "DRC": 0.0,
        "Encoder": 1107296256,
        "Gain": 0.0,
        "Mixdown": -1,
        "NormalizeMixLevel": false,
        "Samplerate": 0,
        "Track": 0,
        "DitherMethod": 0
      },
      {
        "DRC": 0.0,
        "Encoder": 1074003968,
        "Gain": 0.0,
        "Mixdown": -1,
        "NormalizeMixLevel": false,
        "Samplerate": 0,
        "Track": 1,
        "DitherMethod": 0
      },
      {
        "Bitrate": 512,
        "DRC": 0.0,
        "Encoder": 65536,
        "Gain": 0.0,
        "Mixdown": 7,
        "NormalizeMixLevel": false,
        "Samplerate": 48000,
        "Track": 2,
        "DitherMethod": 0
      }
    ],
    "CopyMask": [
      1073807360,
      1073743872,
      1074003968,
      1073750016,
      1090519040,
      1074790400,
      1074266112,
      1107296256
    ],
    "FallbackEncoder": 2048
  },
  "Destination": {
    "ChapterList": [
      {
        "Name": "Chapter 1"
      },
      {
        "Name": "Chapter 2"
      },
      {
        "Name": "Chapter 3"
      },
      {
        "Name": "Chapter 4"
      },
      {
        "Name": "Chapter 5"
      },
      {
        "Name": "Chapter 6"
      },
      {
        "Name": "Chapter 7"
      },
      {
        "Name": "Chapter 8"
      },
      {
        "Name": "Chapter 9"
      },
      {
        "Name": "Chapter 10"
      },
      {
        "Name": "Chapter 11"
      },
      {
        "Name": "Chapter 12"
      },
      {
        "Name": "Chapter 13"
      },
      {
        "Name": "Chapter 14"
      }
    ],
    "ChapterMarkers": true,
    "File": "C:\\Users\\James\\Videos\\IT (2017).mkv",
    "Mp4Options": {
      "IpodAtom": false,
      "Mp4Optimize": false
    },
    "Mux": 2097152
  },
  "Filters": {
    "FilterList": [
      {
        "ID": 4,
        "Settings": {
          "mode": "7"
        }
      },
      {
        "ID": 3,
        "Settings": {
          "block-height": "16",
          "block-thresh": "40",
          "block-width": "16",
          "filter-mode": "2",
          "mode": "3",
          "motion-thresh": "1",
          "spatial-metric": "2",
          "spatial-thresh": "1"
        }
      },
      {
        "ID": 11,
        "Settings": {
          "crop-bottom": "280",
          "crop-left": "0",
          "crop-right": "0",
          "crop-top": "280",
          "height": "1600",
          "width": "3840"
        }
      },
      {
        "ID": 6,
        "Settings": {
          "mode": "0"
        }
      }
    ]
  },
  "PAR": {
    "Num": 1,
    "Den": 1
  },
  "Metadata": {},
  "SequenceID": 0,
  "Source": {
    "Angle": 1,
    "Range": {
      "Type": "chapter",
      "Start": 1,
      "End": 14
    },
    "Title": 1,
    "Path": "D:\\IT (2017).mkv"
  },
  "Subtitle": {
    "Search": {
      "Burn": true,
      "Default": false,
      "Enable": true,
      "Forced": true
    },
    "SubtitleList": []
  },
  "Video": {
    "Encoder": 4096,
    "Level": "auto",
    "TwoPass": false,
    "Turbo": false,
    "ColorMatrixCode": 0,
    "Options": "strong-intra-smoothing=0:rect=0",
    "Preset": "slow",
    "Profile": "main",
    "Quality": 24.0,
    "OpenCL": false,
    "HWDecode": false,
    "QSV": {
      "Decode": false,
      "AsyncDepth": 0
    }
  }
}
[22:42:02] CPU:
[22:42:02]  - logical processor count: 16
[22:42:02] Intel Quick Sync Video support: no
[22:42:02] hb_scan: path=D:\IT (2017).mkv, title_index=1
udfread ERROR: ECMA 167 Volume Recognition failed
src/libbluray/disc/disc.c:274: failed opening UDF image D:\IT (2017).mkv
src/libbluray/disc/disc.c:352: error opening file BDMV\index.bdmv
src/libbluray/disc/disc.c:352: error opening file BDMV\BACKUP\index.bdmv
[22:42:02] bd: not a bd - trying as a stream/file instead
libdvdnav: Using dvdnav version 5.0.1
libdvdread: Encrypted DVD support unavailable.
libdvdread:DVDOpenFileUDF:UDFFindFile /VIDEO_TS/VIDEO_TS.IFO failed
libdvdread:DVDOpenFileUDF:UDFFindFile /VIDEO_TS/VIDEO_TS.BUP failed
libdvdread: Can't open file VIDEO_TS.IFO.
libdvdnav: vm: failed to read VIDEO_TS.IFO
[22:42:02] dvd: not a dvd - trying as a stream/file instead
Input #0, matroska,webm, from 'D:\IT (2017).mkv':
  Metadata:
    title           : IT
  Duration: 02:14:42.40, start: 0.000000, bitrate: N/A
    Chapter #0:0: start 0.000000, end 563.479583
    Metadata:
      title           : Chapter 01
    Chapter #0:1: start 563.479583, end 1111.860750
    Metadata:
      title           : Chapter 02
    Chapter #0:2: start 1111.860750, end 1706.162792
    Metadata:
      title           : Chapter 03
    Chapter #0:3: start 1706.162792, end 2316.981333
    Metadata:
      title           : Chapter 04
    Chapter #0:4: start 2316.981333, end 2899.438208
    Metadata:
      title           : Chapter 05
    Chapter #0:5: start 2899.438208, end 3570.775542
    Metadata:
      title           : Chapter 06
    Chapter #0:6: start 3570.775542, end 4132.795333
    Metadata:
      title           : Chapter 07
    Chapter #0:7: start 4132.795333, end 4618.572292
    Metadata:
      title           : Chapter 08
    Chapter #0:8: start 4618.572292, end 5212.957750
    Metadata:
      title           : Chapter 09
    Chapter #0:9: start 5212.957750, end 5895.306083
    Metadata:
      title           : Chapter 10
    Chapter #0:10: start 5895.306083, end 6520.972792
    Metadata:
      title           : Chapter 11
    Chapter #0:11: start 6520.972792, end 7447.898792
    Metadata:
      title           : Chapter 12
    Chapter #0:12: start 7447.898792, end 7745.654583
    Metadata:
      title           : Chapter 13
    Chapter #0:13: start 7745.654583, end 8082.407667
    Metadata:
      title           : Chapter 14
    Stream #0:0(eng): Video: hevc (Main 10)
      yuv420p10le, tv, bt2020nc/bt2020/smpte2084
      3840x2160 [PAR 1:1 DAR 16:9], PAR 1:1 DAR 16:9
      23.98 fps, 1k tbn
    Metadata:
      BPS-eng         : 49939311
      DURATION-eng    : 02:14:42.407666666
      NUMBER_OF_FRAMES-eng: 193784
      NUMBER_OF_BYTES-eng: 50453729854
      SOURCE_ID-eng   : 001011
      _STATISTICS_WRITING_APP-eng: MakeMKV v1.12.0 win(x64-release)
      _STATISTICS_WRITING_DATE_UTC-eng: 2018-05-24 00:59:32
      _STATISTICS_TAGS-eng: BPS DURATION NUMBER_OF_FRAMES NUMBER_OF_BYTES SOURCE_ID
    Stream #0:1(eng): Audio: truehd
      48000 Hz, 7.1, s32 (default)
    Metadata:
      title           : Surround 7.1
      BPS-eng         : 3782843
      DURATION-eng    : 02:14:42.407500000
      NUMBER_OF_FRAMES-eng: 9698889
      NUMBER_OF_BYTES-eng: 3821810066
      SOURCE_ID-eng   : 001100
      _STATISTICS_WRITING_APP-eng: MakeMKV v1.12.0 win(x64-release)
      _STATISTICS_WRITING_DATE_UTC-eng: 2018-05-24 00:59:32
      _STATISTICS_TAGS-eng: BPS DURATION NUMBER_OF_FRAMES NUMBER_OF_BYTES SOURCE_ID
    Stream #0:2(eng): Audio: dts (DTS-HD MA)
      48000 Hz, 5.1, fltp, 1536 kb/s
    Metadata:
      title           : Surround 5.1
      BPS-eng         : 2273957
      DURATION-eng    : 02:14:42.410666666
      NUMBER_OF_FRAMES-eng: 757726
      NUMBER_OF_BYTES-eng: 2297382580
      SOURCE_ID-eng   : 001101
      _STATISTICS_WRITING_APP-eng: MakeMKV v1.12.0 win(x64-release)
      _STATISTICS_WRITING_DATE_UTC-eng: 2018-05-24 00:59:32
      _STATISTICS_TAGS-eng: BPS DURATION NUMBER_OF_FRAMES NUMBER_OF_BYTES SOURCE_ID
    Stream #0:3(eng): Audio: dts (DTS)
      48000 Hz, 5.1, fltp, 1536 kb/s
    Metadata:
      title           : Surround 5.1
      BPS-eng         : 1509000
      DURATION-eng    : 02:14:42.410666666
      NUMBER_OF_FRAMES-eng: 757726
      NUMBER_OF_BYTES-eng: 1524544712
      SOURCE_ID-eng   : 001101
      _STATISTICS_WRITING_APP-eng: MakeMKV v1.12.0 win(x64-release)
      _STATISTICS_WRITING_DATE_UTC-eng: 2018-05-24 00:59:32
      _STATISTICS_TAGS-eng: BPS DURATION NUMBER_OF_FRAMES NUMBER_OF_BYTES SOURCE_ID
[22:42:03] scan: decoding previews for title 1
[22:42:03] scan: audio 0x1: truehd, rate=48000Hz, bitrate=1 English (TrueHD) (7.1 ch)
[22:42:03] scan: audio 0x2: dca, rate=48000Hz, bitrate=1536000 English (DTS-HD MA) (5.1 ch)
[22:42:03] scan: audio 0x3: dca, rate=48000Hz, bitrate=1536000 English (DTS) (5.1 ch)
[22:42:12] scan: 10 previews, 3840x2160, 23.976 fps, autocrop = 280/280/0/0, aspect 16:9, PAR 1:1
[22:42:12] libhb: scan thread found 1 valid title(s)
[22:42:12] Skipping subtitle scan.  No suitable subtitle tracks.
[22:42:12] starting job
[22:42:12] decomb filter thread started for segment 0
[22:42:12] decomb filter thread started for segment 7
[22:42:12] decomb filter thread started for segment 14
[22:42:12] decomb filter thread started for segment 3
[22:42:12] decomb filter thread started for segment 4
[22:42:12] decomb check thread started for segment 6
[22:42:12] decomb filter thread started for segment 6
[22:42:12] decomb check thread started for segment 12
[22:42:12] decomb filter thread started for segment 1
[22:42:12] decomb filter thread started for segment 9
[22:42:12] decomb filter thread started for segment 10
[22:42:12] decomb filter thread started for segment 11
[22:42:12] decomb filter thread started for segment 12
[22:42:12] decomb filter thread started for segment 13
[22:42:12] decomb filter thread started for segment 2
[22:42:12] decomb filter thread started for segment 15
[22:42:12] decomb check thread started for segment 0
[22:42:12] decomb check thread started for segment 1
[22:42:12] decomb check thread started for segment 2
[22:42:12] decomb check thread started for segment 3
[22:42:12] decomb check thread started for segment 4
[22:42:12] decomb check thread started for segment 5
[22:42:12] mask dilate thread started for segment 4
[22:42:12] mask dilate thread started for segment 6
[22:42:12] decomb check thread started for segment 8
[22:42:12] mask dilate thread started for segment 10
[22:42:12] decomb check thread started for segment 10
[22:42:12] decomb check thread started for segment 11
[22:42:12] decomb filter thread started for segment 8
[22:42:12] decomb check thread started for segment 13
[22:42:12] decomb check thread started for segment 14
[22:42:12] decomb check thread started for segment 15
[22:42:12] mask filter thread started for segment 0
[22:42:12] yadif thread started for segment 13
[22:42:12] yadif thread started for segment 15
[22:42:12] work: track 3, dithering not supported by codec
[22:42:12] mask filter thread started for segment 3
[22:42:12] job configuration:
[22:42:12]  * source
[22:42:12]    + D:\IT (2017).mkv
[22:42:12]    + title 1, chapter(s) 1 to 14
[22:42:12]    + container: matroska,webm
[22:42:12]  * destination
[22:42:12]    + C:\Users\James\Videos\IT (2017).mkv
[22:42:12]    + container: Matroska (libavformat)
[22:42:12]      + chapter markers
[22:42:12]  * video track
[22:42:12]    + decoder: hevc
[22:42:12] mask filter thread started for segment 4
[22:42:12]    + filters
[22:42:12]      + Comb Detect (mode=3:spatial-metric=2:motion-thresh=1:spatial-thresh=1:filter-mode=2:block-thresh=40:block-width=16:block-height=16)
[22:42:12]      + Decomb (mode=39)
[22:42:12] mask filter thread started for segment 5
[22:42:12]      + Framerate Shaper (mode=0)
[22:42:12]        + frame rate: same as source (around 23.976 fps)
[22:42:12]      + Crop and Scale (width=3840:height=1600:crop-top=280:crop-bottom=280:crop-left=0:crop-right=0)
[22:42:12]        + source: 3840 * 2160, crop (280/280/0/0): 3840 * 1600, scale: 3840 * 1600
[22:42:12]    + Output geometry
[22:42:12]      + storage dimensions: 3840 x 1600
[22:42:12] mask filter thread started for segment 6
[22:42:12]      + pixel aspect ratio: 1 : 1
[22:42:12]      + display dimensions: 3840 x 1600
[22:42:12]    + encoder: H.265 (libx265)
[22:42:12]      + preset:  slow
[22:42:12]      + options: strong-intra-smoothing=0:rect=0
[22:42:12]      + profile: main
[22:42:12]      + quality: 24.00 (RF)
[22:42:12]  * audio track 1
[22:42:12]    + decoder: English (TrueHD) (7.1 ch) (track 1, id 0x1)
[22:42:12]      + samplerate: 48000 Hz
[22:42:12]    + TrueHD Passthru
[22:42:12]  * audio track 2
[22:42:12]    + decoder: English (DTS-HD MA) (5.1 ch) (track 2, id 0x2)
[22:42:12]      + bitrate: 1536 kbps, samplerate: 48000 Hz
[22:42:12]    + DTS-HD Passthru
[22:42:12]  * audio track 3
[22:42:12]    + decoder: English (DTS) (5.1 ch) (track 3, id 0x3)
[22:42:12]      + bitrate: 1536 kbps, samplerate: 48000 Hz
[22:42:12]    + mixdown: 5.1 Channels
[22:42:12]    + encoder: AAC (libavcodec)
[22:42:12] mask filter thread started for segment 7
[22:42:12]      + bitrate: 512 kbps, samplerate: 48000 Hz
[22:42:12] mask filter thread started for segment 8
[22:42:12] mask filter thread started for segment 9
[22:42:12] mask filter thread started for segment 10
[22:42:12] mask filter thread started for segment 11
[22:42:12] mask filter thread started for segment 12
[22:42:12] mask filter thread started for segment 13
[22:42:12] mask filter thread started for segment 14
[22:42:12] mask filter thread started for segment 15
[22:42:12] mask erode thread started for segment 0
[22:42:12] mask erode thread started for segment 1
[22:42:12] mask erode thread started for segment 2
[22:42:12] mask erode thread started for segment 3
[22:42:12] mask erode thread started for segment 4
[22:42:12] mask erode thread started for segment 5
[22:42:12] mask erode thread started for segment 6
[22:42:12] mask erode thread started for segment 7
[22:42:12] mask erode thread started for segment 8
[22:42:12] mask erode thread started for segment 9
[22:42:12] mask erode thread started for segment 10
[22:42:12] mask erode thread started for segment 11
[22:42:12] mask erode thread started for segment 12
[22:42:12] mask erode thread started for segment 13
[22:42:12] mask erode thread started for segment 14
[22:42:12] mask erode thread started for segment 15
[22:42:12] mask dilate thread started for segment 0
[22:42:12] mask dilate thread started for segment 1
[22:42:12] mask dilate thread started for segment 2
[22:42:12] mask dilate thread started for segment 3
[22:42:12] decomb filter thread started for segment 5
[22:42:12] mask dilate thread started for segment 5
[22:42:12] decomb check thread started for segment 7
[22:42:12] mask dilate thread started for segment 7
[22:42:12] mask dilate thread started for segment 8
[22:42:12] mask dilate thread started for segment 9
[22:42:12] decomb check thread started for segment 9
[22:42:12] mask dilate thread started for segment 11
[22:42:12] mask dilate thread started for segment 12
[22:42:12] mask dilate thread started for segment 13
[22:42:12] mask dilate thread started for segment 14
[22:42:12] mask dilate thread started for segment 15
[22:42:12] yadif thread started for segment 0
[22:42:12] yadif thread started for segment 1
[22:42:12] yadif thread started for segment 2
[22:42:12] yadif thread started for segment 3
[22:42:12] yadif thread started for segment 4
[22:42:12] yadif thread started for segment 5
[22:42:12] yadif thread started for segment 6
[22:42:12] yadif thread started for segment 7
[22:42:12] yadif thread started for segment 8
[22:42:12] yadif thread started for segment 9
[22:42:12] yadif thread started for segment 10
[22:42:12] yadif thread started for segment 11
[22:42:12] yadif thread started for segment 12
[22:42:12] mask filter thread started for segment 1
[22:42:12] yadif thread started for segment 14
[22:42:12] mask filter thread started for segment 2
[22:42:12] sync: expecting 193783 video frames
x265 [info]: HEVC encoder version 2.1
x265 [info]: build info [Windows][GCC 5.3.1][64 bit] 8bit
x265 [info]: using cpu capabilities: MMX2 SSE2Fast SSSE3 SSE4.2 AVX AVX2 FMA3 LZCNT BMI2
x265 [info]: Main profile, Level-5 (Main tier)
x265 [info]: Thread pool created using 16 threads
x265 [info]: Slices                              : 1
x265 [info]: frame threads / pool features       : 5 / wpp(25 rows)
x265 [info]: Coding QT: max CU size, min CU size : 64 / 8
x265 [info]: Residual QT: max TU size, max depth : 32 / 1 inter / 1 intra
x265 [info]: ME / range / subpel / merge         : star / 57 / 3 / 3
x265 [info]: Keyframe min / max / scenecut       : 24 / 240 / 40
x265 [info]: Lookahead / bframes / badapt        : 25 / 4 / 2
x265 [info]: b-pyramid / weightp / weightb       : 1 / 1 / 0
x265 [info]: References / ref-limit  cu / depth  : 4 / on / on
x265 [info]: AQ: mode / str / qg-size / cu-tree  : 1 / 1.0 / 32 / 1
x265 [info]: Rate Control / qCompress            : CRF-24.0 / 0.60
x265 [info]: tools: limit-modes rd=4 psy-rd=2.00 rdoq=2 psy-rdoq=1.00 rskip
x265 [info]: tools: signhide tmvp lslices=4 deblock sao
[22:42:12] sync: first pts audio 0x1 is 0
[22:42:12] sync: first pts audio 0x2 is 0
[22:42:12] sync: first pts audio 0x3 is 0
[22:42:13] sync: first pts video is 0
[22:42:13] sync: "Chapter 1" (1) at frame 1 time 0
[23:48:45] sync: "Chapter 2" (2) at frame 13511 time 50713162
[00:10:01] hb_init: starting libhb thread

 # Starting Scan ...

[00:10:01] CPU:
[00:10:01]  - logical processor count: 16
[00:10:01] Intel Quick Sync Video support: no
[00:10:01] hb_scan: path=D:\Blade Runner 2049.mkv, title_index=0
udfread ERROR: ECMA 167 Volume Recognition failed
src/libbluray/disc/disc.c:274: failed opening UDF image D:\Blade Runner 2049.mkv
src/libbluray/disc/disc.c:352: error opening file BDMV\index.bdmv
src/libbluray/disc/disc.c:352: error opening file BDMV\BACKUP\index.bdmv
[00:10:01] bd: not a bd - trying as a stream/file instead
libdvdnav: Using dvdnav version 5.0.1
libdvdread: Encrypted DVD support unavailable.
libdvdread:DVDOpenFileUDF:UDFFindFile /VIDEO_TS/VIDEO_TS.IFO failed
libdvdread:DVDOpenFileUDF:UDFFindFile /VIDEO_TS/VIDEO_TS.BUP failed
libdvdread: Can't open file VIDEO_TS.IFO.
libdvdnav: vm: failed to read VIDEO_TS.IFO
[00:10:01] dvd: not a dvd - trying as a stream/file instead
Input #0, matroska,webm, from 'D:\Blade Runner 2049.mkv':
  Metadata:
    title           : Blade Runner 2049
  Duration: 02:43:47.65, start: 0.000000, bitrate: N/A
    Chapter #0:0: start 0.000000, end 770.269500
    Metadata:
      title           : Chapter 01
    Chapter #0:1: start 770.269500, end 1423.213458
    Metadata:
      title           : Chapter 02
    Chapter #0:2: start 1423.213458, end 2234.982750
    Metadata:
      title           : Chapter 03
    Chapter #0:3: start 2234.982750, end 2584.331750
    Metadata:
      title           : Chapter 04
    Chapter #0:4: start 2584.331750, end 2978.600625
    Metadata:
      title           : Chapter 05
    Chapter #0:5: start 2978.600625, end 3529.651125
    Metadata:
      title           : Chapter 06
    Chapter #0:6: start 3529.651125, end 3864.735875
    Metadata:
      title           : Chapter 07
    Chapter #0:7: start 3864.735875, end 4561.348458
    Metadata:
      title           : Chapter 08
    Chapter #0:8: start 4561.348458, end 5126.579792
    Metadata:
      title           : Chapter 09
    Chapter #0:9: start 5126.579792, end 5789.158375
    Metadata:
      title           : Chapter 10
    Chapter #0:10: start 5789.158375, end 6668.870542
    Metadata:
      title           : Chapter 11
    Chapter #0:11: start 6668.870542, end 7310.886917
    Metadata:
      title           : Chapter 12
    Chapter #0:12: start 7310.886917, end 7734.476750
    Metadata:
      title           : Chapter 13
    Chapter #0:13: start 7734.476750, end 8216.416542
    Metadata:
      title           : Chapter 14
    Chapter #0:14: start 8216.416542, end 8881.122250
    Metadata:
      title           : Chapter 15
    Chapter #0:15: start 8881.122250, end 9827.651167
    Metadata:
      title           : Chapter 16
    Stream #0:0(eng): Video: hevc (Main 10)
      yuv420p10le, tv, bt2020nc/bt2020/smpte2084
      3840x2160 [PAR 1:1 DAR 16:9], PAR 1:1 DAR 16:9
      23.98 fps, 1k tbn
    Metadata:
      BPS-eng         : 58042717
      DURATION-eng    : 02:43:47.651166666
      NUMBER_OF_FRAMES-eng: 235628
      NUMBER_OF_BYTES-eng: 71302946859
      SOURCE_ID-eng   : 001011
      _STATISTICS_WRITING_APP-eng: MakeMKV v1.12.0 win(x64-release)
      _STATISTICS_WRITING_DATE_UTC-eng: 2018-05-24 02:38:03
      _STATISTICS_TAGS-eng: BPS DURATION NUMBER_OF_FRAMES NUMBER_OF_BYTES SOURCE_ID
    Stream #0:1(eng): Audio: truehd
      48000 Hz, 7.1, s32 (default)
    Metadata:
      title           : Surround 7.1
      BPS-eng         : 3710350
      DURATION-eng    : 02:43:47.651666666
      NUMBER_OF_FRAMES-eng: 11793182
      NUMBER_OF_BYTES-eng: 4558003154
      SOURCE_ID-eng   : 001100
      _STATISTICS_WRITING_APP-eng: MakeMKV v1.12.0 win(x64-release)
      _STATISTICS_WRITING_DATE_UTC-eng: 2018-05-24 02:38:03
      _STATISTICS_TAGS-eng: BPS DURATION NUMBER_OF_FRAMES NUMBER_OF_BYTES SOURCE_ID
    Stream #0:2(eng): Audio: dts (DTS-HD MA)
      48000 Hz, 5.1, fltp, 1536 kb/s
    Metadata:
      title           : Surround 5.1
      BPS-eng         : 3825888
      DURATION-eng    : 02:43:47.658666666
      NUMBER_OF_FRAMES-eng: 921343
      NUMBER_OF_BYTES-eng: 4699940548
      SOURCE_ID-eng   : 001101
      _STATISTICS_WRITING_APP-eng: MakeMKV v1.12.0 win(x64-release)
      _STATISTICS_WRITING_DATE_UTC-eng: 2018-05-24 02:38:03
      _STATISTICS_TAGS-eng: BPS DURATION NUMBER_OF_FRAMES NUMBER_OF_BYTES SOURCE_ID
    Stream #0:3(eng): Audio: dts (DTS)
      48000 Hz, 5.1, fltp, 1536 kb/s
    Metadata:
      title           : Surround 5.1
      BPS-eng         : 1509000
      DURATION-eng    : 02:43:47.658666666
      NUMBER_OF_FRAMES-eng: 921343
      NUMBER_OF_BYTES-eng: 1853742116
      SOURCE_ID-eng   : 001101
      _STATISTICS_WRITING_APP-eng: MakeMKV v1.12.0 win(x64-release)
      _STATISTICS_WRITING_DATE_UTC-eng: 2018-05-24 02:38:03
      _STATISTICS_TAGS-eng: BPS DURATION NUMBER_OF_FRAMES NUMBER_OF_BYTES SOURCE_ID
[00:10:01] scan: decoding previews for title 1
[00:10:01] scan: audio 0x1: truehd, rate=48000Hz, bitrate=1 English (TrueHD) (7.1 ch)
[00:10:01] scan: audio 0x2: dca, rate=48000Hz, bitrate=1536000 English (DTS-HD MA) (5.1 ch)
[00:10:01] scan: audio 0x3: dca, rate=48000Hz, bitrate=1536000 English (DTS) (5.1 ch)
[00:10:14] scan: 10 previews, 3840x2160, 23.976 fps, autocrop = 280/280/0/0, aspect 16:9, PAR 1:1
[00:10:14] libhb: scan thread found 1 valid title(s)

 # Scan Finished ...

[00:42:25] sync: "Chapter 3" (3) at frame 26659 time 100067467
[01:33:07] sync: "Chapter 4" (4) at frame 40908 time 153554651
[02:37:48] sync: "Chapter 5" (5) at frame 55561 time 208558350
[03:29:42] sync: "Chapter 6" (6) at frame 69526 time 260979468
[04:31:55] sync: "Chapter 7" (7) at frame 85614 time 321369798
[05:24:13] sync: "Chapter 8" (8) at frame 99097 time 371981610
[06:06:42] sync: "Chapter 9" (9) at frame 110741 time 415690275
[07:03:47] sync: "Chapter 10" (10) at frame 124987 time 469166197
[08:05:32] sync: "Chapter 11" (11) at frame 141355 time 530607577
[09:03:05] sync: "Chapter 12" (12) at frame 156348 time 586887551
[10:38:44] sync: "Chapter 13" (13) at frame 178572 time 670310891
[11:02:53] sync: "Chapter 14" (14) at frame 185711 time 697108912
[11:18:57] reader: done. 1 scr changes
[11:19:18] work: average encoding speed for job is 4.266442 fps
[11:19:18] comb detect: heavy 8746 | light 10137 | uncombed 174901 | total 193784
[11:19:18] decomb: deinterlaced 8746 | blended 10137 | unfiltered 174901 | total 193784
[11:19:18] vfr: lost time: 0 (0 frames)
[11:19:18] vfr: gained time: 0 (0 frames) (0 not accounted for)
[11:19:18] truehd-decoder done: 9698889 frames, 0 decoder errors
[11:19:18] dca-decoder done: 757726 frames, 0 decoder errors
[11:19:18] dca-decoder done: 757726 frames, 0 decoder errors
[11:19:18] hevc-decoder done: 193784 frames, 0 decoder errors
[11:19:18] sync: got 193784 frames, 193783 expected
[11:19:18] sync: framerate min 23.981 fps, max 23.981 fps, avg 23.976 fps
x265 [info]: frame I:   2016, Avg QP:22.10  kb/s: 15995.04
x265 [info]: frame P:  45018, Avg QP:23.87  kb/s: 6647.89
x265 [info]: frame B: 146750, Avg QP:28.37  kb/s: 1627.86
x265 [info]: Weighted P-Frames: Y:2.6% UV:1.4%
x265 [info]: consecutive B-frames: 6.3% 5.6% 4.0% 38.3% 45.9%
encoded 193784 frames in 45426.40s (4.27 fps), 2943.53 kb/s, Avg QP:27.26
[11:19:19] mux: track 0, 193784 frames, 2974625105 bytes, 2944.28 kbps, fifo 512
[11:19:19] mux: track 1, 9698889 frames, 3821810066 bytes, 3782.82 kbps, fifo 32768
[11:19:19] mux: track 2, 757726 frames, 2297382580 bytes, 2273.95 kbps, fifo 2048
[11:19:19] mux: track 3, 378863 frames, 517533986 bytes, 512.25 kbps, fifo 1024
[11:19:19] libhb: work result = 0

# Encode Completed ...
I notice that the log says version "HandBrake 1.0.7 (2017040900) - 64bit" which is not correct. The log listed as "Other 4K encode:" was done with 1.0.7, but the "Activity Log" and "Most recent video log:" were done using 1.1.0 (2018040700) 64Bit. It's probably not a big deal, but just wanted to put that out there.

Thanks

User avatar
s55
HandBrake Team
Posts: 9077
Joined: Sun Dec 24, 2006 1:05 pm

Re: 4K encode question

Post by s55 » Sat May 26, 2018 6:30 pm

Your logs were all most defiantly 1.0.7, not 1.1.0. Not that it'll make a huge difference in this case. You'll still want to go re-install the latest version.

Encode Framerates are about right for the Hardware + settings + content.

You'll get a minor boost by turning off decomb/interlace detection on future encodes.

4K is just compute intensive, h.265 is compute intensive and you've chosen "slow" as the preset for the encoder. So it's not a stretch that it's slow ;)

deathtical
Posts: 69
Joined: Tue May 01, 2012 3:06 pm

Re: 4K encode question

Post by deathtical » Sat May 26, 2018 7:35 pm

OK. I did an upgrade from 1.0.7 to 1.1.0 so maybe that's why the logs still say 1.0.7. Anyway, I took the Roku 2160p60 preset and chnaged the codec to x264_10bit and it says it will take about 4ish hours to complete. I can live with that. Plus, my Roku doesn't seem to recognize the 4k files over my network, but sees all my x264 files just fine. That may be my best option for now. Will update once I have one.

Thanks

Woodstock
Veteran User
Posts: 2540
Joined: Tue Aug 27, 2013 6:39 am

Re: 4K encode question

Post by Woodstock » Sat May 26, 2018 8:16 pm

If the update completed, the logs should say 1.1.0.

Did you perhaps install 1.1 along side 1.0? That is also possible to do (different directories, of course), but you then have to be sure which one you're using when you start the GUI.

Does the Roku not see them, or refuse to play the h265 encodes? Your network may not show it MKV files.... I've run into that when using DLNA networking, rather than SMB networking.

User avatar
BradleyS
Moderator
Posts: 1277
Joined: Thu Aug 09, 2007 12:16 pm

Re: 4K encode question

Post by BradleyS » Sat May 26, 2018 8:27 pm

Roku only officially supports 2160p in H.265/HEVC codec.

deathtical
Posts: 69
Joined: Tue May 01, 2012 3:06 pm

Re: 4K encode question

Post by deathtical » Sun May 27, 2018 4:08 am

Yes, unfortunately, Roku only supports DLNA shares. Wish it supported SMB or CIFS as that would have made this a lot simpler. As far as the 2160p files and Roku, it does not see either of the files i made regardless of codec. Have tried both x264_10bit and x265 2160p and it won't see any of those. It sees all the ones I've done using Roku 1080p30. Only thing I changed for that profile is the audio bit rate and the FPS to "same as source". The downside is that it's not consistent with playing them. It plays some files just file and others the audio won't play. Same files work fine on my Kodi box. That part isn't really why I'm here though. Mainly just want to encode my 4Ks in away to preserve the most picture quality and in a reasonable amount of time.

Thanks

Post Reply