DTS-HD Passthru failing on one title

HandBrake for Windows support
Forum rules
An Activity Log is required for support requests. Please read How-to get an activity log? for details on how and why this should be provided.
Post Reply
ckronengold
Posts: 37
Joined: Tue Jan 08, 2013 8:31 am

DTS-HD Passthru failing on one title

Post by ckronengold » Sun May 24, 2015 8:36 pm

Longtime HB user, and normally have no problems. Using HB to archive my bluray library for use across devices.

Today, though, I ran into a bug with a particular title (I presume) since its the same pre-set I always use.

Using DTS-HD passthru on Wreck-It Ralph, I end up with the lossy DTS audio track.

Code: Select all

HandBrake 0.10.0.6534 - 64bit Version
OS: Microsoft Windows NT 6.1.7601 Service Pack 1 - 64bit
CPU: Intel(R) Core(TM) i5-3570K CPU @ 3.40GHz
Ram: 16214 MB, 
GPU Information:
  Intel(R) HD Graphics 4000 - 10.18.10.3496
Screen: 1440x900
Temp Dir: C:\Users\XXXXXX\AppData\Local\Temp\
Install Dir: C:\Program Files\Handbrake
Data Dir: C:\Users\XXXXXXX\AppData\Roaming\HandBrake\HandBrake\0.10.0.6534

-------------------------------------------

CLI Query:  -i "D:\Wreck-It_Ralph.mkv" -t 1 --angle 1 -c 1-16 -o "G:\Wreck-it Ralph(RF20dtshd).mkv"  -f mkv  -w 1920 --crop 138:138:0:0 --loose-anamorphic  --modulus 2 -e x264 -q 20 -r 30 --pfr -a 1,2 -E copy:dtshd,av_aac -6 none,dpl2 -R Auto,48 -B 0,320 -D 0,0 --gain 0,0 --audio-fallback ac3 --encoder-level="3.1"  --encoder-profile=main  --verbose=1

[14:27:56] hb_init: starting libhb thread
HandBrake 0.10.0 (2014112200) - MinGW x86_64 - https://handbrake.fr
4 CPUs detected
Opening D:\Wreck-It_Ralph.mkv...
[14:27:56] CPU: Intel(R) Core(TM) i5-3570K CPU @ 3.40GHz
[14:27:56]  - Intel microarchitecture Ivy Bridge
[14:27:56]  - logical processor count: 4
[14:27:57] OpenCL device #1: Intel(R) Corporation Intel(R) HD Graphics 4000
[14:27:57]  - OpenCL version: 1.2 
[14:27:57]  - driver version: 10.18.10.3496
[14:27:57]  - device type:    GPU
[14:27:57]  - supported:      no
[14:27:57] Intel Quick Sync Video support: yes
[14:27:57]  - Intel Media SDK hardware: API 1.8 (minimum: 1.3)
[14:27:57]  - H.264 encoder: yes
[14:27:57]     - preferred implementation: hardware (any)
[14:27:57]  - H.265 encoder: no
[14:27:57] hb_scan: path=D:\Wreck-It_Ralph.mkv, title_index=1
libbluray/bdnav/index_parse.c:162: indx_parse(): error opening D:\Wreck-It_Ralph.mkv/BDMV/index.bdmv
libbluray/bdnav/index_parse.c:162: indx_parse(): error opening D:\Wreck-It_Ralph.mkv/BDMV/BACKUP/index.bdmv
libbluray/bluray.c:2182: nav_get_title_list(D:\Wreck-It_Ralph.mkv) failed
[14:27:57] bd: not a bd - trying as a stream/file instead
libdvdnav: Using dvdnav version 5.0.1
libdvdread: Encrypted DVD support unavailable.
libdvdread:DVDOpenFileUDF:UDFFindFile /VIDEO_TS/VIDEO_TS.IFO failed
libdvdread:DVDOpenFileUDF:UDFFindFile /VIDEO_TS/VIDEO_TS.BUP failed
libdvdread: Can't open file VIDEO_TS.IFO.
libdvdnav: vm: failed to read VIDEO_TS.IFO
[14:27:57] dvd: not a dvd - trying as a stream/file instead
Input #0, matroska,webm, from 'D:\Wreck-It_Ralph.mkv':
  Metadata:
    title           : Wreck-It Ralph
  Duration: 01:41:13.52, start: 0.000000, bitrate: N/A
    Chapter #0.0: start 0.000000, end 432.140042
    Metadata:
      title           : Chapter 01
    Chapter #0.1: start 432.140042, end 994.910583
    Metadata:
      title           : Chapter 02
    Chapter #0.2: start 994.910583, end 1627.500875
    Metadata:
      title           : Chapter 03
    Chapter #0.3: start 1627.500875, end 2245.952042
    Metadata:
      title           : Chapter 04
    Chapter #0.4: start 2245.952042, end 2686.684000
    Metadata:
      title           : Chapter 05
    Chapter #0.5: start 2686.684000, end 2925.130542
    Metadata:
      title           : Chapter 06
    Chapter #0.6: start 2925.130542, end 3096.009583
    Metadata:
      title           : Chapter 07
    Chapter #0.7: start 3096.009583, end 3536.032500
    Metadata:
      title           : Chapter 08
    Chapter #0.8: start 3536.032500, end 4147.893750
    Metadata:
      title           : Chapter 09
    Chapter #0.9: start 4147.893750, end 4419.623542
    Metadata:
      title           : Chapter 10
    Chapter #0.10: start 4419.623542, end 4556.802250
    Metadata:
      title           : Chapter 11
    Chapter #0.11: start 4556.802250, end 4732.978250
    Metadata:
      title           : Chapter 12
    Chapter #0.12: start 4732.978250, end 4913.742167
    Metadata:
      title           : Chapter 13
    Chapter #0.13: start 4913.742167, end 5245.365125
    Metadata:
      title           : Chapter 14
    Chapter #0.14: start 5245.365125, end 5590.543292
    Metadata:
      title           : Chapter 15
    Chapter #0.15: start 5590.543292, end 6073.525792
    Metadata:
      title           : Chapter 16
    Stream #0.0(eng): Video: h264 (High), yuv420p, 1920x1080 [PAR 1:1 DAR 16:9], 23.98 fps, 1k tbn, 47.95 tbc
    Stream #0.1(eng): Audio: dca (DTS-HD MA), 48000 Hz, 5.1, fltp, 1536 kb/s (default)
    Metadata:
      title           : Surround 7.1
    Stream #0.2(eng): Audio: dca (DTS), 48000 Hz, 5.1, fltp, 1536 kb/s
    Metadata:
      title           : Surround 5.1
    Stream #0.3(eng): Subtitle: pgssub
    Stream #0.4(eng): Subtitle: pgssub
[14:27:57] scan: decoding previews for title 1
[14:27:57] scan: audio 0x1: dca, rate=48000Hz, bitrate=1536000 English (DTS-HD MA) (5.1 ch)
[14:27:57] scan: audio 0x2: dca, rate=48000Hz, bitrate=1536000 English (DTS) (5.1 ch)
Scanning title 1 of 1, preview 2, 20.00 %
Scanning title 1 of 1, preview 5, 50.00 %
Scanning title 1 of 1, preview 6, 60.00 %
Scanning title 1 of 1, preview 8, 80.00 %
Scanning title 1 of 1, preview 10, 100.00 %[14:27:58] scan: 10 previews, 1920x1080, 23.976 fps, autocrop = 138/138/0/0, aspect 16:9, PAR 1:1
[14:27:58] libhb: scan thread found 1 valid title(s)
+ title 1:
  + stream: D:\Wreck-It_Ralph.mkv
  + duration: 01:41:13
  + size: 1920x1080, pixel aspect: 1/1, display aspect: 1.78, 23.976 fps
  + autocrop: 138/138/0/0
  + support opencl: no
  + support hwd: yes
  + chapters:
    + 1: cells 0->0, 0 blocks, duration 00:07:12
    + 2: cells 0->0, 0 blocks, duration 00:09:23
    + 3: cells 0->0, 0 blocks, duration 00:10:33
    + 4: cells 0->0, 0 blocks, duration 00:10:18
    + 5: cells 0->0, 0 blocks, duration 00:07:21
    + 6: cells 0->0, 0 blocks, duration 00:03:58
    + 7: cells 0->0, 0 blocks, duration 00:02:51
    + 8: cells 0->0, 0 blocks, duration 00:07:20
    + 9: cells 0->0, 0 blocks, duration 00:10:12
    + 10: cells 0->0, 0 blocks, duration 00:04:32
    + 11: cells 0->0, 0 blocks, duration 00:02:17
    + 12: cells 0->0, 0 blocks, duration 00:02:56
    + 13: cells 0->0, 0 blocks, duration 00:03:01
    + 14: cells 0->0, 0 blocks, duration 00:05:32
    + 15: cells 0->0, 0 blocks, duration 00:05:45
    + 16: cells 0->0, 0 blocks, duration 00:08:03
  + audio tracks:
    + 1, English (DTS-HD MA) (5.1 ch) (iso639-2: eng)
    + 2, English (DTS) (5.1 ch) (iso639-2: eng), 48000Hz, 1536000bps
  + subtitle tracks:
    + 1, English (iso639-2: eng) (Bitmap)(PGS)
    + 2, English (iso639-2: eng) (Bitmap)(PGS)
[14:27:58] 1 job(s) to process
[14:27:58] starting job
[14:27:58] sync: expecting 145618 video frames
[14:27:58] job configuration:
[14:27:58]  * source
[14:27:58]    + D:\Wreck-It_Ralph.mkv
[14:27:58]    + title 1, chapter(s) 1 to 16
[14:27:58]    + container: matroska,webm
[14:27:58]  * destination
[14:27:58]    + G:\Wreck-it Ralph(RF20dtshd).mkv
[14:27:58]    + container: Matroska (libavformat)
[14:27:58]  * video track
[14:27:58]    + decoder: h264
[14:27:58]    + filters
[14:27:58]      + Framerate Shaper (2:27000000:900000)
[14:27:58]        + frame rate: 23.976 fps -> peak rate limited to 30.000 fps
[14:27:58]      + Crop and Scale (1920:804:138:138:0:0)
[14:27:58]        + source: 1920 * 1080, crop (138/138/0/0): 1920 * 804, scale: 1920 * 804
[14:27:58]    + loose anamorphic
[14:27:58]      + storage dimensions: 1920 * 804, mod 2
[14:27:58]      + pixel aspect ratio: 1 / 1
[14:27:58]      + display dimensions: 1920 * 804
[14:27:58]    + encoder: H.264 (libx264)
[14:27:58]      + profile: main
[14:27:58]      + level:   3.1
[14:27:58]      + quality: 20.00 (RF)
[14:27:58]  * audio track 1
[14:27:58]    + decoder: English (DTS-HD MA) (5.1 ch) (track 1, id 0x1)
[14:27:58]      + bitrate: 1536 kbps, samplerate: 48000 Hz
[14:27:58]    + DTS-HD Passthru
[14:27:58]  * audio track 2
[14:27:58]    + decoder: English (DTS) (5.1 ch) (track 2, id 0x2)
[14:27:58]      + bitrate: 1536 kbps, samplerate: 48000 Hz
[14:27:58]    + mixdown: Dolby Pro Logic II
[14:27:58]    + encoder: AAC (libavcodec)
[14:27:58]      + bitrate: 320 kbps, samplerate: 48000 Hz
[14:27:58] reader: first SCR 0 id 0x0 DTS 0
[14:27:58] encx264: min-keyint: 24, keyint: 240
[14:27:58] encx264: encoding at constant RF 20.000000
[14:27:58] hb_apply_h264_level [warning]: frame size (1920x816, 6120 macroblocks) too high for level 3.1 (max. 3600 macroblocks)
[14:27:58] encx264: unparsed options: level=3.1:ref=2:b-pyramid=none:8x8dct=0:vbv-bufsize=14000:vbv-maxrate=14000
x264 [info]: using SAR=1/1
x264 [warning]: frame MB size (120x51) > level limit (3600)
x264 [warning]: MB rate (146733) > level limit (108000)
x264 [info]: using cpu capabilities: MMX2 SSE2Fast SSSE3 SSE4.2 AVX
x264 [info]: profile Main, level 3.1
[14:32:43] h264: "Chapter 2" (2) at frame 10370 time 38896380
[dca @ 0000000004c9a7c0] Overread auxiliary data by 32 bits
[14:39:02] h264: "Chapter 3" (3) at frame 23862 time 89541990
[dca @ 0000000004c9abe0] Overread auxiliary data by 32 bits
[dca @ 0000000004c9abe0] error decoding block
[dca @ 0000000004c9a7c0] Overread auxiliary data by 32 bits
[dca @ 0000000004c9a7c0] error decoding block
[dca @ 0000000004c9abe0] Overread auxiliary data by 32 bits
[dca @ 0000000004c9abe0] error decoding block
[dca @ 0000000004c9a7c0] Overread auxiliary data by 32 bits
[dca @ 0000000004c9a7c0] error decoding block
[dca @ 0000000004c9abe0] Overread auxiliary data by 32 bits
[dca @ 0000000004c9a7c0] Overread auxiliary data by 32 bits
[dca @ 0000000004c9abe0] error decoding block
[dca @ 0000000004c9a7c0] error decoding block
[14:47:20] h264: "Chapter 4" (4) at frame 39029 time 146475090
[14:54:30] h264: "Chapter 5" (5) at frame 53858 time 202139460
[14:59:02] h264: "Chapter 6" (6) at frame 64424 time 241801560
[15:02:01] h264: "Chapter 7" (7) at frame 70141 time 263261790
[15:03:41] h264: "Chapter 8" (8) at frame 74238 time 278640900
[dca @ 0000000004c9abe0] Overread auxiliary data by 32 bits
[dca @ 0000000004c9a7c0] Overread auxiliary data by 32 bits
[dca @ 0000000004c9abe0] error decoding block
[dca @ 0000000004c9a7c0] error decoding block
[15:08:33] h264: "Chapter 9" (9) at frame 84788 time 318242970
[dca @ 0000000004c9abe0] Overread auxiliary data by 32 bits
[dca @ 0000000004c9a7c0] Overread auxiliary data by 32 bits
[dca @ 0000000004c9a7c0] error decoding block
[dca @ 0000000004c9abe0] error decoding block
[15:15:01] h264: "Chapter 10" (10) at frame 99458 time 373310460
[15:17:36] h264: "Chapter 11" (11) at frame 105973 time 397766160
[15:18:57] h264: "Chapter 12" (12) at frame 109263 time 410115960
[15:21:23] h264: "Chapter 13" (13) at frame 113487 time 425971800
[dca @ 0000000004c9abe0] Overread auxiliary data by 32 bits
[dca @ 0000000004c9abe0] error decoding block
[15:22:03] sync: adding 72 ms of silence to audio 0x2  start 430904430, next 430897920
[dca @ 0000000004c9a7c0] Overread auxiliary data by 32 bits
[dca @ 0000000004c9a7c0] error decoding block
[15:22:03] sync: audio gap 72 ms. Skipping frames. Audio 0x1  start 430904430, next 430897920
[15:22:03] sync: video time didn't advance - dropped 1 frames (delta 30 ms, current 430667730, next 430668780, dur 1050)
[15:22:03] sync: audio 0x2 time went backwards 69 ms, dropped 6 frames (start 430902960, next 430909230)
[15:23:59] h264: "Chapter 14" (14) at frame 117821 time 442240560
[15:28:30] h264: "Chapter 15" (15) at frame 125772 time 472086630
[15:32:08] h264: "Chapter 16" (16) at frame 134048 time 503152650
[dca @ 0000000004c9a7c0] Overread auxiliary data by 32 bits
[dca @ 0000000004c9abe0] Overread auxiliary data by 32 bits
[dca @ 0000000004c9a7c0] error decoding block
[dca @ 0000000004c9abe0] error decoding block
[15:37:24] reader: done. 1 scr changes
[15:37:27] work: average encoding speed for job is 34.935303 fps
[15:37:27] sync: got 145618 frames, 145618 expected
[15:37:27] render: 145618 frames output, 0 dropped and 0 duped for CFR/PFR
[15:37:27] render: lost time: 0 (0 frames)
[15:37:27] render: gained time: 0 (0 frames) (0 not accounted for)
[15:37:27] h264-decoder done: 145619 frames, 0 decoder errors, 0 drops
x264 [info]: frame I:2160  Avg QP:16.30  size:157713
x264 [info]: frame P:61677 Avg QP:19.70  size: 34666
x264 [info]: frame B:81781 Avg QP:22.51  size:  6920
x264 [info]: consecutive B-frames: 18.6% 16.8%  8.1% 56.5%
x264 [info]: mb I  I16..4: 32.0%  0.0% 68.0%
x264 [info]: mb P  I16..4:  6.2%  0.0%  7.6%  P16..4: 36.8% 13.4%  8.5%  0.0%  0.0%    skip:27.5%
x264 [info]: mb B  I16..4:  0.2%  0.0%  0.6%  B16..8: 29.8%  2.9%  0.7%  direct: 1.5%  skip:64.4%  L0:38.2% L1:57.3% BI: 4.5%
x264 [info]: coded y,uvDC,uvAC intra: 53.3% 80.2% 50.5% inter: 9.7% 22.1% 4.2%
x264 [info]: i16 v,h,dc,p: 27% 27% 10% 36%
x264 [info]: i4 v,h,dc,ddl,ddr,vr,hd,vl,hu: 23% 22% 19%  6%  7%  6%  7%  5%  5%
x264 [info]: i8c dc,h,v,p: 45% 26% 18% 12%
x264 [info]: Weighted P-Frames: Y:3.0% UV:2.4%
x264 [info]: ref P L0: 70.8% 12.9% 16.0%  0.3%
x264 [info]: kb/s:4010.47
[15:37:27] dca-decoder done: 0 frames, 0 decoder errors, 0 drops
[15:37:27] dca-decoder done: 0 frames, 0 decoder errors, 0 drops
[15:37:27] mux: track 0, 145618 frames, 3044604038 bytes, 4010.38 kbps, fifo 512
[15:37:27] mux: track 1, 569385 frames, 3605570108 bytes, 4749.29 kbps, fifo 2048
[15:37:27] mux: track 2, 284691 frames, 242495521 bytes, 319.42 kbps, fifo 1024
[15:37:27] libhb: work result = 0
Encode done!
HandBrake has exited.
When I check with MediaInfo, it shows that I'm only getting the lossy DTS.

Code: Select all

Audio #1
ID                                       : 2
Format                                   : DTS
Format/Info                              : Digital Theater Systems
Codec ID                                 : A_DTS
Duration                                 : 1h 41mn
Channel(s)                               : 6 channels
Sampling rate                            : 48.0 KHz
Compression mode                         : Lossy
Title                                    : Surround
Language                                 : English
Default                                  : Yes
Forced                                   : No

Audio #2
ID                                       : 3
Format                                   : AAC
Format/Info                              : Advanced Audio Codec
Format profile                           : LC
Codec ID                                 : A_AAC
Duration                                 : 1h 41mn
Channel(s)                               : 2 channels
Channel positions                        : Front: L R
Sampling rate                            : 48.0 KHz
Compression mode                         : Lossy
Title                                    : Stereo
Language                                 : English
Default                                  : No
Forced                                   : No
Any suggestions? I have no problems using the same preset on other titles, and I always end up with the DTS-HD when I choose passthru.

ckronengold
Posts: 37
Joined: Tue Jan 08, 2013 8:31 am

Re: DTS-HD Passthru failing on one title

Post by ckronengold » Wed May 27, 2015 8:11 pm

bump? anyone? any suggestion? thoughts? opinions?

mduell
Veteran User
Posts: 6552
Joined: Sat Apr 21, 2007 8:54 pm

Re: DTS-HD Passthru failing on one title

Post by mduell » Wed May 27, 2015 10:19 pm

Try with a newer build, either in the 0.10.x series or the nightly. Your 0.10.0 is 6 mo old.

ckronengold
Posts: 37
Joined: Tue Jan 08, 2013 8:31 am

Re: DTS-HD Passthru failing on one title

Post by ckronengold » Thu May 28, 2015 4:43 pm

Upgraded and gave it another shot, but same end result.
Its very odd because I don't have a problem in general getting the DTS-HD passthru working. I'm wondering if it is somehow unique to this title?

Code: Select all

HandBrake 0.10.1.6962 - 64bit Version
OS: Microsoft Windows NT 6.1.7601 Service Pack 1 - 64bit
CPU: Intel(R) Core(TM) i5-3570K CPU @ 3.40GHz
Ram: 16214 MB, 
GPU Information:
  Intel(R) HD Graphics 4000 - 10.18.10.3496
Screen: 1440x900
Temp Dir: C:\Users\Corey\AppData\Local\Temp\
Install Dir: C:\Program Files\Handbrake
Data Dir: C:\Users\XXXXXXXX\AppData\Roaming\HandBrake\HandBrake\0.10.1.6962

-------------------------------------------

CLI Query:  -i "D:\Wreck-It_Ralph.mkv" -t 1 --angle 1 -c 1-16 -o "G:\Wreck-it Ralph(RF20dtshdtest).mkv"  -f mkv  -w 1920 --crop 138:138:0:0 --loose-anamorphic  --modulus 2 -e x264 -q 20 -r 30 --pfr -a 1,2 -E copy:dtshd,av_aac -6 none,dpl2 -R Auto,48 -B 0,320 -D 0,0 --gain 0,0 --audio-fallback ac3 --encoder-level="3.1"  --encoder-profile=main  --verbose=1

[10:28:39] hb_init: starting libhb thread
HandBrake 0.10.1 (2015030800) - MinGW x86_64 - https://handbrake.fr
4 CPUs detected
Opening D:\Wreck-It_Ralph.mkv...
[10:28:39] CPU: Intel(R) Core(TM) i5-3570K CPU @ 3.40GHz
[10:28:39]  - Intel microarchitecture Ivy Bridge
[10:28:39]  - logical processor count: 4
[10:28:39] OpenCL device #1: Intel(R) Corporation Intel(R) HD Graphics 4000
[10:28:39]  - OpenCL version: 1.2 
[10:28:39]  - driver version: 10.18.10.3496
[10:28:39]  - device type:    GPU
[10:28:39]  - supported:      no
[10:28:39] Intel Quick Sync Video support: yes
[10:28:39]  - Intel Media SDK hardware: API 1.8 (minimum: 1.3)
[10:28:39]  - H.264 encoder: yes
[10:28:39]     - preferred implementation: hardware (any)
[10:28:39]  - H.265 encoder: no
[10:28:39] hb_scan: path=D:\Wreck-It_Ralph.mkv, title_index=1
libbluray/bdnav/index_parse.c:162: indx_parse(): error opening D:\Wreck-It_Ralph.mkv/BDMV/index.bdmv
libbluray/bdnav/index_parse.c:162: indx_parse(): error opening D:\Wreck-It_Ralph.mkv/BDMV/BACKUP/index.bdmv
libbluray/bluray.c:2182: nav_get_title_list(D:\Wreck-It_Ralph.mkv) failed
[10:28:39] bd: not a bd - trying as a stream/file instead
libdvdnav: Using dvdnav version 5.0.1
libdvdread: Encrypted DVD support unavailable.
libdvdread:DVDOpenFileUDF:UDFFindFile /VIDEO_TS/VIDEO_TS.IFO failed
libdvdread:DVDOpenFileUDF:UDFFindFile /VIDEO_TS/VIDEO_TS.BUP failed
libdvdread: Can't open file VIDEO_TS.IFO.
libdvdnav: vm: failed to read VIDEO_TS.IFO
[10:28:39] dvd: not a dvd - trying as a stream/file instead
Input #0, matroska,webm, from 'D:\Wreck-It_Ralph.mkv':
  Metadata:
    title           : Wreck-It Ralph
  Duration: 01:41:13.52, start: 0.000000, bitrate: N/A
    Chapter #0.0: start 0.000000, end 432.140042
    Metadata:
      title           : Chapter 01
    Chapter #0.1: start 432.140042, end 994.910583
    Metadata:
      title           : Chapter 02
    Chapter #0.2: start 994.910583, end 1627.500875
    Metadata:
      title           : Chapter 03
    Chapter #0.3: start 1627.500875, end 2245.952042
    Metadata:
      title           : Chapter 04
    Chapter #0.4: start 2245.952042, end 2686.684000
    Metadata:
      title           : Chapter 05
    Chapter #0.5: start 2686.684000, end 2925.130542
    Metadata:
      title           : Chapter 06
    Chapter #0.6: start 2925.130542, end 3096.009583
    Metadata:
      title           : Chapter 07
    Chapter #0.7: start 3096.009583, end 3536.032500
    Metadata:
      title           : Chapter 08
    Chapter #0.8: start 3536.032500, end 4147.893750
    Metadata:
      title           : Chapter 09
    Chapter #0.9: start 4147.893750, end 4419.623542
    Metadata:
      title           : Chapter 10
    Chapter #0.10: start 4419.623542, end 4556.802250
    Metadata:
      title           : Chapter 11
    Chapter #0.11: start 4556.802250, end 4732.978250
    Metadata:
      title           : Chapter 12
    Chapter #0.12: start 4732.978250, end 4913.742167
    Metadata:
      title           : Chapter 13
    Chapter #0.13: start 4913.742167, end 5245.365125
    Metadata:
      title           : Chapter 14
    Chapter #0.14: start 5245.365125, end 5590.543292
    Metadata:
      title           : Chapter 15
    Chapter #0.15: start 5590.543292, end 6073.525792
    Metadata:
      title           : Chapter 16
    Stream #0.0(eng): Video: h264 (High), yuv420p, 1920x1080 [PAR 1:1 DAR 16:9], 23.98 fps, 1k tbn, 47.95 tbc
    Stream #0.1(eng): Audio: dca (DTS-HD MA), 48000 Hz, 5.1, fltp, 1536 kb/s (default)
    Metadata:
      title           : Surround 7.1
    Stream #0.2(eng): Audio: dca (DTS), 48000 Hz, 5.1, fltp, 1536 kb/s
    Metadata:
      title           : Surround 5.1
    Stream #0.3(eng): Subtitle: pgssub
    Stream #0.4(eng): Subtitle: pgssub
[10:28:39] scan: decoding previews for title 1
[10:28:39] scan: audio 0x1: dca, rate=48000Hz, bitrate=1536000 English (DTS-HD MA) (5.1 ch)
[10:28:39] scan: audio 0x2: dca, rate=48000Hz, bitrate=1536000 English (DTS) (5.1 ch)
Scanning title 1 of 1, preview 2, 20.00 %
Scanning title 1 of 1, preview 4, 40.00 %
Scanning title 1 of 1, preview 6, 60.00 %
Scanning title 1 of 1, preview 8, 80.00 %
Scanning title 1 of 1, preview 9, 90.00 %[10:28:40] scan: 10 previews, 1920x1080, 23.976 fps, autocrop = 138/138/0/0, aspect 16:9, PAR 1:1
[10:28:40] libhb: scan thread found 1 valid title(s)
+ title 1:
  + stream: D:\Wreck-It_Ralph.mkv
  + duration: 01:41:13
  + size: 1920x1080, pixel aspect: 1/1, display aspect: 1.78, 23.976 fps
  + autocrop: 138/138/0/0
  + support opencl: no
  + support hwd: yes
  + chapters:
    + 1: cells 0->0, 0 blocks, duration 00:07:12
    + 2: cells 0->0, 0 blocks, duration 00:09:23
    + 3: cells 0->0, 0 blocks, duration 00:10:33
    + 4: cells 0->0, 0 blocks, duration 00:10:18
    + 5: cells 0->0, 0 blocks, duration 00:07:21
    + 6: cells 0->0, 0 blocks, duration 00:03:58
    + 7: cells 0->0, 0 blocks, duration 00:02:51
    + 8: cells 0->0, 0 blocks, duration 00:07:20
    + 9: cells 0->0, 0 blocks, duration 00:10:12
    + 10: cells 0->0, 0 blocks, duration 00:04:32
    + 11: cells 0->0, 0 blocks, duration 00:02:17
    + 12: cells 0->0, 0 blocks, duration 00:02:56
    + 13: cells 0->0, 0 blocks, duration 00:03:01
    + 14: cells 0->0, 0 blocks, duration 00:05:32
    + 15: cells 0->0, 0 blocks, duration 00:05:45
    + 16: cells 0->0, 0 blocks, duration 00:08:03
  + audio tracks:
    + 1, English (DTS-HD MA) (5.1 ch) (iso639-2: eng)
    + 2, English (DTS) (5.1 ch) (iso639-2: eng), 48000Hz, 1536000bps
  + subtitle tracks:
    + 1, English (iso639-2: eng) (Bitmap)(PGS)
    + 2, English (iso639-2: eng) (Bitmap)(PGS)
[10:28:40] 1 job(s) to process
[10:28:40] starting job
[10:28:40] sync: expecting 145618 video frames
[10:28:40] job configuration:
[10:28:40]  * source
[10:28:40]    + D:\Wreck-It_Ralph.mkv
[10:28:40]    + title 1, chapter(s) 1 to 16
[10:28:40]    + container: matroska,webm
[10:28:40]  * destination
[10:28:40]    + G:\Wreck-it Ralph(RF20dtshdtest).mkv
[10:28:40]    + container: Matroska (libavformat)
[10:28:40]  * video track
[10:28:40]    + decoder: h264
[10:28:40]    + filters
[10:28:40]      + Framerate Shaper (2:27000000:900000)
[10:28:40]        + frame rate: 23.976 fps -> peak rate limited to 30.000 fps
[10:28:40]      + Crop and Scale (1920:804:138:138:0:0)
[10:28:40]        + source: 1920 * 1080, crop (138/138/0/0): 1920 * 804, scale: 1920 * 804
[10:28:40]    + loose anamorphic
[10:28:40]      + storage dimensions: 1920 * 804, mod 2
[10:28:40]      + pixel aspect ratio: 1 / 1
[10:28:40]      + display dimensions: 1920 * 804
[10:28:40]    + encoder: H.264 (libx264)
[10:28:40]      + profile: main
[10:28:40]      + level:   3.1
[10:28:40]      + quality: 20.00 (RF)
[10:28:40]  * audio track 1
[10:28:40]    + decoder: English (DTS-HD MA) (5.1 ch) (track 1, id 0x1)
[10:28:40]      + bitrate: 1536 kbps, samplerate: 48000 Hz
[10:28:40]    + DTS-HD Passthru
[10:28:40]  * audio track 2
[10:28:40]    + decoder: English (DTS) (5.1 ch) (track 2, id 0x2)
[10:28:40]      + bitrate: 1536 kbps, samplerate: 48000 Hz
[10:28:40]    + mixdown: Dolby Pro Logic II
[10:28:40]    + encoder: AAC (libavcodec)
[10:28:40]      + bitrate: 320 kbps, samplerate: 48000 Hz
[10:28:40] reader: first SCR 0 id 0x0 DTS 0
[10:28:40] encx264: min-keyint: 24, keyint: 240
[10:28:40] encx264: encoding at constant RF 20.000000
[10:28:40] hb_apply_h264_level [warning]: frame size (1920x816, 6120 macroblocks) too high for level 3.1 (max. 3600 macroblocks)
[10:28:40] encx264: unparsed options: level=3.1:ref=2:b-pyramid=none:8x8dct=0:vbv-bufsize=14000:vbv-maxrate=14000
x264 [info]: using SAR=1/1
x264 [warning]: frame MB size (120x51) > level limit (3600)
x264 [warning]: MB rate (146733) > level limit (108000)
x264 [info]: using cpu capabilities: MMX2 SSE2Fast SSSE3 SSE4.2 AVX
x264 [info]: profile Main, level 3.1
[10:33:15] h264: "Chapter 2" (2) at frame 10370 time 38896380
[10:39:14] h264: "Chapter 3" (3) at frame 23862 time 89541990
[dca @ 000000000524b900] Overread auxiliary data by 32 bits
[dca @ 000000000524b900] error decoding block
[dca @ 0000000005995ba0] Overread auxiliary data by 32 bits
[dca @ 0000000005995ba0] error decoding block
[dca @ 0000000005995ba0] Overread auxiliary data by 32 bits
[dca @ 000000000524b900] Overread auxiliary data by 32 bits
[dca @ 0000000005995ba0] error decoding block
[dca @ 000000000524b900] error decoding block
[dca @ 000000000524b900] Overread auxiliary data by 32 bits
[dca @ 000000000524b900] error decoding block
[10:47:38] h264: "Chapter 4" (4) at frame 39029 time 146475090
[10:54:55] h264: "Chapter 5" (5) at frame 53858 time 202139460
[10:59:57] h264: "Chapter 6" (6) at frame 64424 time 241801560
[11:03:04] h264: "Chapter 7" (7) at frame 70141 time 263261790
[11:04:45] h264: "Chapter 8" (8) at frame 74238 time 278640900
[dca @ 0000000005995ba0] Overread auxiliary data by 32 bits
[dca @ 000000000524b900] Overread auxiliary data by 32 bits
[dca @ 0000000005995ba0] error decoding block
[dca @ 000000000524b900] error decoding block
[11:09:55] h264: "Chapter 9" (9) at frame 84788 time 318242970
[dca @ 0000000005995ba0] Overread auxiliary data by 32 bits
[dca @ 000000000524b900] Overread auxiliary data by 32 bits
[11:16:55] h264: "Chapter 10" (10) at frame 99458 time 373310460
[11:19:37] h264: "Chapter 11" (11) at frame 105973 time 397766160
[11:21:01] h264: "Chapter 12" (12) at frame 109263 time 410115960
[11:23:39] h264: "Chapter 13" (13) at frame 113487 time 425971800
[dca @ 000000000524b900] Overread auxiliary data by 32 bits
[dca @ 0000000005995ba0] Overread auxiliary data by 32 bits
[dca @ 000000000524b900] error decoding block
[dca @ 0000000005995ba0] error decoding block
[11:24:25] sync: adding 72 ms of silence to audio 0x2  start 430904430, next 430897920
[11:24:25] sync: audio gap 72 ms. Skipping frames. Audio 0x1  start 430904430, next 430897920
[11:24:25] sync: audio 0x2 time went backwards 69 ms, dropped 6 frames (start 430911600, next 430917870)
[11:24:26] sync: video time didn't advance - dropped 1 frames (delta 30 ms, current 430705260, next 430706310, dur 1050)
[11:26:28] h264: "Chapter 14" (14) at frame 117821 time 442240560
[11:31:17] h264: "Chapter 15" (15) at frame 125772 time 472086630
[11:35:15] h264: "Chapter 16" (16) at frame 134048 time 503152650
[dca @ 0000000005995ba0] Overread auxiliary data by 32 bits
[dca @ 000000000524b900] Overread auxiliary data by 32 bits
[dca @ 0000000005995ba0] error decoding block
[dca @ 000000000524b900] error decoding block
[11:40:45] reader: done. 1 scr changes
[11:40:48] work: average encoding speed for job is 33.654797 fps
[11:40:48] sync: got 145618 frames, 145618 expected
[11:40:48] render: 145618 frames output, 0 dropped and 0 duped for CFR/PFR
[11:40:48] render: lost time: 0 (0 frames)
[11:40:48] render: gained time: 0 (0 frames) (0 not accounted for)
[11:40:48] h264-decoder done: 145619 frames, 0 decoder errors, 0 drops
x264 [info]: frame I:2160  Avg QP:16.30  size:157729
x264 [info]: frame P:61677 Avg QP:19.70  size: 34665
x264 [info]: frame B:81781 Avg QP:22.51  size:  6920
x264 [info]: consecutive B-frames: 18.6% 16.8%  8.1% 56.5%
x264 [info]: mb I  I16..4: 32.0%  0.0% 68.0%
x264 [info]: mb P  I16..4:  6.2%  0.0%  7.6%  P16..4: 36.8% 13.4%  8.5%  0.0%  0.0%    skip:27.5%
x264 [info]: mb B  I16..4:  0.2%  0.0%  0.6%  B16..8: 29.8%  2.9%  0.7%  direct: 1.5%  skip:64.4%  L0:38.2% L1:57.3% BI: 4.5%
x264 [info]: coded y,uvDC,uvAC intra: 53.3% 80.2% 50.5% inter: 9.7% 22.1% 4.2%
x264 [info]: i16 v,h,dc,p: 27% 27% 10% 36%
x264 [info]: i4 v,h,dc,ddl,ddr,vr,hd,vl,hu: 23% 22% 19%  6%  7%  6%  7%  5%  5%
x264 [info]: i8c dc,h,v,p: 45% 26% 18% 12%
x264 [info]: Weighted P-Frames: Y:3.0% UV:2.4%
x264 [info]: ref P L0: 70.8% 12.9% 16.0%  0.3%
x264 [info]: kb/s:4010.40
[11:40:48] dca-decoder done: 0 frames, 0 decoder errors, 0 drops
[11:40:48] dca-decoder done: 0 frames, 0 decoder errors, 0 drops
[11:40:48] mux: track 0, 145618 frames, 3044552579 bytes, 4010.32 kbps, fifo 512
[11:40:48] mux: track 1, 569385 frames, 3605570108 bytes, 4749.29 kbps, fifo 2048
[11:40:48] mux: track 2, 284691 frames, 242495493 bytes, 319.42 kbps, fifo 1024
[11:40:48] libhb: work result = 0
Encode done!
HandBrake has exited.
Do any of the errors indicate anything other than minor sync issues? Do you see anything in the setup that might indicate whats going on?

Code: Select all

General
Unique ID                                : 330771823126931468484787772260329881152 (0xF8D855FD0428E5E5F5E54C12556E7E40)
Complete name                            : G:\Wreck-it Ralph(RF20dtshdtest).mkv
Format                                   : Matroska
Format version                           : Version 2
File size                                : 6.43 GiB
Duration                                 : 1h 41mn
Overall bit rate                         : 9 088 Kbps
Movie name                               : Wreck-It Ralph
Writing application                      : HandBrake 0.10.1 2015030800
Writing library                          : Lavf55.12.0

Video
ID                                       : 1
Format                                   : AVC
Format/Info                              : Advanced Video Codec
Format profile                           : Main@L3.1
Format settings, CABAC                   : Yes
Format settings, ReFrames                : 2 frames
Codec ID                                 : V_MPEG4/ISO/AVC
Duration                                 : 1h 41mn
Width                                    : 1 920 pixels
Height                                   : 804 pixels
Display aspect ratio                     : 2.40:1
Frame rate mode                          : Constant
Frame rate                               : 23.976 fps
Color space                              : YUV
Chroma subsampling                       : 4:2:0
Bit depth                                : 8 bits
Scan type                                : Progressive
Writing library                          : x264 core 142 r2479 dd79a61
Encoding settings                        : cabac=1 / ref=2 / deblock=1:0:0 / analyse=0x1:0x111 / me=hex / subme=7 / psy=1 / psy_rd=1.00:0.00 / mixed_ref=1 / me_range=16 / chroma_me=1 / trellis=1 / 8x8dct=0 / cqm=0 / deadzone=21,11 / fast_pskip=1 / chroma_qp_offset=-2 / threads=6 / lookahead_threads=1 / sliced_threads=0 / nr=0 / decimate=1 / interlaced=0 / bluray_compat=0 / constrained_intra=0 / bframes=3 / b_pyramid=0 / b_adapt=1 / b_bias=0 / direct=1 / weightb=1 / open_gop=0 / weightp=2 / keyint=240 / keyint_min=24 / scenecut=40 / intra_refresh=0 / rc_lookahead=40 / rc=crf / mbtree=1 / crf=20.0 / qcomp=0.60 / qpmin=0 / qpmax=69 / qpstep=4 / vbv_maxrate=14000 / vbv_bufsize=14000 / crf_max=0.0 / nal_hrd=none / filler=0 / ip_ratio=1.40 / aq=1:1.00
Default                                  : Yes
Forced                                   : No
Color primaries                          : BT.709
Transfer characteristics                 : BT.709
Matrix coefficients                      : BT.709
Color range                              : Limited

Audio #1
ID                                       : 2
Format                                   : DTS
Format/Info                              : Digital Theater Systems
Codec ID                                 : A_DTS
Duration                                 : 1h 41mn
Channel(s)                               : 6 channels
Sampling rate                            : 48.0 KHz
Compression mode                         : Lossy
Title                                    : Surround
Language                                 : English
Default                                  : Yes
Forced                                   : No

Audio #2
ID                                       : 3
Format                                   : AAC
Format/Info                              : Advanced Audio Codec
Format profile                           : LC
Codec ID                                 : A_AAC
Duration                                 : 1h 41mn
Channel(s)                               : 2 channels
Channel positions                        : Front: L R
Sampling rate                            : 48.0 KHz
Compression mode                         : Lossy
Title                                    : Stereo
Language                                 : English
Default                                  : No
Forced                                   : No
Thanks!

User avatar
Rodeo
HandBrake Team
Posts: 12123
Joined: Tue Mar 03, 2009 8:55 pm

Re: DTS-HD Passthru failing on one title

Post by Rodeo » Thu May 28, 2015 5:08 pm

I believe this is caused by bad muxing (incorrect audio timestamps in the MKV file). A remux will not do it, but demuxing the audio to an elementary stream and muxing it back it (using mkvextract and mkvmerge) should do it.

Post Reply