Getting larger file sizes with 10. and nightly

HandBrake for Windows support
Forum rules
An Activity Log is required for support requests. Please read How-to get an activity log? for details on how and why this should be provided.
Post Reply
R6acer
Posts: 4
Joined: Thu Mar 22, 2012 2:33 pm

Getting larger file sizes with 10. and nightly

Post by R6acer » Sat Jan 31, 2015 10:52 am

ok I am using the same encode settings but my file sizes are much larger with the new releases here is the encode info via media info....

1)
Writing application : HandBrake 6822svn 2015012801
Video
ID : 1
Format : AVC
Format/Info : Advanced Video Codec
Format profile : High@L3.1
Format settings, CABAC : Yes
Format settings, ReFrames : 4 frames
Codec ID : avc1
Codec ID/Info : Advanced Video Coding
Duration : 2h 48mn
Bit rate : 16.5 Mbps
Width : 1 280 pixels
Height : 544 pixels
Display aspect ratio : 2.40:1
Frame rate mode : Variable
Frame rate : 23.976 fps
Minimum frame rate : 22.877 fps
Maximum frame rate : 25.182 fps
Color space : YUV
Chroma subsampling : 4:2:0
Bit depth : 8 bits
Scan type : Progressive
Bits/(Pixel*Frame) : 0.990
Stream size : 19.4 GiB (96%)
Writing library : x264 core 142 r2479 dd79a61
Encoding settings : cabac=1 / ref=1 / deblock=1:0:0 / analyse=0x3:0x3 / me=dia / subme=1 / psy=1 / psy_rd=1.00:0.00 / mixed_ref=0 / me_range=16 / chroma_me=1 / trellis=0 / 8x8dct=1 / cqm=0 / deadzone=21,11 / fast_pskip=1 / chroma_qp_offset=0 / threads=12 / lookahead_threads=4 / sliced_threads=0 / nr=0 / decimate=1 / interlaced=0 / bluray_compat=0 / constrained_intra=0 / bframes=3 / b_pyramid=2 / b_adapt=2 / b_bias=0 / direct=1 / weightb=1 / open_gop=0 / weightp=1 / keyint=240 / keyint_min=24 / scenecut=40 / intra_refresh=0 / rc=crf / mbtree=0 / crf=14.0 / qcomp=0.60 / qpmin=0 / qpmax=69 / qpstep=4 / ip_ratio=1.40 / pb_ratio=1.30 / aq=1:1.00
Color primaries : BT.709
Transfer characteristics : BT.709
Matrix coefficients : BT.709
Color range : Limited
2)
Writing application : HandBrake 0.9.9 2013052900
Video
ID : 1
Format : AVC
Format/Info : Advanced Video Codec
Format profile : High@L3.1
Format settings, CABAC : Yes
Format settings, ReFrames : 4 frames
Codec ID : avc1
Codec ID/Info : Advanced Video Coding
Duration : 2h 48mn
Bit rate : 12.9 Mbps
Width : 1 280 pixels
Height : 528 pixels
Display aspect ratio : 2.40:1
Frame rate mode : Variable
Frame rate : 23.976 fps
Minimum frame rate : 22.877 fps
Maximum frame rate : 497.238 fps
Color space : YUV
Chroma subsampling : 4:2:0
Bit depth : 8 bits
Scan type : Progressive
Bits/(Pixel*Frame) : 0.796
Stream size : 15.2 GiB (95%)
Writing library : x264 core 130 r2273 b3065e6
Encoding settings : cabac=1 / ref=3 / deblock=1:0:0 / analyse=0x3:0x113 / me=hex / subme=7 / psy=1 / psy_rd=1.00:0.00 / mixed_ref=1 / me_range=16 / chroma_me=1 / trellis=1 / 8x8dct=1 / cqm=0 / deadzone=21,11 / fast_pskip=1 / chroma_qp_offset=-2 / threads=12 / lookahead_threads=2 / sliced_threads=0 / nr=0 / decimate=1 / interlaced=0 / bluray_compat=0 / constrained_intra=0 / bframes=3 / b_pyramid=2 / b_adapt=2 / b_bias=0 / direct=1 / weightb=1 / open_gop=0 / weightp=2 / keyint=240 / keyint_min=24 / scenecut=40 / intra_refresh=0 / rc=crf / mbtree=0 / crf=14.0 / qcomp=0.60 / qpmin=0 / qpmax=69 / qpstep=4 / ip_ratio=1.40 / pb_ratio=1.30 / aq=1:1.00
Encoded date : UTC 2015-01-31 03:42:31
Tagged date : UTC 2015-01-31 06:07:53
Color primaries : BT.709
Transfer characteristics : BT.709
Matrix coefficients : BT.709
Color range : Limited

Smithcraft
Veteran User
Posts: 2691
Joined: Thu Jan 22, 2009 8:04 pm

Re: Getting larger file sizes with 10. and nightly

Post by Smithcraft » Sat Jan 31, 2015 11:16 am

That's nice. Where is the encode logs to compare old versus new?

SC

User avatar
Ritsuka
HandBrake Team
Posts: 1034
Joined: Fri Jan 12, 2007 11:29 am

Re: Getting larger file sizes with 10. and nightly

Post by Ritsuka » Sat Jan 31, 2015 11:51 am

You are not using the same settings. Looks and how the "Encoding settings" list is different.

mduell
Veteran User
Posts: 6447
Joined: Sat Apr 21, 2007 8:54 pm

Re: Getting larger file sizes with 10. and nightly

Post by mduell » Sat Jan 31, 2015 4:44 pm

Although your mediainfo does indeed confirm you selected different settings, it'd be easier to tell you what to choose if you posted your HB encode logs for both.

R6acer
Posts: 4
Joined: Thu Mar 22, 2012 2:33 pm

Re: Getting larger file sizes with 10. and nightly

Post by R6acer » Sat Jan 31, 2015 11:00 pm

Ritsuka wrote:You are not using the same settings. Looks and how the "Encoding settings" list is different.
your right I always use the high profile setting with rc-lookahead=60 looks like they changed the profile settings

Post Reply