Handbrake won't load a video.

HandBrake for Windows support
Forum rules
An Activity Log is required for support requests. Please read How-to get an activity log? for details on how and why this should be provided.
Post Reply
KTVX94
Posts: 3
Joined: Sat Oct 11, 2014 2:06 am

Handbrake won't load a video.

Post by KTVX94 »

Hi there, this is my first time using HandBrake and I have little to no idea about the details to this stuff, I just started a project for a playthrough of a game for YT and want to get through this part of the process as easily as possible.

I'm recording videos with Dxtory with default settings since I have no idea about codecs and stuff. I noticed the resulting video was a whopping 61 GB and upon research I heard this program was good for compression. However, once HB finishes scanning the source and I click "start" it tells me that I need to scan a source first. This is the resulting log:

Code: Select all

HandBrake 0.9.9.5530 - 64bit Version
OS: Microsoft Windows NT 6.2.9200.0
CPU: Intel(R) Core(TM) i7-3770 CPU @ 3.40GHz
Ram: 3991 MB, Screen: 1360x768
Temp Dir: C:\Users\Kevin\AppData\Local\Temp\
Install Dir: F:\Documentos de Kevin\Utilidades\Handbrake
Data Dir: C:\Users\Kevin\AppData\Roaming\HandBrake\HandBrake\0.9.9.5530

-------------------------------------------
 -i "F:\Documentos de Kevin\Dxtory\Dolphin 2014-10-10 22-13-57-097.avi" -t0  --min-duration=10 -v 
[22:50:16] hb_init: starting libhb thread
HandBrake 0.9.9 (2013052900) - MinGW x86_64 - http://handbrake.fr
8 CPUs detected
Opening F:\Documentos de Kevin\Dxtory\Dolphin 2014-10-10 22-13-57-097.avi...
[22:50:16] hb_scan: path=F:\Documentos de Kevin\Dxtory\Dolphin 2014-10-10 22-13-57-097.avi, title_index=0
libbluray/bdnav/index_parse.c:162: indx_parse(): error opening F:\Documentos de Kevin\Dxtory\Dolphin 2014-10-10 22-13-57-097.avi/BDMV/index.bdmv
libbluray/bdnav/index_parse.c:162: indx_parse(): error opening F:\Documentos de Kevin\Dxtory\Dolphin 2014-10-10 22-13-57-097.avi/BDMV/BACKUP/index.bdmv
libbluray/bluray.c:1725: nav_get_title_list(F:\Documentos de Kevin\Dxtory\Dolphin 2014-10-10 22-13-57-097.avi) failed (0000000001C08B90)
[22:50:16] bd: not a bd - trying as a stream/file instead
libdvdnav: Using dvdnav version 4.1.3
libdvdread: Encrypted DVD support unavailable.
libdvdnav:DVDOpenFileUDF:UDFFindFile /VIDEO_TS/VIDEO_TS.IFO failed
libdvdnav:DVDOpenFileUDF:UDFFindFile /VIDEO_TS/VIDEO_TS.BUP failed
libdvdread: Can't open file VIDEO_TS.IFO.
libdvdnav: vm: failed to read VIDEO_TS.IFO
[22:50:16] dvd: not a dvd - trying as a stream/file instead
Input #0, avi, from 'F:\Documentos de Kevin\Dxtory\Dolphin 2014-10-10 22-13-57-097.avi':
  Metadata:
    encoder         : DxtoryCore ver2.0.0.122
    ISRC            : Video:RGB24 Audio0:Altavoces (Realtek High Definition Audio) Audio1:Micrófono (Realtek High Definition Audio)
  Duration: 00:01:16.20, start: 0.000000, bitrate: 226531 kb/s
    Stream #0.0: Video: dxtory, yuv420p, 664x468, 30 fps, 30 tbr, 30 tbn
    Stream #0.1: Audio: pcm_s16le, 48000 Hz, 2 channels, s16, 1536 kb/s
    Stream #0.2: Audio: pcm_s16le, 48000 Hz, 2 channels, s16, 1536 kb/s
[22:50:17] scan: decoding previews for title 1
[22:50:17] scan: audio 0x1: pcm_s16le, rate=48000Hz, bitrate=1536000 Unknown (pcm_s16le) (2.0 ch)
[22:50:17] scan: audio 0x2: pcm_s16le, rate=48000Hz, bitrate=1536000 Unknown (pcm_s16le) (2.0 ch)
[22:52:04] libhb: scan thread found 0 valid title(s)
No title found.
HandBrake has exited.
Last edited by TedJ on Sat Oct 11, 2014 10:46 am, edited 1 time in total.
Reason: Activity logs should be enclosed in [code] blocks.

TedJ
Veteran User
Posts: 5388
Joined: Wed Feb 20, 2008 11:25 pm

Re: Handbrake won't load a video.

Post by TedJ »

HandBrake 0.9.9 doesn't appear to work with Dxtory, I suggest updating to a current nightly build or beta release.

KTVX94
Posts: 3
Joined: Sat Oct 11, 2014 2:06 am

Re: Handbrake won't load a video.

Post by KTVX94 »

What's a nightly build? Is there any version that you know works with Dxtory?

TedJ
Veteran User
Posts: 5388
Joined: Wed Feb 20, 2008 11:25 pm

Re: Handbrake won't load a video.

Post by TedJ »

Have a look at the announcements at the top of this, and every other, subforum. There are posts detailing both the nightly builds and the 0.10.0 beta.

Colt3n
Posts: 3
Joined: Tue Nov 04, 2014 11:30 pm

Re: Handbrake won't load a video.

Post by Colt3n »

So... The beta version will fix the problems with Dxtory?

TedJ
Veteran User
Posts: 5388
Joined: Wed Feb 20, 2008 11:25 pm

Re: Handbrake won't load a video.

Post by TedJ »

I'm not 100% sure. I've heard reports that libav was updated to support dxtory a few months back, so the 0.10.0 release candidate of HandBrake should work. None of the other people who've reported this issue have bothered to come back to tell us whether it worked. :/

Post Reply