New QuickSync beta build coming soon?

HandBrake for Windows support
Forum rules
An Activity Log is required for support requests. Please read How-to get an activity log? for details on how and why this should be provided.
jkauff
Regular User
Posts: 95
Joined: Thu Nov 22, 2012 1:27 pm

New QuickSync beta build coming soon?

Post by jkauff »

It's been five weeks since the first QuickSync beta was posted. Is there a new build in the works for release?
maxim_d33
Bright Spark User
Posts: 173
Joined: Mon Mar 21, 2011 12:02 pm

Re: New QuickSync beta build coming soon?

Post by maxim_d33 »

yes, next build is in active preparation
User avatar
s55
HandBrake Team
Posts: 9971
Joined: Sun Dec 24, 2006 1:05 pm

Re: New QuickSync beta build coming soon?

Post by s55 »

Patience
jkauff
Regular User
Posts: 95
Joined: Thu Nov 22, 2012 1:27 pm

Re: New QuickSync beta build coming soon?

Post by jkauff »

Patient I will be. Any changelog hints?
User avatar
Rodeo
HandBrake Team
Posts: 12757
Joined: Tue Mar 03, 2009 8:55 pm

Re: New QuickSync beta build coming soon?

Post by Rodeo »

AAT
Posts: 34
Joined: Sun Dec 23, 2012 9:35 pm

Re: New QuickSync beta build coming soon?

Post by AAT »

I just tried the current beta with Ivy Bridge, but very slow with active quicksink. The regular 10 minutes encoding would take 1hour 20 minutes...
User avatar
Rodeo
HandBrake Team
Posts: 12757
Joined: Tue Mar 03, 2009 8:55 pm

Re: New QuickSync beta build coming soon?

Post by Rodeo »

AAT wrote:I just tried the current beta with Ivy Bridge, but very slow with active quicksink. The regular 10 minutes encoding would take 1hour 20 minutes...
Activity Log?
AAT
Posts: 34
Joined: Sun Dec 23, 2012 9:35 pm

Re: New QuickSync beta build coming soon?

Post by AAT »

Can I only send you activity log, if I run the complete encoding or 1 minute run is enough? I just do not want run it for over an hour...

Here is the encode log and scan log after two minutes of run;

Code: Select all

HandBrake svn5476 (Nightly Build) - 64bit Version
OS: Microsoft Windows NT 6.2.9200.0
CPU: Intel(R) Core(TM) i5-3337U CPU @ 1.80GHz
Ram: 8073 MB, Screen: 1366x768
Temp Dir: C:\Users\GCN2.0\AppData\Local\Temp\
Install Dir: C:\Program Files\Handbrake
Data Dir: C:\Users\GCN2.0\AppData\Roaming\HandBrake\HandBrake\0.0.0.5476

-------------------------------------------
CLI Query:  -i "D:\Games\Dallas - --- - Source for test purposes .mkv" -t 1 --angle 1 -c 1-6 -o "D:\test.mkv"  -f mkv  -w 720 --loose-anamorphic  --modulus 2 -e qsv_h264 -q 18 --cfr -a 1 -E faac -6 dpl2 -R Auto -B 160 -D 0 --gain 0 --audio-fallback ffac3 --subtitle 1,2 --markers="C:\Users\GCN2.0\AppData\Local\Temp\test-1-chapters.csv" --h264-level="4.0"  --h264-profile=main  -x target-usage=2:gop-ref-dist=4:gop-pic-size=32:async-depth=4 --verbose=1
User Query: False

[08:15:41] hb_init: starting libhb thread
HandBrake svn5476 (2013051801) - MinGW x86_64 - http://handbrake.fr
4 CPUs detected
Opening D:\Games\Dallas - --- - Source for test purposes .mkv...
[08:15:41] hb_scan: path=D:\Games\Dallas - --- - Source for test purposes .mkv, title_index=1
libbluray/bdnav/index_parse.c:162: indx_parse(): error opening D:\Games\Dallas - --- - Source for test purposes .mkv/BDMV/index.bdmv
libbluray/bdnav/index_parse.c:162: indx_parse(): error opening D:\Games\Dallas - --- - Source for test purposes .mkv/BDMV/BACKUP/index.bdmv
libbluray/bluray.c:1725: nav_get_title_list(D:\Games\Dallas - --- - Source for test purposes .mkv) failed (0000000001DA6050)
[08:15:41] bd: not a bd - trying as a stream/file instead
libdvdnav: Using dvdnav version 4.1.3
libdvdread: Encrypted DVD support unavailable.
libdvdnav:DVDOpenFileUDF:UDFFindFile /VIDEO_TS/VIDEO_TS.IFO failed
libdvdnav:DVDOpenFileUDF:UDFFindFile /VIDEO_TS/VIDEO_TS.BUP failed
libdvdread: Can't open file VIDEO_TS.IFO.
libdvdnav: vm: failed to read VIDEO_TS.IFO
[08:15:41] dvd: not a dvd - trying as a stream/file instead
Input #0, matroska,webm, from 'D:\Games\Dallas - --- - Source for test purposes .mkv':
  Duration: 00:46:05.72, start: 0.000000, bitrate: N/A
    Chapter #0.0: start 0.000000, end 67.640000
    Metadata:
      title           : Chapter 01
    Chapter #0.1: start 67.640000, end 840.920000
    Metadata:
      title           : Chapter 02
    Chapter #0.2: start 840.920000, end 1335.440000
    Metadata:
      title           : Chapter 03
    Chapter #0.3: start 1335.440000, end 2108.000000
    Metadata:
      title           : Chapter 04
    Chapter #0.4: start 2108.000000, end 2715.520000
    Metadata:
      title           : Chapter 05
    Chapter #0.5: start 2715.520000, end 2765.720000
    Metadata:
      title           : Chapter 06
    Stream #0.0(eng): Video: mpeg2video (Main), yuv420p, 720x576 [PAR 16:15 DAR 4:3], 8000 kb/s, 25 fps, 25 tbr, 1k tbn, 50 tbc (default)
    Stream #0.1(eng): Audio: ac3, 48000 Hz, mono, fltp, 192 kb/s (default)
    Metadata:
      title           : 1/0
    Stream #0.2(eng): Audio: ac3, 48000 Hz, mono, fltp, 192 kb/s
    Metadata:
      title           : 1/0
    Stream #0.3(ger): Subtitle: dvdsub (default)
    Stream #0.4(eng): Subtitle: dvdsub
[08:15:41] scan: decoding previews for title 1
[08:15:42] scan: audio 0x1: AC-3, rate=48000Hz, bitrate=192000 English (AC3) (1.0 ch)
[08:15:42] scan: audio 0x2: AC-3, rate=48000Hz, bitrate=192000 English (AC3) (1.0 ch)
[08:15:42] scan: 10 previews, 720x576, 25.000 fps, autocrop = 0/0/0/0, aspect 4:3, PAR 16:15
[08:15:42] libhb: scan thread found 1 valid title(s)
- intel quick sync video support: yes
  - hardware version: 1.4 (minimum: 1.4)
+ title 1:
  + stream: D:\Games\Dallas - --- - Source for test purposes .mkv
  + duration: 00:46:05
  + size: 720x576, pixel aspect: 16/15, display aspect: 1.33, 25.000 fps
  + autocrop: 0/0/0/0
  + chapters:
    + 1: cells 0->0, 0 blocks, duration 00:01:08
    + 2: cells 0->0, 0 blocks, duration 00:12:53
    + 3: cells 0->0, 0 blocks, duration 00:08:15
    + 4: cells 0->0, 0 blocks, duration 00:12:53
    + 5: cells 0->0, 0 blocks, duration 00:10:08
    + 6: cells 0->0, 0 blocks, duration 00:00:50
  + audio tracks:
    + 1, English (AC3) (1.0 ch) (iso639-2: eng), 48000Hz, 192000bps
    + 2, English (AC3) (1.0 ch) (iso639-2: eng), 48000Hz, 192000bps
  + subtitle tracks:
    + 1, German (iso639-2: deu) (Bitmap)(VOBSUB)
    + 2, English (iso639-2: eng) (Bitmap)(VOBSUB)
Reading chapter markers from file C:\Users\GCN2.0\AppData\Local\Temp\test-1-chapters.csv
[08:15:42] 1 job(s) to process
[08:15:42] starting job
[08:15:42] work: sanitizing track 1 mixdown Dolby Pro Logic II to Mono
[08:15:42] sync: expecting 69142 video frames
[08:15:42] job configuration:
[08:15:42]  * source
[08:15:42]    + D:\Games\Dallas - --- - Source for test purposes .mkv
[08:15:42]    + title 1, chapter(s) 1 to 6
[08:15:42]    + container: matroska,webm
[08:15:42]  * destination
[08:15:42]    + D:\test.mkv
[08:15:42]    + container: Matroska (.mkv)
[08:15:42]      + chapter markers
[08:15:42]  * video track
[08:15:42]    + decoder: mpeg2video
[08:15:42]      + bitrate 8000 kbps
[08:15:42]    + frame rate: 25.000 fps -> constant 25.000 fps
[08:15:42]    + filters
[08:15:42]      + Framerate Shaper (1:27000000:1080000)
[08:15:42]        + frame rate: 25.000 fps -> constant 25.000 fps
[08:15:42]      + Crop and Scale (720:576:0:0:0:0)
[08:15:42]        + source: 720 * 576, crop (0/0/0/0): 720 * 576, scale: 720 * 576
[08:15:42]    + loose anamorphic
[08:15:42]      + storage dimensions: 720 * 576, mod 2
[08:15:42]      + pixel aspect ratio: 16 / 15
[08:15:42]      + display dimensions: 768 * 576
[08:15:42]    + encoder: H.264 (Intel QSV)
[08:15:42]      + options: target-usage=2:gop-ref-dist=4:gop-pic-size=32:async-depth=4
[08:15:42]      + h264 profile: main
[08:15:42]      + h264 level: 4.0
[08:15:42]      + quality: 18.00 (QP)
[08:15:42]  * subtitle track 1, German (track 3, id 0x3) Picture [VOBSUB] -> Passthrough
[08:15:42]  * subtitle track 2, English (track 4, id 0x4) Picture [VOBSUB] -> Passthrough
[08:15:42]  * audio track 1
[08:15:42]    + decoder: English (AC3) (1.0 ch) (track 1, id 0x1)
[08:15:42]      + bitrate: 192 kbps, samplerate: 48000 Hz
[08:15:42]    + mixdown: Mono
[08:15:42]    + encoder: AAC (faac)
[08:15:42]      + bitrate: 160 kbps, samplerate: 48000 Hz
[08:15:42] reader: first SCR 7200 id 0x0 DTS -3600
[08:15:42] sync: first pts is 10800
[08:15:42] qsv: Intel QSV/MediaSDK uses hardware implementation
[08:15:42] qsv: Using for encode only.
[08:15:42] qsv: RateControlMethod:MFX_RATECONTROL_CQP(I:18/P:20/B:20) TargetKbps:20
[08:15:42] qsv: TargetUsage:2 AsyncDepth:4
[08:15:42] qsv: GopRefDist:4 GopPicSize:32 NumRefFrame:0
[08:17:27] mpeg2video: "Chapter 2" (2) at frame 1697 time 6091200

Code: Select all

HandBrake svn5476 (Nightly Build) - 64bit Version
OS: Microsoft Windows NT 6.2.9200.0
CPU: Intel(R) Core(TM) i5-3337U CPU @ 1.80GHz
Ram: 8073 MB, Screen: 1366x768
Temp Dir: C:\Users\GCN2.0\AppData\Local\Temp\
Install Dir: C:\Program Files\Handbrake
Data Dir: C:\Users\GCN2.0\AppData\Roaming\HandBrake\HandBrake\0.0.0.5476

-------------------------------------------
 -i "D:\Games\Dallas - --- - Source for test purposes .mkv" -t0  --min-duration=10 -v 
[08:14:42] hb_init: starting libhb thread
HandBrake svn5476 (2013051801) - MinGW x86_64 - http://handbrake.fr
4 CPUs detected
Opening D:\Games\Dallas - --- - Source for test purposes .mkv...
[08:14:42] hb_scan: path=D:\Games\Dallas - --- - Source for test purposes .mkv, title_index=0
libbluray/bdnav/index_parse.c:162: indx_parse(): error opening D:\Games\Dallas - --- - Source for test purposes .mkv/BDMV/index.bdmv
libbluray/bdnav/index_parse.c:162: indx_parse(): error opening D:\Games\Dallas - --- - Source for test purposes .mkv/BDMV/BACKUP/index.bdmv
libbluray/bluray.c:1725: nav_get_title_list(D:\Games\Dallas - --- - Source for test purposes .mkv) failed (0000000003395780)
[08:14:42] bd: not a bd - trying as a stream/file instead
libdvdnav: Using dvdnav version 4.1.3
libdvdread: Encrypted DVD support unavailable.
libdvdnav:DVDOpenFileUDF:UDFFindFile /VIDEO_TS/VIDEO_TS.IFO failed
libdvdnav:DVDOpenFileUDF:UDFFindFile /VIDEO_TS/VIDEO_TS.BUP failed
libdvdread: Can't open file VIDEO_TS.IFO.
libdvdnav: vm: failed to read VIDEO_TS.IFO
[08:14:42] dvd: not a dvd - trying as a stream/file instead
Input #0, matroska,webm, from 'D:\Games\Dallas - --- - Source for test purposes .mkv':
  Duration: 00:46:05.72, start: 0.000000, bitrate: N/A
    Chapter #0.0: start 0.000000, end 67.640000
    Metadata:
      title           : Chapter 01
    Chapter #0.1: start 67.640000, end 840.920000
    Metadata:
      title           : Chapter 02
    Chapter #0.2: start 840.920000, end 1335.440000
    Metadata:
      title           : Chapter 03
    Chapter #0.3: start 1335.440000, end 2108.000000
    Metadata:
      title           : Chapter 04
    Chapter #0.4: start 2108.000000, end 2715.520000
    Metadata:
      title           : Chapter 05
    Chapter #0.5: start 2715.520000, end 2765.720000
    Metadata:
      title           : Chapter 06
    Stream #0.0(eng): Video: mpeg2video (Main), yuv420p, 720x576 [PAR 16:15 DAR 4:3], 8000 kb/s, 25 fps, 25 tbr, 1k tbn, 50 tbc (default)
    Stream #0.1(eng): Audio: ac3, 48000 Hz, mono, fltp, 192 kb/s (default)
    Metadata:
      title           : 1/0
    Stream #0.2(eng): Audio: ac3, 48000 Hz, mono, fltp, 192 kb/s
    Metadata:
      title           : 1/0
    Stream #0.3(ger): Subtitle: dvdsub (default)
    Stream #0.4(eng): Subtitle: dvdsub
[08:14:42] scan: decoding previews for title 1
[08:14:42] scan: audio 0x1: AC-3, rate=48000Hz, bitrate=192000 English (AC3) (1.0 ch)
[08:14:42] scan: audio 0x2: AC-3, rate=48000Hz, bitrate=192000 English (AC3) (1.0 ch)
[08:14:43] libhb: scan thread found 1 valid title(s)
- intel quick sync video support: yes
  - hardware version: 1.4 (minimum: 1.4)
+ title 1:
  + stream: D:\Games\Dallas - --- - Source for test purposes .mkv
  + duration: 00:46:05
  + size: 720x576, pixel aspect: 16/15, display aspect: 1.33, 25.000 fps
  + autocrop: 0/0/0/0
  + chapters:
    + 1: cells 0->0, 0 blocks, duration 00:01:08
    + 2: cells 0->0, 0 blocks, duration 00:12:53
    + 3: cells 0->0, 0 blocks, duration 00:08:15
    + 4: cells 0->0, 0 blocks, duration 00:12:53
    + 5: cells 0->0, 0 blocks, duration 00:10:08
    + 6: cells 0->0, 0 blocks, duration 00:00:50
  + audio tracks:
    + 1, English (AC3) (1.0 ch) (iso639-2: eng), 48000Hz, 192000bps
    + 2, English (AC3) (1.0 ch) (iso639-2: eng), 48000Hz, 192000bps
  + subtitle tracks:
    + 1, German (iso639-2: deu) (Bitmap)(VOBSUB)
    + 2, English (iso639-2: eng) (Bitmap)(VOBSUB)
HandBrake has exited.


maxim_d33
Bright Spark User
Posts: 173
Joined: Mon Mar 21, 2011 12:02 pm

Re: New QuickSync beta build coming soon?

Post by maxim_d33 »

AAT, you have an exceptional situation
due to two points:
- your input shown above is MPEG2 , full support of MPEG2 decode with HW acceleration via QSV is planned for future improvements,
wherefore you can see HW accelerated encode only, see:
>qsv: Intel QSV/MediaSDK uses hardware implementation
>qsv: Using for encode only.

- you are using not recommended and lower driver than 3071, can you please upgrade to 3071/higher ?
AAT
Posts: 34
Joined: Sun Dec 23, 2012 9:35 pm

Re: New QuickSync beta build coming soon?

Post by AAT »

Thanks for explaining the situation, sad MPEG2 is just future plan. Hope openCL support coming sooner, because I have another 5 Season Dallas DVD making them to mkv... :)

Here is the encode log and scan log with the latest Intel VGA driver (same slowness);

Code: Select all

HandBrake svn5476 (Nightly Build) - 64bit Version
OS: Microsoft Windows NT 6.2.9200.0
CPU: Intel(R) Core(TM) i5-3337U CPU @ 1.80GHz
Ram: 8073 MB, Screen: 1366x768
Temp Dir: C:\Users\GCN2.0\AppData\Local\Temp\
Install Dir: C:\Program Files\Handbrake
Data Dir: C:\Users\GCN2.0\AppData\Roaming\HandBrake\HandBrake\0.0.0.5476

-------------------------------------------
CLI Query:  -i "D:\Games\Dallas - --- - Source for test purposes .mkv" -t 1 --angle 1 -c 1-6 -o "C:\Users\GCN2.0\Desktop\dallas.mkv"  -f mkv  -w 720 --loose-anamorphic  --modulus 16 -e qsv_h264 -q 18 --cfr -a 1 -E faac -6 dpl2 -R 48 -B 160 -D 0 --gain 0 --audio-fallback ffac3 --subtitle 2,1 -x target-usage=2:gop-ref-dist=4:gop-pic-size=32:async-depth=4 --verbose=1
User Query: False

[08:42:13] hb_init: starting libhb thread
HandBrake svn5476 (2013051801) - MinGW x86_64 - http://handbrake.fr
4 CPUs detected
Opening D:\Games\Dallas - --- - Source for test purposes .mkv...
[08:42:13] hb_scan: path=D:\Games\Dallas - --- - Source for test purposes .mkv, title_index=1
libbluray/bdnav/index_parse.c:162: indx_parse(): error opening D:\Games\Dallas - --- - Source for test purposes .mkv/BDMV/index.bdmv
libbluray/bdnav/index_parse.c:162: indx_parse(): error opening D:\Games\Dallas - --- - Source for test purposes .mkv/BDMV/BACKUP/index.bdmv
libbluray/bluray.c:1725: nav_get_title_list(D:\Games\Dallas - --- - Source for test purposes .mkv) failed (0000000001BF5F10)
[08:42:13] bd: not a bd - trying as a stream/file instead
libdvdnav: Using dvdnav version 4.1.3
libdvdread: Encrypted DVD support unavailable.
libdvdnav:DVDOpenFileUDF:UDFFindFile /VIDEO_TS/VIDEO_TS.IFO failed
libdvdnav:DVDOpenFileUDF:UDFFindFile /VIDEO_TS/VIDEO_TS.BUP failed
libdvdread: Can't open file VIDEO_TS.IFO.
libdvdnav: vm: failed to read VIDEO_TS.IFO
[08:42:13] dvd: not a dvd - trying as a stream/file instead
Input #0, matroska,webm, from 'D:\Games\Dallas - --- - Source for test purposes .mkv':
  Duration: 00:46:05.72, start: 0.000000, bitrate: N/A
    Chapter #0.0: start 0.000000, end 67.640000
    Metadata:
      title           : Chapter 01
    Chapter #0.1: start 67.640000, end 840.920000
    Metadata:
      title           : Chapter 02
    Chapter #0.2: start 840.920000, end 1335.440000
    Metadata:
      title           : Chapter 03
    Chapter #0.3: start 1335.440000, end 2108.000000
    Metadata:
      title           : Chapter 04
    Chapter #0.4: start 2108.000000, end 2715.520000
    Metadata:
      title           : Chapter 05
    Chapter #0.5: start 2715.520000, end 2765.720000
    Metadata:
      title           : Chapter 06
    Stream #0.0(eng): Video: mpeg2video (Main), yuv420p, 720x576 [PAR 16:15 DAR 4:3], 8000 kb/s, 25 fps, 25 tbr, 1k tbn, 50 tbc (default)
    Stream #0.1(eng): Audio: ac3, 48000 Hz, mono, fltp, 192 kb/s (default)
    Metadata:
      title           : 1/0
    Stream #0.2(eng): Audio: ac3, 48000 Hz, mono, fltp, 192 kb/s
    Metadata:
      title           : 1/0
    Stream #0.3(ger): Subtitle: dvdsub (default)
    Stream #0.4(eng): Subtitle: dvdsub
[08:42:13] scan: decoding previews for title 1
[08:42:13] scan: audio 0x1: AC-3, rate=48000Hz, bitrate=192000 English (AC3) (1.0 ch)
[08:42:13] scan: audio 0x2: AC-3, rate=48000Hz, bitrate=192000 English (AC3) (1.0 ch)
[08:42:13] scan: 10 previews, 720x576, 25.000 fps, autocrop = 0/0/0/0, aspect 4:3, PAR 16:15
[08:42:13] libhb: scan thread found 1 valid title(s)
- intel quick sync video support: yes
  - hardware version: 1.4 (minimum: 1.4)
+ title 1:
  + stream: D:\Games\Dallas - --- - Source for test purposes .mkv
  + duration: 00:46:05
  + size: 720x576, pixel aspect: 16/15, display aspect: 1.33, 25.000 fps
  + autocrop: 0/0/0/0
  + chapters:
    + 1: cells 0->0, 0 blocks, duration 00:01:08
    + 2: cells 0->0, 0 blocks, duration 00:12:53
    + 3: cells 0->0, 0 blocks, duration 00:08:15
    + 4: cells 0->0, 0 blocks, duration 00:12:53
    + 5: cells 0->0, 0 blocks, duration 00:10:08
    + 6: cells 0->0, 0 blocks, duration 00:00:50
  + audio tracks:
    + 1, English (AC3) (1.0 ch) (iso639-2: eng), 48000Hz, 192000bps
    + 2, English (AC3) (1.0 ch) (iso639-2: eng), 48000Hz, 192000bps
  + subtitle tracks:
    + 1, German (iso639-2: deu) (Bitmap)(VOBSUB)
    + 2, English (iso639-2: eng) (Bitmap)(VOBSUB)
[08:42:13] 1 job(s) to process
[08:42:13] starting job
[08:42:13] work: sanitizing track 1 mixdown Dolby Pro Logic II to Mono
[08:42:13] sync: expecting 69142 video frames
[08:42:13] job configuration:
[08:42:13]  * source
[08:42:13]    + D:\Games\Dallas - --- - Source for test purposes .mkv
[08:42:13]    + title 1, chapter(s) 1 to 6
[08:42:13]    + container: matroska,webm
[08:42:13]  * destination
[08:42:13]    + C:\Users\GCN2.0\Desktop\dallas.mkv
[08:42:13]    + container: Matroska (.mkv)
[08:42:13]  * video track
[08:42:13]    + decoder: mpeg2video
[08:42:13]      + bitrate 8000 kbps
[08:42:13]    + frame rate: 25.000 fps -> constant 25.000 fps
[08:42:13]    + filters
[08:42:13]      + Framerate Shaper (1:27000000:1080000)
[08:42:13]        + frame rate: 25.000 fps -> constant 25.000 fps
[08:42:13]      + Crop and Scale (720:576:0:0:0:0)
[08:42:13]        + source: 720 * 576, crop (0/0/0/0): 720 * 576, scale: 720 * 576
[08:42:13]    + loose anamorphic
[08:42:13]      + storage dimensions: 720 * 576, mod 16
[08:42:13]      + pixel aspect ratio: 16 / 15
[08:42:13]      + display dimensions: 768 * 576
[08:42:13]    + encoder: H.264 (Intel QSV)
[08:42:13]      + options: target-usage=2:gop-ref-dist=4:gop-pic-size=32:async-depth=4
[08:42:13]      + quality: 18.00 (QP)
[08:42:13]  * subtitle track 1, English (track 4, id 0x4) Picture [VOBSUB] -> Passthrough
[08:42:13]  * subtitle track 2, German (track 3, id 0x3) Picture [VOBSUB] -> Passthrough
[08:42:13]  * audio track 1
[08:42:13]    + decoder: English (AC3) (1.0 ch) (track 1, id 0x1)
[08:42:13]      + bitrate: 192 kbps, samplerate: 48000 Hz
[08:42:13]    + mixdown: Mono
[08:42:13]    + encoder: AAC (faac)
[08:42:13]      + bitrate: 160 kbps, samplerate: 48000 Hz
[08:42:13] reader: first SCR 7200 id 0x0 DTS -3600
[08:42:13] sync: first pts is 10800
[08:42:13] qsv: Intel QSV/MediaSDK uses hardware implementation
[08:42:13] qsv: Using for encode only.
[08:42:13] qsv: RateControlMethod:MFX_RATECONTROL_CQP(I:18/P:20/B:20) TargetKbps:20
[08:42:13] qsv: TargetUsage:2 AsyncDepth:4
[08:42:13] qsv: GopRefDist:4 GopPicSize:32 NumRefFrame:0
[08:44:01] mpeg2video: "Chapter 2" (2) at frame 1697 time 6091200

Code: Select all

HandBrake svn5476 (Nightly Build) - 64bit Version
OS: Microsoft Windows NT 6.2.9200.0
CPU: Intel(R) Core(TM) i5-3337U CPU @ 1.80GHz
Ram: 8073 MB, Screen: 1366x768
Temp Dir: C:\Users\GCN2.0\AppData\Local\Temp\
Install Dir: C:\Program Files\Handbrake
Data Dir: C:\Users\GCN2.0\AppData\Roaming\HandBrake\HandBrake\0.0.0.5476

-------------------------------------------
 -i "D:\Games\Dallas - --- - Source for test purposes .mkv" -t0  --min-duration=10 -v 
[08:40:50] hb_init: starting libhb thread
HandBrake svn5476 (2013051801) - MinGW x86_64 - http://handbrake.fr
4 CPUs detected
Opening D:\Games\Dallas - --- - Source for test purposes .mkv...
[08:40:50] hb_scan: path=D:\Games\Dallas - --- - Source for test purposes .mkv, title_index=0
libbluray/bdnav/index_parse.c:162: indx_parse(): error opening D:\Games\Dallas - --- - Source for test purposes .mkv/BDMV/index.bdmv
libbluray/bdnav/index_parse.c:162: indx_parse(): error opening D:\Games\Dallas - --- - Source for test purposes .mkv/BDMV/BACKUP/index.bdmv
libbluray/bluray.c:1725: nav_get_title_list(D:\Games\Dallas - --- - Source for test purposes .mkv) failed (0000000001BF56C0)
[08:40:50] bd: not a bd - trying as a stream/file instead
libdvdnav: Using dvdnav version 4.1.3
libdvdread: Encrypted DVD support unavailable.
libdvdnav:DVDOpenFileUDF:UDFFindFile /VIDEO_TS/VIDEO_TS.IFO failed
libdvdnav:DVDOpenFileUDF:UDFFindFile /VIDEO_TS/VIDEO_TS.BUP failed
libdvdread: Can't open file VIDEO_TS.IFO.
libdvdnav: vm: failed to read VIDEO_TS.IFO
[08:40:50] dvd: not a dvd - trying as a stream/file instead
Input #0, matroska,webm, from 'D:\Games\Dallas - --- - Source for test purposes .mkv':
  Duration: 00:46:05.72, start: 0.000000, bitrate: N/A
    Chapter #0.0: start 0.000000, end 67.640000
    Metadata:
      title           : Chapter 01
    Chapter #0.1: start 67.640000, end 840.920000
    Metadata:
      title           : Chapter 02
    Chapter #0.2: start 840.920000, end 1335.440000
    Metadata:
      title           : Chapter 03
    Chapter #0.3: start 1335.440000, end 2108.000000
    Metadata:
      title           : Chapter 04
    Chapter #0.4: start 2108.000000, end 2715.520000
    Metadata:
      title           : Chapter 05
    Chapter #0.5: start 2715.520000, end 2765.720000
    Metadata:
      title           : Chapter 06
    Stream #0.0(eng): Video: mpeg2video (Main), yuv420p, 720x576 [PAR 16:15 DAR 4:3], 8000 kb/s, 25 fps, 25 tbr, 1k tbn, 50 tbc (default)
    Stream #0.1(eng): Audio: ac3, 48000 Hz, mono, fltp, 192 kb/s (default)
    Metadata:
      title           : 1/0
    Stream #0.2(eng): Audio: ac3, 48000 Hz, mono, fltp, 192 kb/s
    Metadata:
      title           : 1/0
    Stream #0.3(ger): Subtitle: dvdsub (default)
    Stream #0.4(eng): Subtitle: dvdsub
[08:40:50] scan: decoding previews for title 1
[08:40:50] scan: audio 0x2: AC-3, rate=48000Hz, bitrate=192000 English (AC3) (1.0 ch)
[08:40:51] libhb: scan thread found 1 valid title(s)
- intel quick sync video support: yes
  - hardware version: 1.4 (minimum: 1.4)
+ title 1:
  + stream: D:\Games\Dallas - --- - Source for test purposes .mkv
  + duration: 00:46:05
  + size: 720x576, pixel aspect: 16/15, display aspect: 1.33, 25.000 fps
  + autocrop: 0/0/0/0
  + chapters:
    + 1: cells 0->0, 0 blocks, duration 00:01:08
    + 2: cells 0->0, 0 blocks, duration 00:12:53
    + 3: cells 0->0, 0 blocks, duration 00:08:15
    + 4: cells 0->0, 0 blocks, duration 00:12:53
    + 5: cells 0->0, 0 blocks, duration 00:10:08
    + 6: cells 0->0, 0 blocks, duration 00:00:50
  + audio tracks:
    + 1, English (AC3) (1.0 ch) (iso639-2: eng), 48000Hz, 192000bps
    + 2, English (AC3) (1.0 ch) (iso639-2: eng), 48000Hz, 192000bps
  + subtitle tracks:
    + 1, German (iso639-2: deu) (Bitmap)(VOBSUB)
    + 2, English (iso639-2: eng) (Bitmap)(VOBSUB)
HandBrake has exited.

I just tried my another test input file (I guess that is not mpeg2) but same slowness;

Code: Select all

HandBrake svn5476 (Nightly Build) - 64bit Version
OS: Microsoft Windows NT 6.2.9200.0
CPU: Intel(R) Core(TM) i5-3337U CPU @ 1.80GHz
Ram: 8073 MB, Screen: 1366x768
Temp Dir: C:\Users\GCN2.0\AppData\Local\Temp\
Install Dir: C:\Program Files\Handbrake
Data Dir: C:\Users\GCN2.0\AppData\Roaming\HandBrake\HandBrake\0.0.0.5476

-------------------------------------------
CLI Query:  -i "D:\Games\AMD at CES 2013 -- AMD and VIZIO's Showcase New Lineup.mp4" -t 1 --angle 1 -c 1 -o "C:\Users\GCN2.0\Desktop\test.mkv"  -f mkv  -w 1920 --loose-anamorphic  --modulus 16 -e qsv_h264 -q 20 --cfr -a 1 -E faac -6 dpl2 -R 48 -B 160 -D 0 --gain 0 --audio-fallback ffac3 -x target-usage=2:gop-ref-dist=4:gop-pic-size=32:async-depth=4 --verbose=1
User Query: False

[08:57:05] hb_init: starting libhb thread
HandBrake svn5476 (2013051801) - MinGW x86_64 - http://handbrake.fr
4 CPUs detected
Opening D:\Games\AMD at CES 2013 -- AMD and VIZIO's Showcase New Lineup.mp4...
[08:57:05] hb_scan: path=D:\Games\AMD at CES 2013 -- AMD and VIZIO's Showcase New Lineup.mp4, title_index=1
libbluray/bdnav/index_parse.c:162: indx_parse(): error opening D:\Games\AMD at CES 2013 -- AMD and VIZIO's Showcase New Lineup.mp4/BDMV/index.bdmv
libbluray/bdnav/index_parse.c:162: indx_parse(): error opening D:\Games\AMD at CES 2013 -- AMD and VIZIO's Showcase New Lineup.mp4/BDMV/BACKUP/index.bdmv
libbluray/bluray.c:1725: nav_get_title_list(D:\Games\AMD at CES 2013 -- AMD and VIZIO's Showcase New Lineup.mp4) failed (00000000034C5F80)
[08:57:05] bd: not a bd - trying as a stream/file instead
libdvdnav: Using dvdnav version 4.1.3
libdvdread: Encrypted DVD support unavailable.
libdvdnav:DVDOpenFileUDF:UDFFindFile /VIDEO_TS/VIDEO_TS.IFO failed
libdvdnav:DVDOpenFileUDF:UDFFindFile /VIDEO_TS/VIDEO_TS.BUP failed
libdvdread: Can't open file VIDEO_TS.IFO.
libdvdnav: vm: failed to read VIDEO_TS.IFO
[08:57:05] dvd: not a dvd - trying as a stream/file instead
Input #0, mov,mp4,m4a,3gp,3g2,mj2, from 'D:\Games\AMD at CES 2013 -- AMD and VIZIO's Showcase New Lineup.mp4':
  Metadata:
    major_brand     : mp42
    minor_version   : 0
    compatible_brands: isommp42
    creation_time   : 2013-01-08 00:23:10
  Duration: 00:02:36.41, start: 0.000000, bitrate: 3806 kb/s
    Stream #0.0(und): Video: h264 (High), yuv420p, 1920x1080, 3611 kb/s, 24 fps, 24 tbr, 48 tbn, 48 tbc
    Metadata:
      creation_time   : 1970-01-01 00:00:00
    Stream #0.1(und): Audio: aac, 44100 Hz, stereo, fltp, 191 kb/s
    Metadata:
      creation_time   : 2013-01-08 00:23:10
[08:57:05] scan: decoding previews for title 1
[08:57:05] scan: audio 0x1: aac, rate=44100Hz, bitrate=191999 Unknown (aac) (2.0 ch)
Scanning title 1 of 1, preview 7, 70.00 %[08:57:05] scan: 10 previews, 1920x1080, 24.000 fps, autocrop = 0/0/0/0, aspect 16:9, PAR 1:1
[08:57:05] libhb: scan thread found 1 valid title(s)
- intel quick sync video support: yes
  - hardware version: 1.4 (minimum: 1.4)
+ title 1:
  + stream: D:\Games\AMD at CES 2013 -- AMD and VIZIO's Showcase New Lineup.mp4
  + duration: 00:02:36
  + size: 1920x1080, pixel aspect: 1/1, display aspect: 1.78, 24.000 fps
  + autocrop: 0/0/0/0
  + chapters:
    + 1: cells 0->0, 0 blocks, duration 00:02:36
  + audio tracks:
    + 1, Unknown (aac) (2.0 ch) (iso639-2: und)
  + subtitle tracks:
[08:57:06] 1 job(s) to process
[08:57:06] starting job
[08:57:06] work: sanitizing track 1 mixdown Dolby Pro Logic II to Stereo
[08:57:06] sync: expecting 3754 video frames
[08:57:06] job configuration:
[08:57:06]  * source
[08:57:06]    + D:\Games\AMD at CES 2013 -- AMD and VIZIO's Showcase New Lineup.mp4
[08:57:06]    + title 1, chapter(s) 1 to 1
[08:57:06]    + container: mov,mp4,m4a,3gp,3g2,mj2
[08:57:06]    + data rate: 3806 kbps
[08:57:06]  * destination
[08:57:06]    + C:\Users\GCN2.0\Desktop\test.mkv
[08:57:06]    + container: Matroska (.mkv)
[08:57:06]  * video track
[08:57:06]    + decoder: h264
[08:57:06]      + bitrate 3611 kbps
[08:57:06]    + frame rate: 24.000 fps -> constant 24.000 fps
[08:57:06]    + filter
[08:57:06]      + Intel Quick Sync VPP Filter (1920:1072:0:0:0:0_dei:0)
[08:57:06]        + source: 1920 * 1080, crop (0/0/0/0): 1920 * 1080, scale: 1920 * 1072
[08:57:06]    + loose anamorphic
[08:57:06]      + storage dimensions: 1920 * 1072, mod 16
[08:57:06]      + pixel aspect ratio: 134 / 135
[08:57:06]      + display dimensions: 1905 * 1072
[08:57:06]    + encoder: H.264 (Intel QSV)
[08:57:06]      + options: target-usage=2:gop-ref-dist=4:gop-pic-size=32:async-depth=4
[08:57:06]      + quality: 20.00 (QP)
[08:57:06]  * audio track 1
[08:57:06]    + decoder: Unknown (aac) (2.0 ch) (track 1, id 0x1)
[08:57:06]      + bitrate: 191 kbps, samplerate: 44100 Hz
[08:57:06]    + mixdown: Stereo
[08:57:06]    + encoder: AAC (faac)
[08:57:06]      + bitrate: 160 kbps, samplerate: 48000 Hz
[08:57:06] reader: first SCR 0 id 0x0 DTS 0
[08:57:06] qsv: Intel QSV/MediaSDK uses hardware implementation
[08:57:06] qsv: RateControlMethod:MFX_RATECONTROL_CQP(I:20/P:22/B:22) TargetKbps:22
[08:57:06] qsv: TargetUsage:2 AsyncDepth:4
[08:57:06] qsv: GopRefDist:4 GopPicSize:32 NumRefFrame:0

Code: Select all

HandBrake svn5476 (Nightly Build) - 64bit Version
OS: Microsoft Windows NT 6.2.9200.0
CPU: Intel(R) Core(TM) i5-3337U CPU @ 1.80GHz
Ram: 8073 MB, Screen: 1366x768
Temp Dir: C:\Users\GCN2.0\AppData\Local\Temp\
Install Dir: C:\Program Files\Handbrake
Data Dir: C:\Users\GCN2.0\AppData\Roaming\HandBrake\HandBrake\0.0.0.5476

-------------------------------------------
 -i "D:\Games\AMD at CES 2013 -- AMD and VIZIO's Showcase New Lineup.mp4" -t0  --min-duration=10 -v 
[08:56:26] hb_init: starting libhb thread
HandBrake svn5476 (2013051801) - MinGW x86_64 - http://handbrake.fr
4 CPUs detected
Opening D:\Games\AMD at CES 2013 -- AMD and VIZIO's Showcase New Lineup.mp4...
[08:56:26] hb_scan: path=D:\Games\AMD at CES 2013 -- AMD and VIZIO's Showcase New Lineup.mp4, title_index=0
libbluray/bdnav/index_parse.c:162: indx_parse(): error opening D:\Games\AMD at CES 2013 -- AMD and VIZIO's Showcase New Lineup.mp4/BDMV/index.bdmv
libbluray/bdnav/index_parse.c:162: indx_parse(): error opening D:\Games\AMD at CES 2013 -- AMD and VIZIO's Showcase New Lineup.mp4/BDMV/BACKUP/index.bdmv
libbluray/bluray.c:1725: nav_get_title_list(D:\Games\AMD at CES 2013 -- AMD and VIZIO's Showcase New Lineup.mp4) failed (0000000001BF7130)
[08:56:26] bd: not a bd - trying as a stream/file instead
libdvdnav: Using dvdnav version 4.1.3
libdvdread: Encrypted DVD support unavailable.
libdvdnav:DVDOpenFileUDF:UDFFindFile /VIDEO_TS/VIDEO_TS.IFO failed
libdvdnav:DVDOpenFileUDF:UDFFindFile /VIDEO_TS/VIDEO_TS.BUP failed
libdvdread: Can't open file VIDEO_TS.IFO.
libdvdnav: vm: failed to read VIDEO_TS.IFO
[08:56:26] dvd: not a dvd - trying as a stream/file instead
Input #0, mov,mp4,m4a,3gp,3g2,mj2, from 'D:\Games\AMD at CES 2013 -- AMD and VIZIO's Showcase New Lineup.mp4':
  Metadata:
    major_brand     : mp42
    minor_version   : 0
    compatible_brands: isommp42
    creation_time   : 2013-01-08 00:23:10
  Duration: 00:02:36.41, start: 0.000000, bitrate: 3806 kb/s
    Stream #0.0(und): Video: h264 (High), yuv420p, 1920x1080, 3611 kb/s, 24 fps, 24 tbr, 48 tbn, 48 tbc
    Metadata:
      creation_time   : 1970-01-01 00:00:00
    Stream #0.1(und): Audio: aac, 44100 Hz, stereo, fltp, 191 kb/s
    Metadata:
      creation_time   : 2013-01-08 00:23:10
[08:56:26] scan: decoding previews for title 1
[08:56:26] scan: audio 0x1: aac, rate=44100Hz, bitrate=191999 Unknown (aac) (2.0 ch)
[08:56:26] libhb: scan thread found 1 valid title(s)
- intel quick sync video support: yes
  - hardware version: 1.4 (minimum: 1.4)
+ title 1:
  + stream: D:\Games\AMD at CES 2013 -- AMD and VIZIO's Showcase New Lineup.mp4
  + duration: 00:02:36
  + size: 1920x1080, pixel aspect: 1/1, display aspect: 1.78, 24.000 fps
  + autocrop: 0/0/0/0
  + chapters:
    + 1: cells 0->0, 0 blocks, duration 00:02:36
  + audio tracks:
    + 1, Unknown (aac) (2.0 ch) (iso639-2: und)
  + subtitle tracks:
HandBrake has exited.
User avatar
Rodeo
HandBrake Team
Posts: 12757
Joined: Tue Mar 03, 2009 8:55 pm

Re: New QuickSync beta build coming soon?

Post by Rodeo »

AAT wrote:Here is the encode log and scan log with the latest Intel VGA driver (same slowness);

Code: Select all

CPU: Intel(R) Core(TM) i5-3337U CPU @ 1.80GHz

[…]

- intel quick sync video support: yes
  - hardware version: 1.4 (minimum: 1.4)
Not working. There are issues with the .3165 driver under Windows 8, try the .3071 driver instead.

https://downloadcenter.intel.com/Detail ... ldID=22652
maxim_d33
Bright Spark User
Posts: 173
Joined: Mon Mar 21, 2011 12:02 pm

Re: New QuickSync beta build coming soon?

Post by maxim_d33 »

ATT, if you see :
>hardware version: 1.4 (minimum: 1.4)
it means that a driver below 3071 is used, please upgrade and rebot,
did you restart your PC after new driver installation?

yes, your second input uses QSV/HW accelerated decode/filter(crop/resize)/encode
AAT
Posts: 34
Joined: Sun Dec 23, 2012 9:35 pm

Re: New QuickSync beta build coming soon?

Post by AAT »

I've just installed driver 3071 rebooted windows and same slowness occurs than with previous two drivers;

Code: Select all

HandBrake svn5476 (Nightly Build) - 64bit Version
OS: Microsoft Windows NT 6.2.9200.0
CPU: Intel(R) Core(TM) i5-3337U CPU @ 1.80GHz
Ram: 8073 MB, Screen: 1366x768
Temp Dir: C:\Users\GCN2.0\AppData\Local\Temp\
Install Dir: C:\Program Files\Handbrake
Data Dir: C:\Users\GCN2.0\AppData\Roaming\HandBrake\HandBrake\0.0.0.5476

-------------------------------------------
CLI Query:  -i "D:\Games\AMD at CES 2013 -- AMD and VIZIO's Showcase New Lineup.mp4" -t 1 --angle 1 -c 1 -o "C:\Users\GCN2.0\Desktop\Amd At Ces 2013 -- Amd And Vizio's Showcase New Lineup-1.mkv"  -f mkv  -w 1920 --loose-anamorphic  --modulus 16 -e qsv_h264 -q 20 --cfr -a 1 -E faac -6 dpl2 -R 48 -B 160 -D 0 --gain 0 --audio-fallback ffac3 -x target-usage=2:gop-ref-dist=4:gop-pic-size=32:async-depth=4 --verbose=1
User Query: False

[01:13:30] hb_init: starting libhb thread
HandBrake svn5476 (2013051801) - MinGW x86_64 - http://handbrake.fr
4 CPUs detected
Opening D:\Games\AMD at CES 2013 -- AMD and VIZIO's Showcase New Lineup.mp4...
[01:13:30] hb_scan: path=D:\Games\AMD at CES 2013 -- AMD and VIZIO's Showcase New Lineup.mp4, title_index=1
libbluray/bdnav/index_parse.c:162: indx_parse(): error opening D:\Games\AMD at CES 2013 -- AMD and VIZIO's Showcase New Lineup.mp4/BDMV/index.bdmv
libbluray/bdnav/index_parse.c:162: indx_parse(): error opening D:\Games\AMD at CES 2013 -- AMD and VIZIO's Showcase New Lineup.mp4/BDMV/BACKUP/index.bdmv
libbluray/bluray.c:1725: nav_get_title_list(D:\Games\AMD at CES 2013 -- AMD and VIZIO's Showcase New Lineup.mp4) failed (0000000001BF5FF0)
[01:13:30] bd: not a bd - trying as a stream/file instead
libdvdnav: Using dvdnav version 4.1.3
libdvdread: Encrypted DVD support unavailable.
libdvdnav:DVDOpenFileUDF:UDFFindFile /VIDEO_TS/VIDEO_TS.IFO failed
libdvdnav:DVDOpenFileUDF:UDFFindFile /VIDEO_TS/VIDEO_TS.BUP failed
libdvdread: Can't open file VIDEO_TS.IFO.
libdvdnav: vm: failed to read VIDEO_TS.IFO
[01:13:30] dvd: not a dvd - trying as a stream/file instead
Input #0, mov,mp4,m4a,3gp,3g2,mj2, from 'D:\Games\AMD at CES 2013 -- AMD and VIZIO's Showcase New Lineup.mp4':
  Metadata:
    major_brand     : mp42
    minor_version   : 0
    compatible_brands: isommp42
    creation_time   : 2013-01-08 00:23:10
  Duration: 00:02:36.41, start: 0.000000, bitrate: 3806 kb/s
    Stream #0.0(und): Video: h264 (High), yuv420p, 1920x1080, 3611 kb/s, 24 fps, 24 tbr, 48 tbn, 48 tbc
    Metadata:
      creation_time   : 1970-01-01 00:00:00
    Stream #0.1(und): Audio: aac, 44100 Hz, stereo, fltp, 191 kb/s
    Metadata:
      creation_time   : 2013-01-08 00:23:10
[01:13:30] scan: decoding previews for title 1
[01:13:30] scan: audio 0x1: aac, rate=44100Hz, bitrate=191999 Unknown (aac) (2.0 ch)
Scanning title 1 of 1, preview 7, 70.00 %[01:13:30] scan: 10 previews, 1920x1080, 24.000 fps, autocrop = 0/0/0/0, aspect 16:9, PAR 1:1
[01:13:30] libhb: scan thread found 1 valid title(s)
- intel quick sync video support: yes
  - hardware version: 1.6 (minimum: 1.4)
+ title 1:
  + stream: D:\Games\AMD at CES 2013 -- AMD and VIZIO's Showcase New Lineup.mp4
  + duration: 00:02:36
  + size: 1920x1080, pixel aspect: 1/1, display aspect: 1.78, 24.000 fps
  + autocrop: 0/0/0/0
  + chapters:
    + 1: cells 0->0, 0 blocks, duration 00:02:36
  + audio tracks:
    + 1, Unknown (aac) (2.0 ch) (iso639-2: und)
  + subtitle tracks:
[01:13:30] 1 job(s) to process
[01:13:30] starting job
[01:13:30] work: sanitizing track 1 mixdown Dolby Pro Logic II to Stereo
[01:13:30] sync: expecting 3754 video frames
[01:13:30] job configuration:
[01:13:30]  * source
[01:13:30]    + D:\Games\AMD at CES 2013 -- AMD and VIZIO's Showcase New Lineup.mp4
[01:13:30]    + title 1, chapter(s) 1 to 1
[01:13:30]    + container: mov,mp4,m4a,3gp,3g2,mj2
[01:13:30]    + data rate: 3806 kbps
[01:13:30]  * destination
[01:13:30]    + C:\Users\GCN2.0\Desktop\Amd At Ces 2013 -- Amd And Vizio's Showcase New Lineup-1.mkv
[01:13:30]    + container: Matroska (.mkv)
[01:13:30]  * video track
[01:13:30]    + decoder: h264
[01:13:30]      + bitrate 3611 kbps
[01:13:30]    + frame rate: 24.000 fps -> constant 24.000 fps
[01:13:30]    + filter
[01:13:30]      + Intel Quick Sync VPP Filter (1920:1072:0:0:0:0_dei:0)
[01:13:30]        + source: 1920 * 1080, crop (0/0/0/0): 1920 * 1080, scale: 1920 * 1072
[01:13:30]    + loose anamorphic
[01:13:30]      + storage dimensions: 1920 * 1072, mod 16
[01:13:30]      + pixel aspect ratio: 134 / 135
[01:13:30]      + display dimensions: 1905 * 1072
[01:13:30]    + encoder: H.264 (Intel QSV)
[01:13:30]      + options: target-usage=2:gop-ref-dist=4:gop-pic-size=32:async-depth=4
[01:13:30]      + quality: 20.00 (QP)
[01:13:30]  * audio track 1
[01:13:30]    + decoder: Unknown (aac) (2.0 ch) (track 1, id 0x1)
[01:13:30]      + bitrate: 191 kbps, samplerate: 44100 Hz
[01:13:30]    + mixdown: Stereo
[01:13:30]    + encoder: AAC (faac)
[01:13:30]      + bitrate: 160 kbps, samplerate: 48000 Hz
[01:13:30] reader: first SCR 0 id 0x0 DTS 0
[01:13:32] qsv: Intel QSV/MediaSDK uses hardware implementation
[01:13:32] qsv: RateControlMethod:MFX_RATECONTROL_CQP(I:20/P:22/B:22) TargetKbps:22
[01:13:32] qsv: TargetUsage:2 AsyncDepth:4
[01:13:32] qsv: GopRefDist:4 GopPicSize:32 NumRefFrame:0

Code: Select all

HandBrake svn5476 (Nightly Build) - 64bit Version
OS: Microsoft Windows NT 6.2.9200.0
CPU: Intel(R) Core(TM) i5-3337U CPU @ 1.80GHz
Ram: 8073 MB, Screen: 1366x768
Temp Dir: C:\Users\GCN2.0\AppData\Local\Temp\
Install Dir: C:\Program Files\Handbrake
Data Dir: C:\Users\GCN2.0\AppData\Roaming\HandBrake\HandBrake\0.0.0.5476

-------------------------------------------
 -i "D:\Games\AMD at CES 2013 -- AMD and VIZIO's Showcase New Lineup.mp4" -t0  --min-duration=10 -v 
[01:13:12] hb_init: starting libhb thread
HandBrake svn5476 (2013051801) - MinGW x86_64 - http://handbrake.fr
4 CPUs detected
Opening D:\Games\AMD at CES 2013 -- AMD and VIZIO's Showcase New Lineup.mp4...
[01:13:12] hb_scan: path=D:\Games\AMD at CES 2013 -- AMD and VIZIO's Showcase New Lineup.mp4, title_index=0
libbluray/bdnav/index_parse.c:162: indx_parse(): error opening D:\Games\AMD at CES 2013 -- AMD and VIZIO's Showcase New Lineup.mp4/BDMV/index.bdmv
libbluray/bdnav/index_parse.c:162: indx_parse(): error opening D:\Games\AMD at CES 2013 -- AMD and VIZIO's Showcase New Lineup.mp4/BDMV/BACKUP/index.bdmv
libbluray/bluray.c:1725: nav_get_title_list(D:\Games\AMD at CES 2013 -- AMD and VIZIO's Showcase New Lineup.mp4) failed (00000000035056D0)
[01:13:12] bd: not a bd - trying as a stream/file instead
libdvdnav: Using dvdnav version 4.1.3
libdvdread: Encrypted DVD support unavailable.
libdvdnav:DVDOpenFileUDF:UDFFindFile /VIDEO_TS/VIDEO_TS.IFO failed
libdvdnav:DVDOpenFileUDF:UDFFindFile /VIDEO_TS/VIDEO_TS.BUP failed
libdvdread: Can't open file VIDEO_TS.IFO.
libdvdnav: vm: failed to read VIDEO_TS.IFO
[01:13:12] dvd: not a dvd - trying as a stream/file instead
Input #0, mov,mp4,m4a,3gp,3g2,mj2, from 'D:\Games\AMD at CES 2013 -- AMD and VIZIO's Showcase New Lineup.mp4':
  Metadata:
    major_brand     : mp42
    minor_version   : 0
    compatible_brands: isommp42
    creation_time   : 2013-01-08 00:23:10
  Duration: 00:02:36.41, start: 0.000000, bitrate: 3806 kb/s
    Stream #0.0(und): Video: h264 (High), yuv420p, 1920x1080, 3611 kb/s, 24 fps, 24 tbr, 48 tbn, 48 tbc
    Metadata:
      creation_time   : 1970-01-01 00:00:00
    Stream #0.1(und): Audio: aac, 44100 Hz, stereo, fltp, 191 kb/s
    Metadata:
      creation_time   : 2013-01-08 00:23:10
[01:13:12] scan: decoding previews for title 1
[01:13:12] scan: audio 0x1: aac, rate=44100Hz, bitrate=191999 Unknown (aac) (2.0 ch)
[01:13:12] libhb: scan thread found 1 valid title(s)
- intel quick sync video support: yes
  - hardware version: 1.6 (minimum: 1.4)
+ title 1:
  + stream: D:\Games\AMD at CES 2013 -- AMD and VIZIO's Showcase New Lineup.mp4
  + duration: 00:02:36
  + size: 1920x1080, pixel aspect: 1/1, display aspect: 1.78, 24.000 fps
  + autocrop: 0/0/0/0
  + chapters:
    + 1: cells 0->0, 0 blocks, duration 00:02:36
  + audio tracks:
    + 1, Unknown (aac) (2.0 ch) (iso639-2: und)
  + subtitle tracks:
HandBrake has exited.
Where can I read my driver version in these logs oder than hardware version: 1.6 (minimum: 1.4)? Is possible my second turned off GPU (Radeon 8750M) interfering somehow?
peterdk
Posts: 9
Joined: Tue Jul 02, 2013 10:06 pm

Re: New QuickSync beta build coming soon?

Post by peterdk »

Any time estimate? Week, Weeks, Month?

Also, is there any improvement in filesize or quality to be expected with a new build? Or is there not much what handbrake can do with QS and is the new build only useful for error handling and minor bug fixes?
User avatar
s55
HandBrake Team
Posts: 9971
Joined: Sun Dec 24, 2006 1:05 pm

Re: New QuickSync beta build coming soon?

Post by s55 »

There is no estimates. There are no plans. People just work on stuff when they feel like it. It's a hobby project.

No significant changes in output for most. I think the new API does expose the lookahead option so potentially you could slow things down for a small increase in quality.

Any chances would come of Intel exposing more functionality through newer versions of their API.
User avatar
Rodeo
HandBrake Team
Posts: 12757
Joined: Tue Mar 03, 2009 8:55 pm

Re: New QuickSync beta build coming soon?

Post by Rodeo »

s55 wrote:I think the new API does expose the lookahead option so potentially you could slow things down for a small increase in quality.
Yep. Not sure whether drivers are available for this yet though. You should also be able to turn trellis quantization on/off.

The rest will be mostly bugfixes (one of which we're still working on, which may or may not delay the build further).
gmb
Bright Spark User
Posts: 348
Joined: Thu Mar 28, 2013 12:49 pm

Re: New QuickSync beta build coming soon?

Post by gmb »

There is no API 1.7 driver available yet which lookahead needs.
User avatar
Rodeo
HandBrake Team
Posts: 12757
Joined: Tue Mar 03, 2009 8:55 pm

Re: New QuickSync beta build coming soon?

Post by Rodeo »

gmb wrote:There is no API 1.7 driver available yet which lookahead needs.
MediaSDK 2013 r2 is available with a software implementation of API 1.7. If I understand the release notes correctly, the lookahead is not actually used, but you can set the option. I guess I should actually install it and give it a try. Also, I'm told the drivers for hardware support are on their way, though I have no idea exactly when they'll land.

Hopefully we'll have a build out soon after, though there's a known bug, unfixed as yet, which may hold the release for a bit.
gmb
Bright Spark User
Posts: 348
Joined: Thu Mar 28, 2013 12:49 pm

Re: New QuickSync beta build coming soon?

Post by gmb »

Intel told me lookahead doesn't work with the current driver.
User avatar
s55
HandBrake Team
Posts: 9971
Joined: Sun Dec 24, 2006 1:05 pm

Re: New QuickSync beta build coming soon?

Post by s55 »

Also, I'm told the drivers for hardware support are on their way,
User avatar
Rodeo
HandBrake Team
Posts: 12757
Joined: Tue Mar 03, 2009 8:55 pm

Re: New QuickSync beta build coming soon?

Post by Rodeo »

gmb wrote:Intel told me lookahead doesn't work with the current driver.
This is correct, and perfectly compatible with my last post.
gmb
Bright Spark User
Posts: 348
Joined: Thu Mar 28, 2013 12:49 pm

Re: New QuickSync beta build coming soon?

Post by gmb »

15.33.64.3214: http://downloadmirror.intel.com/22935/a ... _1533b.zip


Does this new driver support lookahead?
User avatar
Rodeo
HandBrake Team
Posts: 12757
Joined: Tue Mar 03, 2009 8:55 pm

Re: New QuickSync beta build coming soon?

Post by Rodeo »

My guess is probably not. Anyway, easy to test: install it and check which "hardware version" is reported in HandBrake's Activity Log (just scan any source with the Quick Sync Beta).

Code: Select all

HandBrakeCLI -i <input_file> -t0
Example output with current drivers:

Code: Select all

[01:13:12] libhb: scan thread found 1 valid title(s)
- intel quick sync video support: yes
  - hardware version: 1.6 (minimum: 1.4)
+ title 1:
If it's reporting 1.7, and if the hardware is compatible (i.e. Haswell, basically) it may well support lookahead rate control (you'll need the next Beta as far as using it within HandBrake though). If it's reporting 1.6, lookahead will not be supported.

As for testing it myself, I won't install a preview driver on the only Quick Sync enabled hardware I have access to, as I need it for development purposes - sorry ;-)
gmb
Bright Spark User
Posts: 348
Joined: Thu Mar 28, 2013 12:49 pm

Re: New QuickSync beta build coming soon?

Post by gmb »

- intel quick sync video support: yes
- hardware version: 1.6 (minimum: 1.4)
- software version: 1.7 (minimum: 1.4


Not supported. Looks like we won't see API 1.7 drivers anytime soon considering that even a new Beta driver based on a new driver stack don't support it. My guess is 2-3 months if not more. Maybe early September around Windows 8.1 launch. Pathetic from Intel.
AAT
Posts: 34
Joined: Sun Dec 23, 2012 9:35 pm

Re: New QuickSync beta build coming soon?

Post by AAT »

gmb wrote:Intel told me lookahead doesn't work with the current driver.
So why do you guys asked me to install so many different driver if quicksink doesn't work with any current intel driver?
Post Reply