Tags title

Discussion of the cross-platform HandBrake command line interface (CLI)
Forum rules
An Activity Log is required for support requests. Please read How-to get an activity log? for details on how and why this should be provided.
Post Reply
t3kg33k
Posts: 4
Joined: Thu Mar 02, 2017 1:49 am

Tags title

Post by t3kg33k » Fri Nov 10, 2017 8:35 pm

Please detail your question or problem in as much detail as possible:

Looking for a tags title option in HandBrakeCLI. I use the GUI quite often and usually change the tag title. Is this not an option in the CLI?

Tell us about your environment. What version of HandBrake? What operating system are you running. etc.

1.0.4 in Ubuntu 16.04

If there was any exception or error displayed, please copy it and paste it here:

Please include the scan or encode log:

Code: Select all

 Paste a log of the scan or encode between these code brackets, or use a pastebin website and provide us with the URL it gives you. 
 Logs are required for all support requests.

rollin_eng
Veteran User
Posts: 2582
Joined: Wed May 04, 2011 11:06 pm

Re: Tags title

Post by rollin_eng » Fri Nov 10, 2017 8:44 pm

Could you please post your logs, instructions can be found here:

https://handbrake.fr/docs/en/latest/hel ... y-log.html

t3kg33k
Posts: 4
Joined: Thu Mar 02, 2017 1:49 am

Re: Tags title

Post by t3kg33k » Fri Nov 10, 2017 11:38 pm

Well, I'm not sure how it's relevant to my question on CLI switch for tag title but here you go.


[15:20:36] gtkgui: HandBrake 1.0.4 (2017040900) - Linux x86_64 - https://handbrake.fr
[15:20:36] hb_init: starting libhb thread
[15:20:36] hb_init: starting libhb thread
[15:20:36] hb_init: starting libhb thread
[15:22:18] CPU: Intel(R) Core(TM) i5-4690K CPU @ 3.50GHz
[15:22:18] - Intel microarchitecture Haswell
[15:22:18] - logical processor count: 4
[15:22:18] hb_scan: path=/home/ed/Videos/Webcam/2017-11-10-152135.webm, title_index=0
udfread ERROR: ECMA 167 Volume Recognition failed
disc.c:274: failed opening UDF image /home/ed/Videos/Webcam/2017-11-10-152135.webm
disc.c:352: error opening file BDMV/index.bdmv
disc.c:352: error opening file BDMV/BACKUP/index.bdmv
[15:22:18] bd: not a bd - trying as a stream/file instead
libdvdnav: Using dvdnav version 5.0.1
libdvdread: Encrypted DVD support unavailable.
libdvdread:DVDOpenFileUDF:UDFFindFile /VIDEO_TS/VIDEO_TS.IFO failed
libdvdread:DVDOpenFileUDF:UDFFindFile /VIDEO_TS/VIDEO_TS.BUP failed
libdvdread: Can't open file VIDEO_TS.IFO.
libdvdnav: vm: failed to read VIDEO_TS.IFO
[15:22:18] dvd: not a dvd - trying as a stream/file instead
Input #0, matroska,webm, from '/home/ed/Videos/Webcam/2017-11-10-152135.webm':
Duration: 00:00:11.87, start: 0.000000, bitrate: N/A
Stream #0:0(eng): Video: vp8
yuv420p, 1920x1080, PAR 1:1 DAR 16:9
15.08 fps, 1k tbn (default)
Metadata:
title : Video
Stream #0:1(eng): Audio: vorbis
44100 Hz, mono, fltp (default)
Metadata:
title : Audio
[15:22:18] scan: decoding previews for title 1
[15:22:18] scan: audio 0x1: vorbis, rate=44100Hz, bitrate=1 English (Vorbis) (1.0 ch)
[15:22:18] scan: 10 previews, 1920x1080, 15.083 fps, autocrop = 0/0/0/0, aspect 16:9, PAR 1:1
[15:22:18] libhb: scan thread found 1 valid title(s)

Post Reply